查看: 162|回复: 6

[科幻片] 绞肉机/灵异血魔 The.Mangler.1995.REMASTERED.720p.BluRay.x264-PHASE 5.47GB

[复制链接]

 成长值: 5440

级别:资源管理组

注册时间
2017-10-20
最后登录
2020-5-25
听众
1
收听
0
主题
96158
蓝光币
150778 枚
贡献
20536 点
发表于 2019-8-28 17:41:54 | 显示全部楼层 |阅读模式
绞肉机/灵异血魔 The.Mangler.1995.REMASTERED.720p.BluRay.x264-PHASE 5.47GB-1.png
1 x3 g4 {& u; F  I* z% U1 a2 t' d8 \7 }2 O- E: E7 e
译  名 绞肉机 / 灵异血魔 / 猛鬼工场
& ]; P  w; y" S, z/ U3 ?片  名 The Mangler8 G! l0 m+ e6 H
年  代 1995
+ k' h1 U' B1 e产  地 美国 / 澳大利亚 / 南非; T! y8 Z6 n; N* c
类  别 科幻 / 惊悚 / 可骇
) I7 d. m# u# _语  言 英语
+ r3 Q- R, j5 `1 W* g上映日期 1995-03-03
, y* V& d+ g: k& B1 D1 e5 E) N$ xIMDb评分  4.2/10 from 7800 users4 i  ~" @3 E- z: g1 A
IMDb链接  http://www.imdb.com/title/tt0113762
. j4 ~9 I4 K8 ]& L2 k豆瓣评分 6.4/10 from 167 users
& x" a+ l  t; c. ~  J- F1 l+ \豆瓣链接 https://movie.douban.com/subject/1917409/5 L# m: L( S1 w1 Q! E
片  长 106 分钟* D0 P1 W2 F0 W. H' a4 b2 d
导  演 托比·霍珀 Tobe Hooper
; o0 v4 N- \4 J( Z7 D! m9 r编  剧 托比·霍珀 Tobe Hooper / 斯蒂芬·金 Stephen King
: t4 |: ]4 t0 h: c( b+ |主  演 罗伯特·英格伦
/ s% o* y: R0 X. q! P: o' K/ d& k" i, }' t

1 f7 h9 W7 x; ~& y标  签 可骇 | 美国 | 惊悚 | 血腥 | cult | 美国电影 | 科幻 | 1995
$ u1 z* X: ~+ a4 Z. H
" \0 i/ i! j6 G# [9 k简  介  ( q& d) Z: j" f: A6 D

+ u7 y5 _% r3 _8 v- R- |  城中一间名叫“蓝丝带”的洗衣店发生了一宗古怪命案,一位伙计被店内一部最大最残旧的机械“意外地”杀死了。由于死因非常手奇,侦察肯顿(特德?莱文 Ted Levine 饰)以为这不但仅是一宗意外这么简单。因而,肯顿封锁了洗衣店并停止观察。一系列的观察成果恐惧,本来昔时店肆开张之时,店东为了买卖兴盛,与魔鬼告竣协议,就是要向魔鬼献祭,喂活人血给店内的那部旧机械喝。  x2 s/ W/ S0 x, Y5 a) Y
  被警探救下的雪莉继续了工场,又一个循环起头了……
3 K  {6 F8 F0 Y2 V3 T6 V3 t+ |' q
  1. Video
    , D8 ]: h. p5 U8 R% \
  2. ID                                       : 1
    1 U7 q4 f, J/ h3 _6 g
  3. Format                                   : AVC
    . J" ?2 U& v- P8 @5 `8 u
  4. Format/Info                              : Advanced Video Codec% Y+ W  ]" P. g. c, l  ^
  5. Format profile                           : <a href="/cdn-cgi/l/email-protection" class="__cf_email__" data-cfemail="a7efcec0cfe7eb938996">[email protected]</a>; M, H. e! }4 v* q/ c/ m
  6. Format settings                          : CABAC / 5 Ref Frames
    5 @8 @. A9 U+ ]+ w' @  i6 F
  7. Format settings, CABAC                   : Yes- p3 y; E3 B$ P- O7 N" r
  8. Format settings, Reference frames        : 5 frames
    / S' O' [( `. @/ [% _8 L
  9. Codec ID                                 : V_MPEG4/ISO/AVC
    9 Y5 K1 m: P8 L6 i3 L
  10. Duration                                 : 1 h 45 min
    $ @$ j: L3 p' e$ R) m! y. [1 I; J
  11. Bit rate                                 : 5 881 kb/s
    " S" h; D' C  c# m8 p
  12. Width                                    : 1 280 pixels
    : t( V: W& M  S3 B  ^
  13. Height                                   : 688 pixels0 P3 O9 r' N& n$ R! w; |" u2 r
  14. Display aspect ratio                     : 1.85:1
    ; Y" g( D; Z8 w! D' c  P) I% H
  15. Frame rate mode                          : Constant
    : @7 Q  F1 R0 y4 `. U1 L. Z4 F( H
  16. Frame rate                               : 23.976 (24000/1001) FPS- @' K2 R0 H9 X: C9 L
  17. Color space                              : YUV
    . b; {8 i6 b: H; l
  18. Chroma subsampling                       : 4:2:0
    - x" r5 r, s6 P: Y) v/ _7 V8 P
  19. Bit depth                                : 8 bits5 O# \2 X+ q8 {7 z& Y) U
  20. Scan type                                : Progressive% n5 R* r5 B9 f. J) H3 r8 F/ x; s
  21. Bits/(Pixel*Frame)                       : 0.2791 s( J3 A8 Q& k: |3 K
  22. Stream size                              : 4.34 GiB (80%)
    - k" `2 Q5 t# J2 n7 u  J! u+ ]
  23. Writing library                          : x264 core 157 r2970 5493be8
    $ f/ ~) ^! h, J) K
  24. Encoding settings                        : cabac=1 / ref=5 / deblock=1:-3:-3 / analyse=0x3:0x133 / me=umh / subme=9 / psy=1 / psy_rd=1.00:0.00 / mixed_ref=1 / me_range=16 / chroma_me=1 / trellis=2 / 8x8dct=1 / cqm=0 / deadzone=21,11 / fast_pskip=0 / chroma_qp_offset=-2 / threads=21 / lookahead_threads=1 / sliced_threads=0 / nr=0 / decimate=1 / interlaced=0 / bluray_compat=0 / constrained_intra=0 / bframes=3 / b_pyramid=2 / b_adapt=1 / b_bias=0 / direct=3 / weightb=1 / open_gop=0 / weightp=2 / keyint=240 / keyint_min=24 / scenecut=40 / intra_refresh=0 / rc_lookahead=50 / rc=2pass / mbtree=1 / bitrate=5881 / ratetol=1.0 / qcomp=0.60 / qpmin=0 / qpmax=69 / qpstep=4 / cplxblur=20.0 / qblur=0.5 / ip_ratio=1.40 / aq=1:1.009 N, B2 c1 c/ p( M
  25. Language                                 : English
    $ x, [5 c: s) J1 Q" ?' }% W
  26. Default                                  : Yes
    3 m, a% }3 I0 Y9 {
  27. Forced                                   : No
    " T% ~# Y, G* |* u- @/ k7 k

  28. ; _. F0 h2 y- z8 {# q$ ^3 o1 |! m* M
  29. Audio' a2 [" V( O4 `1 X# C, U  J
  30. ID                                       : 2
    ( f* ]: X3 k$ ?& P1 \1 U! m
  31. Format                                   : DTS
    9 k2 D( }4 n. @7 D6 {% w' i
  32. Format/Info                              : Digital Theater Systems8 x2 W2 h' \2 f' w1 J, g
  33. Codec ID                                 : A_DTS: ^  R' r# X" Y" v0 w- s
  34. Duration                                 : 1 h 45 min
    7 X% Y, p& y& _& ?
  35. Bit rate mode                            : Constant
    # \2 |2 J, M  c. G* m' m/ o
  36. Bit rate                                 : 1 509 kb/s1 D, C7 M2 i/ y# y) ^
  37. Channel(s)                               : 6 channels  c' V) Q2 S* r" C8 Z6 q: W% y9 y/ A. e
  38. Channel layout                           : C L R Ls Rs LFE5 B1 v, m( L! @# c. b
  39. Sampling rate                            : 48.0 kHz
    9 T6 q3 I, T! j4 s& r; H
  40. Frame rate                               : 93.750 FPS (512 SPF)0 E. N" l5 c' V
  41. Bit depth                                : 24 bits
    ' _6 i5 {( O. \7 p
  42. Compression mode                         : Lossy( o; y& \$ r9 H9 M
  43. Stream size                              : 1.12 GiB (20%)0 ^2 E: w1 P3 n. I/ h6 _  x' U
  44. Language                                 : English  l) l3 `- y0 z: n1 s( k, e
  45. Default                                  : Yes
    & ?0 S( F8 Y, U( I
  46. Forced                                   : No
    , v& c6 E! S: d8 _! I- E1 m( \
  47. ( \6 @4 m% }0 U9 H% @4 @$ h" T$ w
  48. Text #1
    ( {' g2 b# A' h. D) x: s
  49. ID                                       : 3
    " K5 I2 v) ]8 T$ o" O
  50. Format                                   : UTF-8
    . s1 _+ q& z% r5 `
  51. Codec ID                                 : S_TEXT/UTF84 T5 t# r7 B9 I; U$ u% W+ c
  52. Codec ID/Info                            : UTF-8 Plain Text/ ?& O4 g: K1 n* i0 ?! E. |
  53. Duration                                 : 1 h 41 min, O. \( ~& b7 u* \0 m6 s. l
  54. Bit rate                                 : 48 b/s0 p0 Z7 y9 D. f5 U) e( i
  55. Count of elements                        : 1654, @' o) \5 {& J0 s2 A: p1 f9 D
  56. Stream size                              : 35.7 KiB (0%)& `* p' O8 e9 P  B# g. H, d
  57. Title                                    : English
    & Y' p7 I9 U, Q" t% Y, d
  58. Language                                 : English8 O* m  N6 ~1 o6 ^
  59. Default                                  : No/ `4 ^6 Z; v$ c& F7 y/ V  P" a
  60. Forced                                   : No
    ! F2 L4 E. \: L9 y1 n$ P4 B

  61. 1 R2 {$ U! T) r. h) j/ x
  62. Text #2
    , L& Q9 t1 Q( B5 g
  63. ID                                       : 4- F2 `. C7 T% U0 x' a* ]2 p
  64. Format                                   : UTF-8
    3 t# V8 ?' F) `/ Q' D6 @* }: s  F
  65. Codec ID                                 : S_TEXT/UTF8- [, n# z4 W" s9 z4 q/ j
  66. Codec ID/Info                            : UTF-8 Plain Text: l) W) H6 k3 g+ L- x; }. a: r4 y
  67. Duration                                 : 1 h 42 min* |. J) Z+ Y1 j& M5 @: D) s
  68. Bit rate                                 : 54 b/s
    2 k$ j* O# M- l' o: N& ^( N# K3 ?
  69. Count of elements                        : 1907
    : R0 S* F/ p4 t( d# D% a
  70. Stream size                              : 40.7 KiB (0%)
    # R2 o7 N- ^5 ]) A# x" s
  71. Title                                    : English SDH8 Z; n& j  s* c" e5 Q9 s
  72. Language                                 : English# R$ v5 \8 `5 {. [' _
  73. Default                                  : No  Z- \9 {' [5 o- g
  74. Forced                                   : No
    9 {! S; u. V* i, Q( i
  75. 1 @- g2 t" ]4 _) E. g, _+ D
  76. Menu9 c# P3 q0 \0 m' b/ O
  77. 00:00:00.000                             : en:00:00:00.000
    5 ?5 L# j' I. O2 e
  78. 00:05:32.666                             : en:00:05:32.666
    & y$ U+ {6 F: d3 E3 N+ x
  79. 00:12:05.308                             : en:00:12:05.308
    1 }2 E9 ?4 `) ^; A5 O2 K
  80. 00:22:41.860                             : en:00:22:41.860- p  o0 G2 K  p7 R* s7 D  ^1 C
  81. 00:33:19.789                             : en:00:33:19.789' q6 a5 ?1 q. ?7 W! D
  82. 00:41:22.772                             : en:00:41:22.772* z; z# E' |2 g+ o  \
  83. 00:56:16.164                             : en:00:56:16.164
    4 T0 T7 C: ~% o7 x) O' A" W
  84. 01:05:40.311                             : en:01:05:40.3117 L2 p, B7 [& H9 s; J' U
  85. 01:14:37.181                             : en:01:14:37.181( d/ i& g$ Z9 d( t  Y
  86. 01:24:17.094                             : en:01:24:17.094# J6 L$ A1 e1 n7 B* ]7 b
  87. 01:33:49.249                             : en:01:33:49.2494 v/ f7 g& c# r6 c$ c6 m( d
  88. 01:42:07.913                             : en:01:42:07.913
复制代码

: O; w; h- @. }% C) ?* ?/ D3 C 绞肉机/灵异血魔 The.Mangler.1995.REMASTERED.720p.BluRay.x264-PHASE 5.47GB-2.png   t/ U4 T' o" E! z' z

2 p5 n# x( N; Q6 w; V# }* s" r6 W. j1 Y

9 M2 W2 F% V. _8 Y1 E4 L# c" C8 n1 j5 r1 |+ l/ g$ s; ^! ?4 |& I/ ~# e

2 q% O  h  Q# v1 E" \& F" U+ v9 J! R) Q8 p2 Z+ R5 l
回复

使用道具 举报

级别:荣升主角 Lv.5

注册时间
2019-2-26
最后登录
2020-5-25
听众
17
收听
0
主题
0
蓝光币
1279 枚
贡献
0 点
发表于 2019-8-28 18:04:17 | 显示全部楼层
多谢发布~就喜欢老CULT~
回复

使用道具 举报

级别:荣升主角 Lv.5

注册时间
2019-2-3
最后登录
2020-5-24
听众
15
收听
0
主题
0
蓝光币
351 枚
贡献
0 点
发表于 2019-8-28 18:15:21 | 显示全部楼层
楼主发贴辛苦了,谢谢楼主分享!我觉得中国高清电影网是注册对了!
回复

使用道具 举报

级别:荣升主角 Lv.5

注册时间
2019-4-11
最后登录
2020-5-25
听众
14
收听
0
主题
0
蓝光币
270 枚
贡献
0 点
发表于 2019-8-29 08:50:07 | 显示全部楼层
, {) J* J$ m4 H1 `3 x+ E
这个帖子不回对不起自己!我想我是一天也不能离开中国高清电影网
回复

使用道具 举报

级别:领衔主演 Lv.6

注册时间
2018-2-26
最后登录
2020-5-22
听众
17
收听
0
主题
0
蓝光币
275 枚
贡献
0 点
发表于 2019-8-29 09:20:23 | 显示全部楼层
0 |7 H/ m+ n4 J1 z) L6 S- ^
这东西我收了!谢谢楼主!中国高清电影网真好!
回复

使用道具 举报

级别:功成名就 Lv.9

注册时间
2019-4-24
最后登录
2020-5-25
听众
14
收听
0
主题
0
蓝光币
539 枚
贡献
0 点
发表于 2019-9-12 13:35:50 | 显示全部楼层
楼主发贴辛苦了,谢谢楼主分享!我觉得中国高清电影网是注册对了!
回复

使用道具 举报

级别:初级观众 Lv.1

注册时间
2019-11-9
最后登录
2020-4-21
听众
1
收听
0
主题
0
蓝光币
7 枚
贡献
0 点
发表于 2019-11-9 04:19:33 | 显示全部楼层

( s- Q! u( u0 y楼主太厉害了!楼主,电影应该很好看我觉得中国高清电影网真是个好地方!
回复

使用道具 举报

懒得打字嘛,点击右侧快捷回复 【右侧内容,后台自定义】
您需要登录后才可以回帖 登录 | 立即注册

本版积分规则

Archiver|手机版|小黑屋| 中国高清网 ( ICP备17007870号-2 ) |网站地图 

GMT+8, 2020-5-26 01:04 , Processed in 0.163369 second(s), 38 queries .

Powered by HDchina X3.4

Copyright 2017-2019©HDchina.All right reserved

返回顶部 联系我们