查看: 83|回复: 6

[科幻片] 绞肉机/灵异血魔 The.Mangler.1995.REMASTERED.720p.BluRay.x264-PHASE 5.47GB

[复制链接]

 成长值: 3210

级别:资源管理组

注册时间
2017-10-20
最后登录
2019-11-20
听众
1
收听
0
主题
87221
蓝光币
63004 枚
贡献
11580 点
发表于 2019-8-28 17:41:54 | 显示全部楼层 |阅读模式
绞肉机/灵异血魔 The.Mangler.1995.REMASTERED.720p.BluRay.x264-PHASE 5.47GB-1.png
, ]2 O0 p6 |, }7 v( W$ T( G& T5 W* Y0 k. P5 }9 s, r" c
译  名 绞肉机 / 灵异血魔 / 猛鬼工场5 b% A, I0 z; J2 o, e4 c- F9 \, _
片  名 The Mangler' B8 R2 `8 l8 D* I7 s1 d
年  代 1995
8 h$ @: t& R1 N; Y2 }2 w% s# [& `" q2 ]8 `产  地 美国 / 澳大利亚 / 南非
( T# d8 c6 m0 d0 K" u: b类  别 科幻 / 惊悚 / 可骇
: I- E; e+ L. e: {语  言 英语
% {$ O% N7 j9 ~8 g# w. C$ U上映日期 1995-03-03
, n. z+ S8 y$ dIMDb评分  4.2/10 from 7800 users1 O8 g2 K0 G1 P# w4 }, X# h
IMDb链接  http://www.imdb.com/title/tt0113762, c. x; N0 A$ A" F& i8 @2 A: n
豆瓣评分 6.4/10 from 167 users
  ~# n8 P2 D% |豆瓣链接 https://movie.douban.com/subject/1917409/8 P. o2 {6 @1 i# _/ b, s, o; n
片  长 106 分钟
  V* j, \' G  O9 ?导  演 托比·霍珀 Tobe Hooper" o" \: P- e8 |* Q; ~5 r7 ~" V# K+ t
编  剧 托比·霍珀 Tobe Hooper / 斯蒂芬·金 Stephen King0 O( n' w" _5 Q2 m+ x4 X" s6 J3 m- B
主  演 罗伯特·英格伦' T) d% s$ ~5 B

4 b  @9 b- I8 }0 s7 Z
! s: `  N/ Y$ n9 S标  签 可骇 | 美国 | 惊悚 | 血腥 | cult | 美国电影 | 科幻 | 1995. `- D: L( |8 H  [/ d

, d3 ~; P# q3 g) z" p$ b$ E4 W& t2 m, V简  介  " E& T! t  B& g! A

+ `- ~. ]& h' H- g. t# c( Z2 I# {  城中一间名叫“蓝丝带”的洗衣店发生了一宗古怪命案,一位伙计被店内一部最大最残旧的机械“意外地”杀死了。由于死因非常手奇,侦察肯顿(特德?莱文 Ted Levine 饰)以为这不但仅是一宗意外这么简单。因而,肯顿封锁了洗衣店并停止观察。一系列的观察成果恐惧,本来昔时店肆开张之时,店东为了买卖兴盛,与魔鬼告竣协议,就是要向魔鬼献祭,喂活人血给店内的那部旧机械喝。# W+ S5 q6 `4 z4 Y9 o3 j( D0 Y
  被警探救下的雪莉继续了工场,又一个循环起头了……. @" {- k% _2 r8 I- i- L# J
  1. Video! Q( ]+ h, |; n5 X  U% g9 D" f3 K; A- e
  2. ID                                       : 1: w5 D' y/ V4 C1 e8 S! m, l
  3. Format                                   : AVC+ \! I9 s7 _; }! C5 `
  4. Format/Info                              : Advanced Video Codec
    5 K% P9 o9 i: C* W/ g
  5. Format profile                           : <a href="/cdn-cgi/l/email-protection" class="__cf_email__" data-cfemail="a7efcec0cfe7eb938996">[email protected]</a>
    ( {$ O4 o, h' g) E! C. B
  6. Format settings                          : CABAC / 5 Ref Frames# Q. f( b* Y* ^) }  S
  7. Format settings, CABAC                   : Yes6 l1 @" ~9 j; @% q
  8. Format settings, Reference frames        : 5 frames
    0 W: Z5 i7 d2 m" r% _' S# U
  9. Codec ID                                 : V_MPEG4/ISO/AVC' c4 v/ [* a( u9 H/ T; Y
  10. Duration                                 : 1 h 45 min% r% y! P: p2 C/ W( h7 B; L
  11. Bit rate                                 : 5 881 kb/s) v3 L; t4 {) w) J
  12. Width                                    : 1 280 pixels
    1 v4 b% Y; @" ?( g4 |. ^2 ?
  13. Height                                   : 688 pixels
    " ^0 I2 {: p7 k; z% X' v
  14. Display aspect ratio                     : 1.85:1
    : U( t, ~. T1 |! J/ \, x
  15. Frame rate mode                          : Constant1 h2 h* I1 L0 H
  16. Frame rate                               : 23.976 (24000/1001) FPS1 O$ |. D$ B7 r0 g4 `/ O" d
  17. Color space                              : YUV$ K8 ]* D& j2 w4 v, B
  18. Chroma subsampling                       : 4:2:0! Z" P/ m3 R- o; [. y7 K- E
  19. Bit depth                                : 8 bits
    + o$ K8 C: o6 O$ E4 X/ ^0 ]
  20. Scan type                                : Progressive8 y3 e; b0 D$ J) ?$ {* w
  21. Bits/(Pixel*Frame)                       : 0.279; U/ k+ |4 ^% Z, X5 Y3 n
  22. Stream size                              : 4.34 GiB (80%)9 s; D* t$ v) Z" {; m
  23. Writing library                          : x264 core 157 r2970 5493be89 F1 f7 G4 a- R7 F7 e- M
  24. Encoding settings                        : cabac=1 / ref=5 / deblock=1:-3:-3 / analyse=0x3:0x133 / me=umh / subme=9 / psy=1 / psy_rd=1.00:0.00 / mixed_ref=1 / me_range=16 / chroma_me=1 / trellis=2 / 8x8dct=1 / cqm=0 / deadzone=21,11 / fast_pskip=0 / chroma_qp_offset=-2 / threads=21 / lookahead_threads=1 / sliced_threads=0 / nr=0 / decimate=1 / interlaced=0 / bluray_compat=0 / constrained_intra=0 / bframes=3 / b_pyramid=2 / b_adapt=1 / b_bias=0 / direct=3 / weightb=1 / open_gop=0 / weightp=2 / keyint=240 / keyint_min=24 / scenecut=40 / intra_refresh=0 / rc_lookahead=50 / rc=2pass / mbtree=1 / bitrate=5881 / ratetol=1.0 / qcomp=0.60 / qpmin=0 / qpmax=69 / qpstep=4 / cplxblur=20.0 / qblur=0.5 / ip_ratio=1.40 / aq=1:1.00
    $ D9 m/ B! X, L$ ~
  25. Language                                 : English9 Z6 f! a6 B% f4 Z5 V
  26. Default                                  : Yes
    : q5 D! P: f  d6 L0 S9 f
  27. Forced                                   : No
    & K" P' @$ w, K  y
  28. % g# _; R3 K3 {1 a  s5 |1 \
  29. Audio
    " `- k1 Y8 Y+ p" c/ g" U5 @" F
  30. ID                                       : 2
    8 P" e. |+ c% R6 F
  31. Format                                   : DTS: c5 ?) f0 X& C/ |( J
  32. Format/Info                              : Digital Theater Systems
    7 _3 B& Y7 d: s0 W
  33. Codec ID                                 : A_DTS3 G6 Z# f- u9 x
  34. Duration                                 : 1 h 45 min) I3 a& j8 I- E$ r1 `, a
  35. Bit rate mode                            : Constant# w* T1 i& c: `
  36. Bit rate                                 : 1 509 kb/s
    - }1 b9 R/ K+ `& b, f/ i! Z
  37. Channel(s)                               : 6 channels, ]1 P- }' M3 l* H* ^4 b
  38. Channel layout                           : C L R Ls Rs LFE3 `% j- Y  X; I
  39. Sampling rate                            : 48.0 kHz
    3 P- K5 i4 y3 X- v, C/ \9 b2 _) k
  40. Frame rate                               : 93.750 FPS (512 SPF)5 h6 @# b, ?/ N% ]3 q
  41. Bit depth                                : 24 bits
    4 t. y* T0 y% c  p5 U! b! ]
  42. Compression mode                         : Lossy
    ( b" [& t) ~! E  B* ]
  43. Stream size                              : 1.12 GiB (20%)
      j- K% K/ L0 D2 ]: K+ G3 c( W) k
  44. Language                                 : English$ G+ V& u4 }. g. M! I
  45. Default                                  : Yes% z: k& T1 p. Z* S$ ^  o  n" @: s
  46. Forced                                   : No
    # v  S1 z, A# ^! Y
  47. ' P. {, q/ i; ~8 {8 C2 _( ?
  48. Text #13 u& o: ?3 f. e6 y# k& Y* h
  49. ID                                       : 3
    8 o  J* D$ A" P
  50. Format                                   : UTF-8
      x$ R' K" m4 w
  51. Codec ID                                 : S_TEXT/UTF89 n- g$ }' |8 {5 y% |$ e
  52. Codec ID/Info                            : UTF-8 Plain Text
    1 a5 E9 w# d) \
  53. Duration                                 : 1 h 41 min8 a! J: d1 ^5 `5 h
  54. Bit rate                                 : 48 b/s
    : n. Q" _5 |$ O3 _+ b" t
  55. Count of elements                        : 1654- N  v9 P# U7 A. j" v9 X
  56. Stream size                              : 35.7 KiB (0%)  X# D, ~, G- D1 q! M  p& o, E4 M  t
  57. Title                                    : English
    ; i' M! k+ `( b) k4 I
  58. Language                                 : English& W/ t7 k4 S0 n% Y/ i
  59. Default                                  : No
      v& |* b- h; F& W: B
  60. Forced                                   : No6 r/ G- |' Z: ?9 L" S

  61. 6 I0 E5 |1 P2 N: \
  62. Text #2
    " Z- F) n4 C- |: g9 `, [
  63. ID                                       : 4
    % s- j( E( f( M+ e
  64. Format                                   : UTF-8
    / l4 K  A( G6 n& P* b
  65. Codec ID                                 : S_TEXT/UTF8
    ! K% O& w0 I" Q6 ^8 S& r
  66. Codec ID/Info                            : UTF-8 Plain Text
    % L  W2 J4 F! h% ^+ r( }- ?
  67. Duration                                 : 1 h 42 min
    6 n+ n4 T6 |" {* c
  68. Bit rate                                 : 54 b/s
    * D' P. `0 }4 S% b5 f4 [( B/ q6 `
  69. Count of elements                        : 19075 G: v! W% G& G, T+ ?
  70. Stream size                              : 40.7 KiB (0%)
    - l' \8 }2 K$ G  v3 b4 [( z+ a
  71. Title                                    : English SDH
    8 {8 \5 _  O2 J
  72. Language                                 : English6 C0 a1 t  e' X! L. Q) I
  73. Default                                  : No
    ; W  e0 u* w; I$ ?, H; }- V
  74. Forced                                   : No
    , J" t, z) \7 ]( j* |- b+ \  l
  75. $ X$ I7 k4 i7 ?7 l
  76. Menu
    ! g3 e5 {, c, C
  77. 00:00:00.000                             : en:00:00:00.000* }  o7 ~+ _7 \: c5 j+ n
  78. 00:05:32.666                             : en:00:05:32.6666 B; G' i3 r- z
  79. 00:12:05.308                             : en:00:12:05.308
    0 Y+ s1 a8 I  Y4 }( D9 N
  80. 00:22:41.860                             : en:00:22:41.8608 ?& X% V  u' m8 f4 O; c
  81. 00:33:19.789                             : en:00:33:19.789
    & p7 N( R, X7 {1 X& b) `6 E
  82. 00:41:22.772                             : en:00:41:22.772! e; {! Q& d7 `) K8 p' S
  83. 00:56:16.164                             : en:00:56:16.164$ d/ z' B/ S' y" s
  84. 01:05:40.311                             : en:01:05:40.3117 G# B$ H* j6 \2 {( c8 q' O  X
  85. 01:14:37.181                             : en:01:14:37.181* e. U; e7 U6 C; v* }
  86. 01:24:17.094                             : en:01:24:17.094
    $ ]) V& ^- }& b) {" X5 s9 U
  87. 01:33:49.249                             : en:01:33:49.249( Y8 L- C3 f% [' N
  88. 01:42:07.913                             : en:01:42:07.913
复制代码
  v  o- z9 [( b! I9 j/ F
绞肉机/灵异血魔 The.Mangler.1995.REMASTERED.720p.BluRay.x264-PHASE 5.47GB-2.png ! T4 e# @4 F. _! U9 ~& q
- \5 m, X1 u- v; G( c" c
+ V. b2 C; i+ Y; Q, ]( l# E' |$ W
5 p4 M& ]$ ~7 i1 j7 n: @% j
+ _! [. H0 h$ n

: @; i! n( N2 w0 t( ?* q" M3 p, W/ b0 x. s6 e6 B
VIP会员免费任意下载本站所有资源!---点击开通
回复

使用道具 举报

级别:专业龙套 Lv.4

注册时间
2019-2-26
最后登录
2019-11-19
听众
16
收听
0
主题
0
蓝光币
701 枚
贡献
0 点
发表于 2019-8-28 18:04:17 | 显示全部楼层
多谢发布~就喜欢老CULT~
VIP会员免费任意下载本站所有资源!---点击开通
回复

使用道具 举报

级别:荣升主角 Lv.5

注册时间
2019-2-3
最后登录
2019-11-19
听众
14
收听
0
主题
0
蓝光币
212 枚
贡献
0 点
发表于 2019-8-28 18:15:21 | 显示全部楼层
楼主发贴辛苦了,谢谢楼主分享!我觉得中国高清电影网是注册对了!
VIP会员免费任意下载本站所有资源!---点击开通
回复

使用道具 举报

级别:专业龙套 Lv.4

注册时间
2019-4-11
最后登录
2019-11-20
听众
12
收听
0
主题
0
蓝光币
172 枚
贡献
0 点
发表于 2019-8-29 08:50:07 | 显示全部楼层

* j6 e" j) M: H- t( G这个帖子不回对不起自己!我想我是一天也不能离开中国高清电影网
VIP会员免费任意下载本站所有资源!---点击开通
回复

使用道具 举报

级别:荣升主角 Lv.5

注册时间
2018-2-26
最后登录
2019-11-20
听众
15
收听
0
主题
0
蓝光币
272 枚
贡献
0 点
发表于 2019-8-29 09:20:23 | 显示全部楼层

. o( l# [- a: E% ^2 x这东西我收了!谢谢楼主!中国高清电影网真好!
VIP会员免费任意下载本站所有资源!---点击开通
回复

使用道具 举报

级别:一举成名 Lv.7

注册时间
2019-4-24
最后登录
2019-11-19
听众
13
收听
0
主题
0
蓝光币
197 枚
贡献
0 点
发表于 2019-9-12 13:35:50 | 显示全部楼层
楼主发贴辛苦了,谢谢楼主分享!我觉得中国高清电影网是注册对了!
VIP会员免费任意下载本站所有资源!---点击开通
回复

使用道具 举报

级别:初级观众 Lv.1

注册时间
2019-11-9
最后登录
2019-11-9
听众
0
收听
0
主题
0
蓝光币
2 枚
贡献
0 点
发表于 2019-11-9 04:19:33 | 显示全部楼层
7 J6 l# W' V  u" B! v6 x1 d/ ^# i( m
楼主太厉害了!楼主,电影应该很好看我觉得中国高清电影网真是个好地方!
VIP会员免费任意下载本站所有资源!---点击开通
回复

使用道具 举报

懒得打字嘛,点击右侧快捷回复 【右侧内容,后台自定义】
您需要登录后才可以回帖 登录 | 立即注册

本版积分规则

QQ|Archiver|手机版|小黑屋| 中国高清网 |网站地图

GMT+8, 2019-11-20 09:18 , Processed in 0.205500 second(s), 37 queries .

Powered by HDchina X3.4

Copyright 2017-2019©HDchina.All right reserved

返回顶部 联系我们