查看: 130|回复: 0

[REMUX.HEVC] 魔童/明亮的燃烧 Brightburn.2019.2160p.BluRay.REMUX.HEVC.DTS-HD.MA.TrueHD.7.1.Atmos-FGT 48.42GB

[复制链接]

 成长值: 2570

级别:资源管理组

注册时间
2017-10-20
最后登录
2019-9-21
听众
1
收听
0
主题
83026
蓝光币
49759 枚
贡献
7354 点
发表于 2019-8-17 15:33:23 | 显示全部楼层 |阅读模式
魔童/明亮的熄灭 Brightburn.2019.2160p.BluRay.REMUX.HEVC.DTS-HD.MA.TrueHD.7.1.Atmos-FGT 48.42GB-1.png

译  名 魔童 / 明亮的熄灭 / 灵异乍现(台) / 魔童(港)
片  名 Brightburn
年  代 2019
产  地 美国
类  别 可骇
语  言 英语
上映日期 2019-05-24(美国)
IMDb评分  6.5/10 from 13989 users
IMDb链接  http://www.imdb.com/title/tt7752126
豆瓣评分 5.8/10 from 457 users
豆瓣链接 https://movie.douban.com/subject/27608262/
片  长 91分钟
导  演 大卫·雅洛维斯基 David Yarovesky
编  剧 布莱恩·戈恩 Brian Gunn / 马克·戈恩 Mark Gunn
主  演 伊丽莎白·班克斯 Elizabeth Banks
      大卫·丹曼 David Denman
      梅瑞迪斯·海格纳 Meredith Hagner
      马特·琼斯 Matt Jones
      詹尼佛霍兰德 Jennifer Holland
      贝基·瓦赫尔斯特罗姆 Becky Wahlstrom
      特伦斯·罗斯摩尔 Terence Rosemore
      史蒂芬·布莱克哈特 Stephen Blackehart
      史蒂夫·阿吉 Steve Agee
      杰克逊·艾顿 Jackson A. Dunn
      安妮·汉弗莱 Annie Humphrey
      克里斯蒂安·芬拉森 Christian Finlayson
      艾美·亨特 Emmie Hunter
      迈克·顿斯顿 Mike Dunston


标  签 可骇 | 惊悚 | 科幻 | 美国 | 超人 | 2019 | 灵异 | 悬疑

简  介  

  一对没有孩子的乡乡人妻从家四周的宇宙飞船里捡到了一个婴儿抚养长大,渐渐的发现这个孩子有点与众分歧,各类超自然才能在他身上显现出来,他披上了斗篷...但穿上斗篷的纷歧建都是豪杰...

  1. Video
  2. ID                                       : 1
  3. Format                                   : HEVC
  4. Format/Info                              : High Efficiency Video Coding
  5. Format profile                           : Main <a href="/cdn-cgi/l/email-protection" class="__cf_email__" data-cfemail="e4d5d4a4a8d1cad5">[email protected]</a>@High
  6. HDR format                               : SMPTE ST 2086, HDR10 compatible
  7. Codec ID                                 : V_MPEGH/ISO/HEVC
  8. Duration                                 : 1 h 30 min
  9. Bit rate                                 : 58.6 Mb/s
  10. Width                                    : 3 840 pixels
  11. Height                                   : 2 160 pixels
  12. Display aspect ratio                     : 16:9
  13. Frame rate mode                          : Constant
  14. Frame rate                               : 23.976 (24000/1001) FPS
  15. Color space                              : YUV
  16. Chroma subsampling                       : 4:2:0 (Type 2)
  17. Bit depth                                : 10 bits
  18. Bits/(Pixel*Frame)                       : 0.295
  19. Stream size                              : 37.0 GiB (76%)
  20. Title                                    : Brightburn.2019.2160p.BluRay.REMUX.HEVC.DTS-HD.MA.TrueHD.7.1.Atmos-FGT
  21. Language                                 : English
  22. Default                                  : No
  23. Forced                                   : No
  24. Color range                              : Limited
  25. Color primaries                          : BT.2020
  26. Transfer characteristics                 : PQ
  27. Matrix coefficients                      : BT.2020 non-constant
  28. Mastering display color primaries        : Display P3
  29. Mastering display luminance              : min: 0.0050 cd/m2, max: 4000 cd/m2
  30. Maximum Content Light Level              : 2145 cd/m2
  31. Maximum Frame-Average Light Level        : 385 cd/m2

  32. Audio #1
  33. ID                                       : 2
  34. Format                                   : MLP FBA 16-ch
  35. Format/Info                              : Meridian Lossless Packing FBA with 16-channel presentation
  36. Commercial name                          : Dolby TrueHD with Dolby Atmos
  37. Codec ID                                 : A_TRUEHD
  38. Duration                                 : 1 h 30 min
  39. Bit rate mode                            : Variable
  40. Bit rate                                 : 3 032 kb/s
  41. Maximum bit rate                         : 5 583 kb/s
  42. Channel(s)                               : 8 channels
  43. Channel layout                           : L R C LFE Ls Rs Lb Rb
  44. Sampling rate                            : 48.0 kHz
  45. Frame rate                               : 1 200.000 FPS (40 SPF)
  46. Compression mode                         : Lossless
  47. Stream size                              : 1.92 GiB (4%)
  48. Title                                    : Brightburn.2019.2160p.BluRay.REMUX.HEVC.DTS-HD.MA.TrueHD.7.1.Atmos-FGT
  49. Language                                 : English
  50. Default                                  : Yes
  51. Forced                                   : No
  52. Number of dynamic objects                : 11
  53. Bed channel count                        : 1 channel
  54. Bed channel configuration                : LFE

  55. Audio #2
  56. ID                                       : 3
  57. Format                                   : DTS XLL
  58. Format/Info                              : Digital Theater Systems
  59. Commercial name                          : DTS-HD Master Audio
  60. Codec ID                                 : A_DTS
  61. Duration                                 : 1 h 30 min
  62. Bit rate mode                            : Variable
  63. Bit rate                                 : 4 118 kb/s
  64. Channel(s)                               : 8 channels
  65. Channel layout                           : C L R LFE Lb Rb Lss Rss
  66. Sampling rate                            : 48.0 kHz
  67. Frame rate                               : 93.750 FPS (512 SPF)
  68. Bit depth                                : 24 bits
  69. Compression mode                         : Lossless
  70. Stream size                              : 2.60 GiB (5%)
  71. Title                                    : Brightburn.2019.2160p.BluRay.REMUX.HEVC.DTS-HD.MA.TrueHD.7.1.Atmos-FGT
  72. Language                                 : English
  73. Default                                  : No
  74. Forced                                   : No

  75. Audio #3
  76. ID                                       : 4
  77. Format                                   : AC-3
  78. Format/Info                              : Audio Coding 3
  79. Commercial name                          : Dolby Digital
  80. Codec ID                                 : A_AC3
  81. Duration                                 : 1 h 30 min
  82. Bit rate mode                            : Constant
  83. Bit rate                                 : 640 kb/s
  84. Channel(s)                               : 6 channels
  85. Channel layout                           : L R C LFE Ls Rs
  86. Sampling rate                            : 48.0 kHz
  87. Frame rate                               : 31.250 FPS (1536 SPF)
  88. Bit depth                                : 16 bits
  89. Compression mode                         : Lossy
  90. Stream size                              : 414 MiB (1%)
  91. Title                                    : Brightburn.2019.2160p.BluRay.REMUX.HEVC.DTS-HD.MA.TrueHD.7.1.Atmos-FGT
  92. Language                                 : English
  93. Service kind                             : Complete Main
  94. Default                                  : No
  95. Forced                                   : No

  96. Audio #4
  97. ID                                       : 5
  98. Format                                   : AC-3
  99. Format/Info                              : Audio Coding 3
  100. Commercial name                          : Dolby Digital
  101. Codec ID                                 : A_AC3
  102. Duration                                 : 1 h 30 min
  103. Bit rate mode                            : Constant
  104. Bit rate                                 : 640 kb/s
  105. Channel(s)                               : 6 channels
  106. Channel layout                           : L R C LFE Ls Rs
  107. Sampling rate                            : 48.0 kHz
  108. Frame rate                               : 31.250 FPS (1536 SPF)
  109. Bit depth                                : 16 bits
  110. Compression mode                         : Lossy
  111. Stream size                              : 414 MiB (1%)
  112. Title                                    : Brightburn.2019.2160p.BluRay.REMUX.HEVC.DTS-HD.MA.TrueHD.7.1.Atmos-FGT
  113. Language                                 : English
  114. Service kind                             : Complete Main
  115. Default                                  : No
  116. Forced                                   : No

  117. Audio #5
  118. ID                                       : 6
  119. Format                                   : AC-3
  120. Format/Info                              : Audio Coding 3
  121. Commercial name                          : Dolby Digital
  122. Codec ID                                 : A_AC3
  123. Duration                                 : 1 h 30 min
  124. Bit rate mode                            : Constant
  125. Bit rate                                 : 640 kb/s
  126. Channel(s)                               : 6 channels
  127. Channel layout                           : L R C LFE Ls Rs
  128. Sampling rate                            : 48.0 kHz
  129. Frame rate                               : 31.250 FPS (1536 SPF)
  130. Bit depth                                : 16 bits
  131. Compression mode                         : Lossy
  132. Stream size                              : 414 MiB (1%)
  133. Title                                    : Brightburn.2019.2160p.BluRay.REMUX.HEVC.DTS-HD.MA.TrueHD.7.1.Atmos-FGT
  134. Language                                 : Czech
  135. Service kind                             : Complete Main
  136. Default                                  : No
  137. Forced                                   : No

  138. Audio #6
  139. ID                                       : 7
  140. Format                                   : DTS XLL
  141. Format/Info                              : Digital Theater Systems
  142. Commercial name                          : DTS-HD Master Audio
  143. Codec ID                                 : A_DTS
  144. Duration                                 : 1 h 30 min
  145. Bit rate mode                            : Variable
  146. Bit rate                                 : 2 177 kb/s
  147. Channel(s)                               : 6 channels
  148. Channel layout                           : C L R Ls Rs LFE
  149. Sampling rate                            : 48.0 kHz
  150. Frame rate                               : 93.750 FPS (512 SPF)
  151. Bit depth                                : 16 bits
  152. Compression mode                         : Lossless
  153. Stream size                              : 1.38 GiB (3%)
  154. Title                                    : Brightburn.2019.2160p.BluRay.REMUX.HEVC.DTS-HD.MA.TrueHD.7.1.Atmos-FGT
  155. Language                                 : French
  156. Default                                  : No
  157. Forced                                   : No

  158. Audio #7
  159. ID                                       : 8
  160. Format                                   : AC-3
  161. Format/Info                              : Audio Coding 3
  162. Commercial name                          : Dolby Digital
  163. Codec ID                                 : A_AC3
  164. Duration                                 : 1 h 30 min
  165. Bit rate mode                            : Constant
  166. Bit rate                                 : 640 kb/s
  167. Channel(s)                               : 6 channels
  168. Channel layout                           : L R C LFE Ls Rs
  169. Sampling rate                            : 48.0 kHz
  170. Frame rate                               : 31.250 FPS (1536 SPF)
  171. Bit depth                                : 16 bits
  172. Compression mode                         : Lossy
  173. Stream size                              : 414 MiB (1%)
  174. Title                                    : Brightburn.2019.2160p.BluRay.REMUX.HEVC.DTS-HD.MA.TrueHD.7.1.Atmos-FGT
  175. Language                                 : French
  176. Service kind                             : Complete Main
  177. Default                                  : No
  178. Forced                                   : No

  179. Audio #8
  180. ID                                       : 9
  181. Format                                   : AC-3
  182. Format/Info                              : Audio Coding 3
  183. Commercial name                          : Dolby Digital
  184. Codec ID                                 : A_AC3
  185. Duration                                 : 1 h 30 min
  186. Bit rate mode                            : Constant
  187. Bit rate                                 : 640 kb/s
  188. Channel(s)                               : 6 channels
  189. Channel layout                           : L R C LFE Ls Rs
  190. Sampling rate                            : 48.0 kHz
  191. Frame rate                               : 31.250 FPS (1536 SPF)
  192. Bit depth                                : 16 bits
  193. Compression mode                         : Lossy
  194. Stream size                              : 414 MiB (1%)
  195. Title                                    : Brightburn.2019.2160p.BluRay.REMUX.HEVC.DTS-HD.MA.TrueHD.7.1.Atmos-FGT
  196. Language                                 : Hungarian
  197. Service kind                             : Complete Main
  198. Default                                  : No
  199. Forced                                   : No

  200. Audio #9
  201. ID                                       : 10
  202. Format                                   : AC-3
  203. Format/Info                              : Audio Coding 3
  204. Commercial name                          : Dolby Digital
  205. Codec ID                                 : A_AC3
  206. Duration                                 : 1 h 30 min
  207. Bit rate mode                            : Constant
  208. Bit rate                                 : 640 kb/s
  209. Channel(s)                               : 6 channels
  210. Channel layout                           : L R C LFE Ls Rs
  211. Sampling rate                            : 48.0 kHz
  212. Frame rate                               : 31.250 FPS (1536 SPF)
  213. Bit depth                                : 16 bits
  214. Compression mode                         : Lossy
  215. Stream size                              : 414 MiB (1%)
  216. Title                                    : Brightburn.2019.2160p.BluRay.REMUX.HEVC.DTS-HD.MA.TrueHD.7.1.Atmos-FGT
  217. Language                                 : Polish
  218. Service kind                             : Complete Main
  219. Default                                  : No
  220. Forced                                   : No

  221. Audio #10
  222. ID                                       : 11
  223. Format                                   : DTS XLL
  224. Format/Info                              : Digital Theater Systems
  225. Commercial name                          : DTS-HD Master Audio
  226. Codec ID                                 : A_DTS
  227. Duration                                 : 1 h 30 min
  228. Bit rate mode                            : Variable
  229. Bit rate                                 : 2 176 kb/s
  230. Channel(s)                               : 6 channels
  231. Channel layout                           : C L R Ls Rs LFE
  232. Sampling rate                            : 48.0 kHz
  233. Frame rate                               : 93.750 FPS (512 SPF)
  234. Bit depth                                : 16 bits
  235. Compression mode                         : Lossless
  236. Stream size                              : 1.38 GiB (3%)
  237. Title                                    : Brightburn.2019.2160p.BluRay.REMUX.HEVC.DTS-HD.MA.TrueHD.7.1.Atmos-FGT
  238. Language                                 : Spanish
  239. Default                                  : No
  240. Forced                                   : No

  241. Audio #11
  242. ID                                       : 12
  243. Format                                   : AC-3
  244. Format/Info                              : Audio Coding 3
  245. Commercial name                          : Dolby Digital
  246. Codec ID                                 : A_AC3
  247. Duration                                 : 1 h 30 min
  248. Bit rate mode                            : Constant
  249. Bit rate                                 : 640 kb/s
  250. Channel(s)                               : 6 channels
  251. Channel layout                           : L R C LFE Ls Rs
  252. Sampling rate                            : 48.0 kHz
  253. Frame rate                               : 31.250 FPS (1536 SPF)
  254. Bit depth                                : 16 bits
  255. Compression mode                         : Lossy
  256. Stream size                              : 414 MiB (1%)
  257. Title                                    : Brightburn.2019.2160p.BluRay.REMUX.HEVC.DTS-HD.MA.TrueHD.7.1.Atmos-FGT
  258. Language                                 : Spanish
  259. Service kind                             : Complete Main
  260. Default                                  : No
  261. Forced                                   : No

  262. Audio #12
  263. ID                                       : 13
  264. Format                                   : AC-3
  265. Format/Info                              : Audio Coding 3
  266. Commercial name                          : Dolby Digital
  267. Codec ID                                 : A_AC3
  268. Duration                                 : 1 h 30 min
  269. Bit rate mode                            : Constant
  270. Bit rate                                 : 640 kb/s
  271. Channel(s)                               : 6 channels
  272. Channel layout                           : L R C LFE Ls Rs
  273. Sampling rate                            : 48.0 kHz
  274. Frame rate                               : 31.250 FPS (1536 SPF)
  275. Bit depth                                : 16 bits
  276. Compression mode                         : Lossy
  277. Stream size                              : 414 MiB (1%)
  278. Title                                    : Brightburn.2019.2160p.BluRay.REMUX.HEVC.DTS-HD.MA.TrueHD.7.1.Atmos-FGT
  279. Language                                 : Thai
  280. Service kind                             : Complete Main
  281. Default                                  : No
  282. Forced                                   : No

  283. Audio #13
  284. ID                                       : 14
  285. Format                                   : AC-3
  286. Format/Info                              : Audio Coding 3
  287. Commercial name                          : Dolby Digital
  288. Codec ID                                 : A_AC3
  289. Duration                                 : 1 h 30 min
  290. Bit rate mode                            : Constant
  291. Bit rate                                 : 640 kb/s
  292. Channel(s)                               : 6 channels
  293. Channel layout                           : L R C LFE Ls Rs
  294. Sampling rate                            : 48.0 kHz
  295. Frame rate                               : 31.250 FPS (1536 SPF)
  296. Bit depth                                : 16 bits
  297. Compression mode                         : Lossy
  298. Stream size                              : 414 MiB (1%)
  299. Title                                    : Brightburn.2019.2160p.BluRay.REMUX.HEVC.DTS-HD.MA.TrueHD.7.1.Atmos-FGT
  300. Language                                 : Turkish
  301. Service kind                             : Complete Main
  302. Default                                  : No
  303. Forced                                   : No

  304. Audio #14
  305. ID                                       : 15
  306. Format                                   : AC-3
  307. Format/Info                              : Audio Coding 3
  308. Commercial name                          : Dolby Digital
  309. Codec ID                                 : A_AC3
  310. Duration                                 : 1 h 30 min
  311. Bit rate mode                            : Constant
  312. Bit rate                                 : 192 kb/s
  313. Channel(s)                               : 2 channels
  314. Channel layout                           : L R
  315. Sampling rate                            : 48.0 kHz
  316. Frame rate                               : 31.250 FPS (1536 SPF)
  317. Bit depth                                : 16 bits
  318. Compression mode                         : Lossy
  319. Stream size                              : 124 MiB (0%)
  320. Title                                    : Brightburn.2019.2160p.BluRay.REMUX.HEVC.DTS-HD.MA.TrueHD.7.1.Atmos-FGT
  321. Language                                 : English
  322. Service kind                             : Complete Main
  323. Default                                  : No
  324. Forced                                   : No

  325. Text #1
  326. ID                                       : 16
  327. Format                                   : UTF-8
  328. Codec ID                                 : S_TEXT/UTF8
  329. Codec ID/Info                            : UTF-8 Plain Text
  330. Duration                                 : 1 h 27 min
  331. Bit rate                                 : 45 b/s
  332. Count of elements                        : 959
  333. Stream size                              : 28.9 KiB (0%)
  334. Title                                    : English-SRT
  335. Language                                 : English
  336. Default                                  : Yes
  337. Forced                                   : No

  338. Text #2
  339. ID                                       : 17
  340. Format                                   : PGS
  341. Muxing mode                              : zlib
  342. Codec ID                                 : S_HDMV/PGS
  343. Codec ID/Info                            : Picture based subtitle format used on BDs/HD-DVDs
  344. Duration                                 : 1 h 24 min
  345. Bit rate                                 : 25.5 kb/s
  346. Count of elements                        : 1742
  347. Stream size                              : 15.4 MiB (0%)
  348. Title                                    : English-PGS
  349. Language                                 : English
  350. Default                                  : No
  351. Forced                                   : No

  352. Text #3
  353. ID                                       : 18
  354. Format                                   : PGS
  355. Muxing mode                              : zlib
  356. Codec ID                                 : S_HDMV/PGS
  357. Codec ID/Info                            : Picture based subtitle format used on BDs/HD-DVDs
  358. Duration                                 : 1 h 28 min
  359. Bit rate                                 : 31.8 kb/s
  360. Count of elements                        : 2416
  361. Stream size                              : 20.1 MiB (0%)
  362. Title                                    : English-SDH-PGS
  363. Language                                 : English
  364. Default                                  : No
  365. Forced                                   : No

  366. Text #4
  367. ID                                       : 19
  368. Format                                   : PGS
  369. Muxing mode                              : zlib
  370. Codec ID                                 : S_HDMV/PGS
  371. Codec ID/Info                            : Picture based subtitle format used on BDs/HD-DVDs
  372. Duration                                 : 1 h 29 min
  373. Bit rate                                 : 12.2 kb/s
  374. Count of elements                        : 1892
  375. Stream size                              : 7.79 MiB (0%)
  376. Title                                    : Arabic-PGS
  377. Language                                 : Arabic
  378. Default                                  : No
  379. Forced                                   : No

  380. Text #5
  381. ID                                       : 20
  382. Format                                   : PGS
  383. Muxing mode                              : zlib
  384. Codec ID                                 : S_HDMV/PGS
  385. Codec ID/Info                            : Picture based subtitle format used on BDs/HD-DVDs
  386. Duration                                 : 1 h 29 min
  387. Bit rate                                 : 19.0 kb/s
  388. Count of elements                        : 1908
  389. Stream size                              : 12.2 MiB (0%)
  390. Title                                    : Chinese-PGS
  391. Language                                 : Chinese
  392. Default                                  : No
  393. Forced                                   : No

  394. Text #6
  395. ID                                       : 21
  396. Format                                   : PGS
  397. Muxing mode                              : zlib
  398. Codec ID                                 : S_HDMV/PGS
  399. Codec ID/Info                            : Picture based subtitle format used on BDs/HD-DVDs
  400. Duration                                 : 1 h 29 min
  401. Bit rate                                 : 20.3 kb/s
  402. Count of elements                        : 1786
  403. Stream size                              : 13.0 MiB (0%)
  404. Title                                    : Chinese-PGS
  405. Language                                 : Chinese
  406. Default                                  : No
  407. Forced                                   : No

  408. Text #7
  409. ID                                       : 22
  410. Format                                   : PGS
  411. Muxing mode                              : zlib
  412. Codec ID                                 : S_HDMV/PGS
  413. Codec ID/Info                            : Picture based subtitle format used on BDs/HD-DVDs
  414. Duration                                 : 1 h 29 min
  415. Bit rate                                 : 19.7 kb/s
  416. Count of elements                        : 1878
  417. Stream size                              : 12.6 MiB (0%)
  418. Title                                    : Croatian-PGS
  419. Language                                 : Croatian
  420. Default                                  : No
  421. Forced                                   : No

  422. Text #8
  423. ID                                       : 23
  424. Format                                   : PGS
  425. Muxing mode                              : zlib
  426. Codec ID                                 : S_HDMV/PGS
  427. Codec ID/Info                            : Picture based subtitle format used on BDs/HD-DVDs
  428. Duration                                 : 1 h 29 min
  429. Bit rate                                 : 20.4 kb/s
  430. Count of elements                        : 1876
  431. Stream size                              : 13.0 MiB (0%)
  432. Title                                    : Czech-PGS
  433. Language                                 : Czech
  434. Default                                  : No
  435. Forced                                   : No

  436. Text #9
  437. ID                                       : 24
  438. Format                                   : PGS
  439. Muxing mode                              : zlib
  440. Codec ID                                 : S_HDMV/PGS
  441. Codec ID/Info                            : Picture based subtitle format used on BDs/HD-DVDs
  442. Duration                                 : 1 h 29 min
  443. Bit rate                                 : 557 b/s
  444. Count of elements                        : 40
  445. Stream size                              : 364 KiB (0%)
  446. Title                                    : Czech-FORCED-PGS
  447. Language                                 : Czech
  448. Default                                  : No
  449. Forced                                   : No

  450. Text #10
  451. ID                                       : 25
  452. Format                                   : PGS
  453. Muxing mode                              : zlib
  454. Codec ID                                 : S_HDMV/PGS
  455. Codec ID/Info                            : Picture based subtitle format used on BDs/HD-DVDs
  456. Duration                                 : 1 h 29 min
  457. Bit rate                                 : 18.5 kb/s
  458. Count of elements                        : 1662
  459. Stream size                              : 11.8 MiB (0%)
  460. Title                                    : French-PGS
  461. Language                                 : French
  462. Default                                  : No
  463. Forced                                   : No

  464. Text #11
  465. ID                                       : 26
  466. Format                                   : PGS
  467. Muxing mode                              : zlib
  468. Codec ID                                 : S_HDMV/PGS
  469. Codec ID/Info                            : Picture based subtitle format used on BDs/HD-DVDs
  470. Duration                                 : 1 h 29 min
  471. Bit rate                                 : 23.1 kb/s
  472. Count of elements                        : 1810
  473. Stream size                              : 14.7 MiB (0%)
  474. Title                                    : Greek-PGS
  475. Language                                 : Greek
  476. Default                                  : No
  477. Forced                                   : No

  478. Text #12
  479. ID                                       : 27
  480. Format                                   : PGS
  481. Muxing mode                              : zlib
  482. Codec ID                                 : S_HDMV/PGS
  483. Codec ID/Info                            : Picture based subtitle format used on BDs/HD-DVDs
  484. Duration                                 : 1 h 29 min
  485. Bit rate                                 : 21.4 kb/s
  486. Count of elements                        : 1770
  487. Stream size                              : 13.6 MiB (0%)
  488. Title                                    : Hungarian-PGS
  489. Language                                 : Hungarian
  490. Default                                  : No
  491. Forced                                   : No

  492. Text #13
  493. ID                                       : 28
  494. Format                                   : PGS
  495. Muxing mode                              : zlib
  496. Codec ID                                 : S_HDMV/PGS
  497. Codec ID/Info                            : Picture based subtitle format used on BDs/HD-DVDs
  498. Duration                                 : 1 h 29 min
  499. Bit rate                                 : 22.3 kb/s
  500. Count of elements                        : 1728
  501. Stream size                              : 14.2 MiB (0%)
  502. Title                                    : Icelandic-PGS
  503. Language                                 : Icelandic
  504. Default                                  : No
  505. Forced                                   : No

  506. Text #14
  507. ID                                       : 29
  508. Format                                   : PGS
  509. Muxing mode                              : zlib
  510. Codec ID                                 : S_HDMV/PGS
  511. Codec ID/Info                            : Picture based subtitle format used on BDs/HD-DVDs
  512. Duration                                 : 1 h 29 min
  513. Bit rate                                 : 17.7 kb/s
  514. Count of elements                        : 1898
  515. Stream size                              : 11.3 MiB (0%)
  516. Title                                    : Korean-PGS
  517. Language                                 : Korean
  518. Default                                  : No
  519. Forced                                   : No

  520. Text #15
  521. ID                                       : 30
  522. Format                                   : PGS
  523. Muxing mode                              : zlib
  524. Codec ID                                 : S_HDMV/PGS
  525. Codec ID/Info                            : Picture based subtitle format used on BDs/HD-DVDs
  526. Duration                                 : 1 h 29 min
  527. Bit rate                                 : 28.4 kb/s
  528. Count of elements                        : 1810
  529. Stream size                              : 18.1 MiB (0%)
  530. Title                                    : Malay-PGS
  531. Language                                 : Malay
  532. Default                                  : No
  533. Forced                                   : No

  534. Text #16
  535. ID                                       : 31
  536. Format                                   : PGS
  537. Muxing mode                              : zlib
  538. Codec ID                                 : S_HDMV/PGS
  539. Codec ID/Info                            : Picture based subtitle format used on BDs/HD-DVDs
  540. Duration                                 : 1 h 29 min
  541. Bit rate                                 : 19.4 kb/s
  542. Count of elements                        : 1804
  543. Stream size                              : 12.4 MiB (0%)
  544. Title                                    : Polish-PGS
  545. Language                                 : Polish
  546. Default                                  : No
  547. Forced                                   : No

  548. Text #17
  549. ID                                       : 32
  550. Format                                   : PGS
  551. Muxing mode                              : zlib
  552. Codec ID                                 : S_HDMV/PGS
  553. Codec ID/Info                            : Picture based subtitle format used on BDs/HD-DVDs
  554. Duration                                 : 1 h 29 min
  555. Bit rate                                 : 24.7 kb/s
  556. Count of elements                        : 1858
  557. Stream size                              : 15.8 MiB (0%)
  558. Title                                    : Portuguese-PGS
  559. Language                                 : Portuguese
  560. Default                                  : No
  561. Forced                                   : No

  562. Text #18
  563. ID                                       : 33
  564. Format                                   : PGS
  565. Muxing mode                              : zlib
  566. Codec ID                                 : S_HDMV/PGS
  567. Codec ID/Info                            : Picture based subtitle format used on BDs/HD-DVDs
  568. Duration                                 : 1 h 29 min
  569. Bit rate                                 : 21.9 kb/s
  570. Count of elements                        : 1736
  571. Stream size                              : 14.0 MiB (0%)
  572. Title                                    : Romanian-PGS
  573. Language                                 : Romanian
  574. Default                                  : No
  575. Forced                                   : No

  576. Text #19
  577. ID                                       : 34
  578. Format                                   : PGS
  579. Muxing mode                              : zlib
  580. Codec ID                                 : S_HDMV/PGS
  581. Codec ID/Info                            : Picture based subtitle format used on BDs/HD-DVDs
  582. Duration                                 : 1 h 29 min
  583. Bit rate                                 : 19.1 kb/s
  584. Count of elements                        : 1888
  585. Stream size                              : 12.2 MiB (0%)
  586. Title                                    : Slovak-PGS
  587. Language                                 : Slovak
  588. Default                                  : No
  589. Forced                                   : No

  590. Text #20
  591. ID                                       : 35
  592. Format                                   : PGS
  593. Muxing mode                              : zlib
  594. Codec ID                                 : S_HDMV/PGS
  595. Codec ID/Info                            : Picture based subtitle format used on BDs/HD-DVDs
  596. Duration                                 : 1 h 29 min
  597. Bit rate                                 : 18.8 kb/s
  598. Count of elements                        : 1471
  599. Stream size                              : 12.0 MiB (0%)
  600. Title                                    : Slovenian-PGS
  601. Language                                 : Slovenian
  602. Default                                  : No
  603. Forced                                   : No

  604. Text #21
  605. ID                                       : 36
  606. Format                                   : PGS
  607. Muxing mode                              : zlib
  608. Codec ID                                 : S_HDMV/PGS
  609. Codec ID/Info                            : Picture based subtitle format used on BDs/HD-DVDs
  610. Duration                                 : 1 h 29 min
  611. Bit rate                                 : 21.7 kb/s
  612. Count of elements                        : 1832
  613. Stream size                              : 13.9 MiB (0%)
  614. Title                                    : Spanish-PGS
  615. Language                                 : Spanish
  616. Default                                  : No
  617. Forced                                   : No

  618. Text #22
  619. ID                                       : 37
  620. Format                                   : PGS
  621. Muxing mode                              : zlib
  622. Codec ID                                 : S_HDMV/PGS
  623. Codec ID/Info                            : Picture based subtitle format used on BDs/HD-DVDs
  624. Duration                                 : 1 h 29 min
  625. Bit rate                                 : 21.1 kb/s
  626. Count of elements                        : 1748
  627. Stream size                              : 13.5 MiB (0%)
  628. Title                                    : Spanish-PGS
  629. Language                                 : Spanish
  630. Default                                  : No
  631. Forced                                   : No

  632. Text #23
  633. ID                                       : 38
  634. Format                                   : PGS
  635. Muxing mode                              : zlib
  636. Codec ID                                 : S_HDMV/PGS
  637. Codec ID/Info                            : Picture based subtitle format used on BDs/HD-DVDs
  638. Duration                                 : 1 h 29 min
  639. Bit rate                                 : 18.8 kb/s
  640. Count of elements                        : 1910
  641. Stream size                              : 12.0 MiB (0%)
  642. Title                                    : Thai-PGS
  643. Language                                 : Thai
  644. Default                                  : No
  645. Forced                                   : No

  646. Text #24
  647. ID                                       : 39
  648. Format                                   : PGS
  649. Muxing mode                              : zlib
  650. Codec ID
复制代码

魔童/明亮的熄灭 Brightburn.2019.2160p.BluRay.REMUX.HEVC.DTS-HD.MA.TrueHD.7.1.Atmos-FGT 48.42GB-2.png 魔童/明亮的熄灭 Brightburn.2019.2160p.BluRay.REMUX.HEVC.DTS-HD.MA.TrueHD.7.1.Atmos-FGT 48.42GB-3.png 魔童/明亮的熄灭 Brightburn.2019.2160p.BluRay.REMUX.HEVC.DTS-HD.MA.TrueHD.7.1.Atmos-FGT 48.42GB-4.png






本帖隐藏的下载地址需要VIP会员才可阅读,您需要升级才可阅读,点击这里升级VIP

VIP会员免费任意下载本站所有资源!---点击开通
回复

使用道具 举报

懒得打字嘛,点击右侧快捷回复 【右侧内容,后台自定义】
您需要登录后才可以回帖 登录 | 立即注册

本版积分规则

QQ|Archiver|手机版|小黑屋| 中国高清网 |网站地图

GMT+8, 2019-9-21 20:57 , Processed in 0.516029 second(s), 40 queries .

Powered by HDchina X3.4

Copyright 2017-2019©HDchina.All right reserved

返回顶部 联系我们