查看: 106|回复: 2

[剧情片] 嘉年华 Angels.Wear.White.2017.720p.BluRay.x264-USURY 4.38GB

[复制链接]

 成长值: 4170

级别:资源管理组

注册时间
2017-10-20
最后登录
2020-2-23
听众
1
收听
0
主题
92752
蓝光币
103049 枚
贡献
17114 点
发表于 2019-8-17 15:32:28 | 显示全部楼层 |阅读模式
嘉韶华 Angels.Wear.White.2017.720p.BluRay.x264-USURY 4.38GB-1.png
4 r2 k" c! B9 R) `1 _" i' Y
$ Z8 I5 A; ]# L4 n; E* z  H3 z1 j3 [译  名 Angels Wear White
# ?8 \5 h6 v+ |6 v% ?片  名 嘉韶华, L  K7 S9 C, D5 e7 U/ \2 a  x
年  代 2017
( B& U9 y/ q+ E; v% @6 ]产  地 中国大陆 / 法国+ Q. e& b' U/ V, c' B9 c8 ?, W
类  别 剧情0 \  h0 V- G5 U0 ?0 F. S" B( i
语  言 汉语普通话
! f+ A9 G" C8 z6 ~7 S. N上映日期 2017-09-07(威尼斯电影节) / 2017-11-24(中国大陆). n' q$ M# ]+ U1 s
IMDb评分  7.2/10 from 1577 users
" |$ V6 }& l$ n" W) }5 b) qIMDb链接  http://www.imdb.com/title/tt7205208
; n0 p; ^' p( k4 p8 a豆瓣评分 8.2/10 from 171466 users
& U. A# i, Q, r8 V8 a$ v豆瓣链接 https://movie.douban.com/subject/27019527/
, {( t5 f" N& b/ Z' m片  长 107分钟8 r+ c6 k/ S, Z3 R5 _) i$ ?
导  演 文晏 Vivian Qu. [7 `8 ]  L& ]8 W. L3 Z8 j, F
编  剧 文晏 Vivian Qu4 ^  }: H. z% D, z  X
主  演 文淇 Qi Wen
9 f& h& J% m$ m/ a       周美君 Meijun Zhou$ ~3 L$ T( G) G1 v  }4 l5 e% [5 E& Z
       史可 Ke Shi
7 G% L" m8 X" Y7 p1 C% [       耿乐 Le Geng& g  P- R3 e  Y6 ?) s
       刘威葳 Vieven Liu
; j8 w- ~% B* ?; z2 z$ I3 c; e       彭静 Jing Peng) f  W/ c1 {( n" A3 g9 R
       王栎鑫 Yuexin Wang
0 [  P0 Z" h' e, P0 J2 j7 V       李梦男 Mengnan Li
! k* L- L0 G+ ~6 L. a# v       蒋欣悦 Xinyue Jiang
/ ]  c" a. c6 R       陈竹昇 Chu-sheng Chen
! O! W5 k/ Z1 a6 C/ l; ^( H+ N- i% G, u: n: A
8 o/ m1 q7 H/ z6 d2 A( X, }& |7 O. O
标  签 女性 | 性侵 | 人性 | 社会 | 中国大陆 | 长大 | 剧情 | 2017
. I, u8 a% x3 d* \8 W  X- y
7 D' X- ]% P, F( c9 [' N简  介  2 D. ~0 z+ B: u1 \* U1 a- \( J) b- x

! e7 n: h% S7 o) H+ [/ Z2 [/ U. t  小米(文淇 饰)在位于风光区的一间酒店里打工。一天,正值小米当班,一个汉子带着两个看上去还是小门生的女孩子来开房,虽然心中一切挂念,但小米秉着多一事不如少一事的动机替他们开了两间房。以后,在监控录像里,小米看到汉子在不即不离之下进入了两个女孩的房间,心中隐约感觉不安的小米将这一幕用手机录了下来。
) M7 c) A9 V2 }# K/ G6 U" ^% a  两个女孩一个叫孟小文(周美君 饰),一个叫张新新(蒋欣悦 饰),阿谁汉子是他们的“干爹”。东窗事发以后,小文的母亲报警并找到了律师郝洁(史可 饰),希望法令可以还他们一个公道。但是适得其反,证据的缺少让怀疑人迟迟不能科罪,而最最关键的证据,正把握在小米的手中。
8 W! {2 s; ]8 M; J4 z+ y% u+ l4 b! L/ u( ?% C
获奖情况  
: U& l( i$ i1 M! ~+ U8 G" Q$ S* f+ ~4 A
  第74届威尼斯电影节(2017)
) |3 |+ A$ y( C- S* [  主比赛单元 金狮奖 (提名) 文晏" i; B% ]1 O- q( a: A" b
, h0 k9 c9 S) l' n6 B
  第54届台北金马影展(2017)
5 z9 M  m  o! S/ f  金马奖 最好剧情片(提名)- D% E0 _3 D+ W5 ~' P! ^* U
  金马奖 最好导演 文晏: N- n* G; R  ^/ n' c
  金马奖 最好女配角(提名) 文淇
- J. S, _! q/ u( S* q/ e) B$ r: g5 F2 P+ @  P
  第38届香港电影金像奖(2019)% Q5 W4 G) d& p7 ]! s0 L- B
  最好两岸华语电影(提名) 文晏
5 _! S& L' E4 J, p8 U/ E; m7 B* B" N8 j7 T% k
  第12届亚洲电影大奖(2018)
0 G6 b: j9 x7 i2 c& z8 w5 v' K  最好电影(提名): e. T9 q7 j1 F* u. x7 G
  最好新导演(提名) 文晏$ L% B8 o- k5 ]6 U* |  Q
  最好新演员(提名) 周美君
; ?: n* d$ j4 R6 j( W) g" P  最好男配角(提名) 耿乐
5 U1 R  J5 x1 I" a  最好原创音乐(提名) 文子, ]3 O2 g! N" ]$ G9 W; X2 T
$ I- n: }7 z" o  b
  第42届香港国际电影节(2018)& o  ^% e$ y" a: B: W
  新秀电影比赛 火鸟大奖(提名) 文晏
" t- T0 X$ e! ^& |$ J7 Y# r, m
9 D/ d; K# K. [; R9 U: d8 A$ o; s  第1届平遥国际电影展(2017)& H; y7 f  J: B$ E. A# ]
  费穆声誉最好影片 文晏3 f' J) O* Z4 t3 g) S0 s
  观众票选声誉出格表彰 文淇
0 D  q( G0 N; V$ x  影展之最单元最受接待影片(提名) 文晏+ X9 o- y8 s; i$ R1 s

8 F" _  c+ ^* k/ y7 y' ~2 Z  第18届华语电影传媒大奖(2018)
8 i" R5 M/ h0 K3 Z  最好新演员 周美君, I4 B; a7 I! {; ~, S

9 u' E  ?3 c3 k1 \" B  第25届北京大门生电影节(2018)
# t; L/ c# q* a9 ~0 Y  最好导演奖(提名) 文晏
8 K4 t& P' [: Q+ G5 o/ L  最好新人奖(提名) 周美君
6 W( P$ R. h- B- W  评委会大奖
  G  \/ w; z: q# I: j/ Z! k2 T
  B% H# F3 E8 z; P  第39届南特三大洲电影节(2017)" {3 `" R* l' D7 X
  南特三大洲电影节 银热气球奖
9 q# [$ F7 ^( V. z7 H
7 h7 M  o5 V6 x( a/ y  第4届豆瓣电影年度榜单(2017)
& c3 `# D1 D) {- a4 P' `+ W  评分最高的华语电影) A3 h0 b( J+ M4 `/ N+ e) O
  11月最受关注电影(提名)
" p7 J" h5 a: _5 j+ Z! X8 r# j
  1. Video9 v" G  y7 P& |! }2 E  @
  2. ID                                       : 10 n7 Y7 h3 q8 ?2 H2 x
  3. Format                                   : AVC
    + o. a0 v4 A* w( A
  4. Format/Info                              : Advanced Video Codec: Z7 F5 T: K$ v
  5. Format profile                           : <a href="/cdn-cgi/l/email-protection" class="__cf_email__" data-cfemail="84ccede3ecc4c8b0aab5">[email protected]</a>3 s1 O6 o, L5 Y- m( w
  6. Format settings                          : CABAC / 5 Ref Frames5 f- n9 l1 s+ l
  7. Format settings, CABAC                   : Yes' S: }% B: K9 W3 F( P/ Q7 t: o  N1 ^
  8. Format settings, Reference frames        : 5 frames
    ' h2 a. q1 _9 X% V7 d& z, f
  9. Codec ID                                 : V_MPEG4/ISO/AVC
    2 E- r2 L6 x# d2 B7 Z
  10. Duration                                 : 1 h 47 min/ o% Z- i  v1 T" e6 ]) ]  E
  11. Bit rate                                 : 5 204 kb/s
    : ]4 {/ g2 ^8 P  O9 x
  12. Width                                    : 1 280 pixels
    7 _2 k$ M. z" A2 g5 c1 C4 ]$ @; W
  13. Height                                   : 688 pixels9 f/ l/ ?  z4 P" G
  14. Display aspect ratio                     : 1.85:1! `9 n) Y4 d( b% t9 ~% |
  15. Frame rate mode                          : Constant8 r/ W, N2 `6 f% {1 g
  16. Frame rate                               : 24.000 FPS. u' D2 r: L7 @. w2 k- V1 b
  17. Color space                              : YUV
    ) k* c" P( {9 J& y1 |! J
  18. Chroma subsampling                       : 4:2:0
    . v% i8 z7 D0 q" J5 b6 ?7 ~5 w
  19. Bit depth                                : 8 bits; P- r; b) d! @1 N) _
  20. Scan type                                : Progressive
    : g+ I! q4 v! Z
  21. Bits/(Pixel*Frame)                       : 0.246" M' E: R& n; g5 {
  22. Stream size                              : 3.89 GiB (89%)
    $ A* r  _1 g/ s' t9 Y* t( F) \
  23. Writing library                          : x264 core 157 r2969 d4099dd2 L. p$ ^) R% x- `
  24. Encoding settings                        : cabac=1 / ref=5 / deblock=1:-3:-3 / analyse=0x3:0x133 / me=umh / subme=9 / psy=1 / psy_rd=1.00:0.00 / mixed_ref=1 / me_range=16 / chroma_me=1 / trellis=2 / 8x8dct=1 / cqm=0 / deadzone=21,11 / fast_pskip=0 / chroma_qp_offset=-2 / threads=18 / lookahead_threads=1 / sliced_threads=0 / nr=0 / decimate=1 / interlaced=0 / bluray_compat=0 / constrained_intra=0 / bframes=3 / b_pyramid=2 / b_adapt=1 / b_bias=0 / direct=3 / weightb=1 / open_gop=0 / weightp=2 / keyint=240 / keyint_min=24 / scenecut=40 / intra_refresh=0 / rc_lookahead=50 / rc=2pass / mbtree=1 / bitrate=5204 / ratetol=1.0 / qcomp=0.60 / qpmin=0 / qpmax=69 / qpstep=4 / cplxblur=20.0 / qblur=0.5 / ip_ratio=1.40 / aq=1:1.00; l+ F: ~) q* f2 i  x3 S
  25. Language                                 : English
    0 f' ?4 P& n7 ~+ F/ [4 F  x! a
  26. Default                                  : Yes# F, y! T! [4 T6 b9 k6 R6 [
  27. Forced                                   : No6 q+ G) j6 J3 Q

  28. 9 w2 T" J1 s+ D8 _. R, l" }1 c
  29. Audio
    1 D  q9 j7 ^- n0 r3 C' h
  30. ID                                       : 2
    + C, L# C% Y' |0 ]: H6 u4 i/ W
  31. Format                                   : AC-3
    6 i+ [; Z, ]- P3 N
  32. Format/Info                              : Audio Coding 31 Q. M0 z' r" g& u6 w
  33. Commercial name                          : Dolby Digital3 r# l$ H( r$ l; N1 l( Z# C
  34. Codec ID                                 : A_AC3/ E; U) X$ K( |6 r  t  v8 f) h
  35. Duration                                 : 1 h 47 min
    & O. ]/ k  a) d& c' M: P, I
  36. Bit rate mode                            : Constant
    " a' h) [* n( t# a3 W/ W5 _- y& U
  37. Bit rate                                 : 640 kb/s$ N, E" i) v! `6 g  E! ~) J: c
  38. Channel(s)                               : 6 channels
    : \9 w' H/ D; C: E2 K5 v$ ~
  39. Channel layout                           : L R C LFE Ls Rs( i# p' _/ Q. t0 w6 x0 F
  40. Sampling rate                            : 48.0 kHz6 A7 q' D+ J6 U; @7 T
  41. Frame rate                               : 31.250 FPS (1536 SPF)
    1 Z7 `1 |9 w9 {
  42. Bit depth                                : 16 bits
    0 c( z: F' @2 L5 K/ A- K5 Y9 d( H
  43. Compression mode                         : Lossy
    # X1 J% T. j, Z2 g& f8 ^9 T
  44. Stream size                              : 490 MiB (11%)% {3 K8 {( m* e' t
  45. Language                                 : Chinese
    5 q9 \! W5 G( V( O9 [& p/ T; S
  46. Service kind                             : Complete Main, o! W+ N/ K( S% k. h0 L% \- n
  47. Default                                  : Yes7 Y5 C7 f' r2 h9 R
  48. Forced                                   : No
    / X0 m( R2 j) z
  49. 7 v% Y* e+ X1 a" d- [3 U; U3 L- C
  50. Text0 y" U4 T3 S5 Q+ c
  51. ID                                       : 3
    3 F, x/ s% F- i6 a2 ~% U
  52. Format                                   : UTF-8$ M# C7 k: l# F! A. \( @
  53. Codec ID                                 : S_TEXT/UTF8, w% G2 u( l- ^
  54. Codec ID/Info                            : UTF-8 Plain Text
    9 S7 O' Z* k. g5 |- R4 g
  55. Duration                                 : 1 h 38 min
    5 \' n' q. ]* d3 f, O
  56. Bit rate                                 : 26 b/s( ]  `& z& G, C; c" K% m. H
  57. Count of elements                        : 732
    . W( ?! C$ H, E9 _, ?( P
  58. Stream size                              : 19.1 KiB (0%)) D8 D2 H- w7 X/ t3 b. x
  59. Title                                    : English
    8 `6 t, ~* W; X( F7 V$ b, T
  60. Language                                 : English
    . O. D0 q% Z9 @% k3 O% B. W
  61. Default                                  : Yes* O  X" _) [. B. ^
  62. Forced                                   : Yes
    $ |# O/ R  x# s5 q

  63. - K8 X& |3 n4 {4 T# A
  64. Menu' \$ C& F# s* a  x$ _  C; a; y
  65. 00:00:00.000                             : en:00:00:00.000
    + A2 d0 i& y' ~, n
  66. 00:08:50.417                             : en:00:08:50.417
    3 M& [4 Z# c+ _
  67. 00:17:25.083                             : en:00:17:25.083& a- X' x& q6 V" D! }5 e7 S
  68. 00:27:38.042                             : en:00:27:38.042( R& L; R* s! H7 ~2 S; f
  69. 00:35:17.542                             : en:00:35:17.5421 Q9 s4 X6 m7 |, }& M, p- K
  70. 00:44:47.958                             : en:00:44:47.958
    1 o* M& C! q: B. ]5 a) [) s
  71. 00:52:02.958                             : en:00:52:02.958
    2 g& U2 T7 E* W) h3 q" g. j1 @
  72. 01:01:47.042                             : en:01:01:47.042
    % e4 \6 l  o- i/ I% d
  73. 01:12:21.875                             : en:01:12:21.875/ W* m! \$ z/ j8 V: R
  74. 01:19:37.667                             : en:01:19:37.667
    9 {3 ]& X; A' f# i# A
  75. 01:29:12.458                             : en:01:29:12.458
    5 t" @) Z$ `( J7 M# S. D" f
  76. 01:38:27.250                             : en:01:38:27.250
复制代码
$ @, n) J3 u( T& j" W- l/ L
嘉韶华 Angels.Wear.White.2017.720p.BluRay.x264-USURY 4.38GB-2.png 3 @0 \1 i, l4 d* e; |/ k3 @4 u
1 G/ R5 ~& z' [
9 ?* Z2 }! i4 d1 U0 f- x

- y+ R6 z, A0 _3 ^% j# W, L1 z9 K) \; l; _* \/ a
+ F. j/ y! |! d, C' ?

1 k7 j8 Q9 y7 X2 p
回复

使用道具 举报

级别:荣升主角 Lv.5

注册时间
2019-2-3
最后登录
2020-2-23
听众
15
收听
0
主题
0
蓝光币
276 枚
贡献
0 点
发表于 2019-8-17 16:34:02 | 显示全部楼层
楼主发贴辛苦了,谢谢楼主分享!我觉得中国高清电影网是注册对了!
回复

使用道具 举报

级别:一线明星 Lv.8

注册时间
2019-4-24
最后登录
2020-2-24
听众
14
收听
0
主题
0
蓝光币
339 枚
贡献
0 点
发表于 2019-9-17 09:09:24 | 显示全部楼层
楼主发贴辛苦了,谢谢楼主分享!我觉得中国高清电影网是注册对了!
回复

使用道具 举报

懒得打字嘛,点击右侧快捷回复 【右侧内容,后台自定义】
您需要登录后才可以回帖 登录 | 立即注册

本版积分规则

Archiver|手机版|小黑屋| 中国高清网 |网站地图

GMT+8, 2020-2-24 13:32 , Processed in 0.186087 second(s), 37 queries .

Powered by HDchina X3.4

Copyright 2017-2019©HDchina.All right reserved

返回顶部 联系我们