查看: 55|回复: 2

[剧情片] 嘉年华 Angels.Wear.White.2017.720p.BluRay.x264-USURY 4.38GB

[复制链接]

 成长值: 2570

级别:资源管理组

注册时间
2017-10-20
最后登录
2019-9-21
听众
1
收听
0
主题
83026
蓝光币
49771 枚
贡献
7354 点
发表于 2019-8-17 15:32:28 | 显示全部楼层 |阅读模式
嘉韶华 Angels.Wear.White.2017.720p.BluRay.x264-USURY 4.38GB-1.png 1 }4 A7 a7 P- U5 F+ S
" h9 x" g. L  s1 U% |( ?" R
译  名 Angels Wear White) g! T( f5 e4 \( `2 f: Q- v
片  名 嘉韶华7 O: n; f/ k4 v$ l1 s
年  代 20175 E! G7 d9 k% _8 v/ W+ b" |$ O; l
产  地 中国大陆 / 法国
; P$ h  }9 r- O类  别 剧情
5 h6 @9 b5 F& h# O$ l* f语  言 汉语普通话3 o! N+ W8 e0 @; \# G* n9 I
上映日期 2017-09-07(威尼斯电影节) / 2017-11-24(中国大陆)
' O" a7 }8 W8 N: TIMDb评分  7.2/10 from 1577 users
7 v4 _6 d) q9 E+ y$ w. {IMDb链接  http://www.imdb.com/title/tt7205208
7 _1 J% b$ z+ ^豆瓣评分 8.2/10 from 171466 users4 {. C$ f7 c& Q! t3 `( D9 p
豆瓣链接 https://movie.douban.com/subject/27019527/# u) @# {8 U, H& `/ I. z) S
片  长 107分钟6 J7 \6 N# j; Q" g2 k$ i- ]; F' {$ J
导  演 文晏 Vivian Qu
* w/ O8 B8 F1 D$ p7 L$ b' P1 a编  剧 文晏 Vivian Qu1 m7 @" B9 J  X
主  演 文淇 Qi Wen
, r% I0 Y$ S6 v       周美君 Meijun Zhou7 l/ k8 [( j6 C) P; f, @
       史可 Ke Shi
% d4 e) G4 q2 D3 h+ |( B' H       耿乐 Le Geng
: P9 B0 u% r9 d5 ]' r8 b       刘威葳 Vieven Liu
; }1 O0 h4 e( k8 A1 C5 p: H       彭静 Jing Peng
9 w& @( o8 E" n+ F3 g, r  `% ?$ O& |       王栎鑫 Yuexin Wang# N" `6 m: }$ ~( a/ J
       李梦男 Mengnan Li
  h& D" u# A. `8 p1 l( [' `4 x       蒋欣悦 Xinyue Jiang
& Q9 d1 A2 k; B, I6 i: S" N       陈竹昇 Chu-sheng Chen: d. p! t7 z, U0 A2 f% u3 W

4 b( k: E( y- _9 L' [. l3 S5 p
" {: w: V+ |1 X标  签 女性 | 性侵 | 人性 | 社会 | 中国大陆 | 长大 | 剧情 | 2017! m2 {3 V* N+ m! D* E, K3 P, d

. _8 p( r6 q2 C' ~简  介  / f( [. a, x$ n% c8 w. s: b: H# i

0 I4 c1 D+ q8 W. X  小米(文淇 饰)在位于风光区的一间酒店里打工。一天,正值小米当班,一个汉子带着两个看上去还是小门生的女孩子来开房,虽然心中一切挂念,但小米秉着多一事不如少一事的动机替他们开了两间房。以后,在监控录像里,小米看到汉子在不即不离之下进入了两个女孩的房间,心中隐约感觉不安的小米将这一幕用手机录了下来。, e, X6 @/ U0 R& U) e( Y
  两个女孩一个叫孟小文(周美君 饰),一个叫张新新(蒋欣悦 饰),阿谁汉子是他们的“干爹”。东窗事发以后,小文的母亲报警并找到了律师郝洁(史可 饰),希望法令可以还他们一个公道。但是适得其反,证据的缺少让怀疑人迟迟不能科罪,而最最关键的证据,正把握在小米的手中。
! ]5 _- [8 a6 ~. T5 w! c9 G( j/ g& J
获奖情况  4 {. w; ?2 C4 R& ?8 T/ L! w
- ]0 b0 F" C# [* B
  第74届威尼斯电影节(2017)6 r$ }* J8 m% Y5 G+ a, s
  主比赛单元 金狮奖 (提名) 文晏
" |) }; R1 |2 p! a# o
4 p# F0 I0 H/ Y; \/ \% \  第54届台北金马影展(2017)0 D$ o' z" v& D: P' }% ~9 H8 ?9 x
  金马奖 最好剧情片(提名)) [% l  T$ |, I% r
  金马奖 最好导演 文晏
' r- w+ @% M  d- r' X  金马奖 最好女配角(提名) 文淇1 e/ [% N+ I8 c# w3 |

8 T3 T4 e8 W6 c: o4 L  h  第38届香港电影金像奖(2019)
- ^% @& N- S6 L+ ?; ^6 h0 L  最好两岸华语电影(提名) 文晏
4 [  j& k* B2 U0 k6 t- x# `- K( a( S& V
  第12届亚洲电影大奖(2018). R8 v3 [, p3 |" F" M5 n3 h
  最好电影(提名)" \* P* A: e; K5 D, D2 G' L
  最好新导演(提名) 文晏
+ r- F1 s  e3 u5 i% n7 ?) P  最好新演员(提名) 周美君
+ F/ I! E+ I8 h" s  最好男配角(提名) 耿乐2 Y9 J& A% C) `. X7 k- i+ s
  最好原创音乐(提名) 文子& h4 G, R% k# Z5 e( S- Z

$ y% c, j& d0 h- J9 p! W$ X. `* I  第42届香港国际电影节(2018)
5 [- n0 u; _; l3 l8 X; T; E/ Q  新秀电影比赛 火鸟大奖(提名) 文晏5 ?& N. `5 U% t. q6 S

! A+ E% H9 l* W& V! W8 H# P  ^  第1届平遥国际电影展(2017)6 g" W- z* Y9 _: h* Y6 A/ J
  费穆声誉最好影片 文晏6 b3 d4 L/ `2 E1 e+ t9 @1 X
  观众票选声誉出格表彰 文淇
3 t$ c8 a% {' `9 ?/ R4 O0 }  影展之最单元最受接待影片(提名) 文晏3 E: B. R2 W0 A5 j, ?0 E

! q. T0 e3 C5 p  第18届华语电影传媒大奖(2018)2 |. ?2 H# ^. w
  最好新演员 周美君# I# }  C% _# ?

8 v- |1 B2 X8 a- A% i* M5 \  第25届北京大门生电影节(2018)$ i/ |: ]! u" `# F) p
  最好导演奖(提名) 文晏" X1 E6 y* y. G" o+ ^
  最好新人奖(提名) 周美君! s( h; ]& o: z  d. ]
  评委会大奖' [) ~4 n" {2 N) Q

, D, k1 B# X8 j& J9 |: k# U1 j1 H' C  第39届南特三大洲电影节(2017)+ y% h* \1 k9 i2 j/ [
  南特三大洲电影节 银热气球奖+ Z, |  N- S& X( \, e
& F' g0 T" h& e" u. e2 l
  第4届豆瓣电影年度榜单(2017)6 N3 F: M( ^  P2 F! @
  评分最高的华语电影
; s. a' L6 A; [  m% J6 e( @  11月最受关注电影(提名)
9 {( S* @8 L( S/ r6 o! r5 D
  1. Video
    9 x0 `6 s) O8 c/ e4 M
  2. ID                                       : 1
    4 M  K; r: c; h( r2 U9 ]
  3. Format                                   : AVC; }9 F& a$ ^8 P' b2 r
  4. Format/Info                              : Advanced Video Codec( H/ X* F, B4 L8 G
  5. Format profile                           : <a href="/cdn-cgi/l/email-protection" class="__cf_email__" data-cfemail="84ccede3ecc4c8b0aab5">[email protected]</a>  g% b2 n7 m+ L7 u6 U+ T3 }
  6. Format settings                          : CABAC / 5 Ref Frames9 E$ v5 t$ L. q( L6 k- c* N
  7. Format settings, CABAC                   : Yes0 b! \- X0 D7 u5 X( [! d5 E) \7 l- E
  8. Format settings, Reference frames        : 5 frames8 s* [& t6 m% ~" @
  9. Codec ID                                 : V_MPEG4/ISO/AVC
    % i: H6 g1 m7 t& h* o
  10. Duration                                 : 1 h 47 min! z7 `/ a0 O/ e# I
  11. Bit rate                                 : 5 204 kb/s9 ]: `( Y  Q2 z! p, x+ `
  12. Width                                    : 1 280 pixels* [" ?' h( ?4 r! s& g8 T9 ?* q6 Z! m
  13. Height                                   : 688 pixels' d" S5 V: D, S9 R5 t3 q
  14. Display aspect ratio                     : 1.85:1; r# f. d2 I: E  e% }% W0 S" O
  15. Frame rate mode                          : Constant8 P* L# t- h! _8 m0 ~( m
  16. Frame rate                               : 24.000 FPS
    3 f5 |4 v4 A& U5 ?; S$ A* @
  17. Color space                              : YUV( ~0 K, }) b0 f9 L
  18. Chroma subsampling                       : 4:2:0
    2 x( i4 h, Q! @' I* q
  19. Bit depth                                : 8 bits7 V( f! n) f% j. I+ @7 U6 f5 _# H
  20. Scan type                                : Progressive
    : Z7 w( d) _! T; @8 O5 @
  21. Bits/(Pixel*Frame)                       : 0.246
    8 Y# {& H# z2 U* Q
  22. Stream size                              : 3.89 GiB (89%)
    + B# ~( m0 L/ X: a( l) H5 h0 [
  23. Writing library                          : x264 core 157 r2969 d4099dd0 u2 h9 R6 f/ ?
  24. Encoding settings                        : cabac=1 / ref=5 / deblock=1:-3:-3 / analyse=0x3:0x133 / me=umh / subme=9 / psy=1 / psy_rd=1.00:0.00 / mixed_ref=1 / me_range=16 / chroma_me=1 / trellis=2 / 8x8dct=1 / cqm=0 / deadzone=21,11 / fast_pskip=0 / chroma_qp_offset=-2 / threads=18 / lookahead_threads=1 / sliced_threads=0 / nr=0 / decimate=1 / interlaced=0 / bluray_compat=0 / constrained_intra=0 / bframes=3 / b_pyramid=2 / b_adapt=1 / b_bias=0 / direct=3 / weightb=1 / open_gop=0 / weightp=2 / keyint=240 / keyint_min=24 / scenecut=40 / intra_refresh=0 / rc_lookahead=50 / rc=2pass / mbtree=1 / bitrate=5204 / ratetol=1.0 / qcomp=0.60 / qpmin=0 / qpmax=69 / qpstep=4 / cplxblur=20.0 / qblur=0.5 / ip_ratio=1.40 / aq=1:1.00
    1 i& p3 [' b) S
  25. Language                                 : English
    5 c8 u6 ~% s! P
  26. Default                                  : Yes
    , w/ z& B& N2 y  R& g3 C  j
  27. Forced                                   : No
    : P# y4 q1 _1 R  @, a

  28. 2 W6 i2 |; `  ~2 H
  29. Audio9 h7 w5 {' b7 Q7 p2 J3 O
  30. ID                                       : 2
      y. I+ `" ?* E# q7 Z
  31. Format                                   : AC-31 l& W' c8 t* ]
  32. Format/Info                              : Audio Coding 3: v: ^2 C2 \3 q
  33. Commercial name                          : Dolby Digital
    ( H, E& q6 Y, g4 b& Z
  34. Codec ID                                 : A_AC3
    0 U  X4 d0 `8 W
  35. Duration                                 : 1 h 47 min
    ; R% @. b9 |4 M4 c8 E, m
  36. Bit rate mode                            : Constant; e5 u4 g4 W' W8 X( U/ F4 f
  37. Bit rate                                 : 640 kb/s7 `$ G0 ^( d  G9 r- U
  38. Channel(s)                               : 6 channels
    ! ]" K2 q% W; t9 l
  39. Channel layout                           : L R C LFE Ls Rs
    4 H9 r+ r) E/ P/ f
  40. Sampling rate                            : 48.0 kHz
    : T9 f1 f5 H8 P7 B+ Y+ X
  41. Frame rate                               : 31.250 FPS (1536 SPF)' X- p, u' ]& U4 w1 U& N1 I
  42. Bit depth                                : 16 bits. @+ \" i( ]2 T2 ^- P
  43. Compression mode                         : Lossy) v5 r( h  l- f
  44. Stream size                              : 490 MiB (11%)
    8 N. p' P; r6 H* U( z* H% H4 m
  45. Language                                 : Chinese0 Q, T  G& c  o% K1 \& C/ y
  46. Service kind                             : Complete Main
    # j/ Q0 _7 ^; c7 Y6 L' y4 [: w
  47. Default                                  : Yes: t8 h2 v: \5 ]3 w
  48. Forced                                   : No6 h; u, b( U8 o6 i- l
  49. % e/ g/ z' T6 K4 A
  50. Text7 H  E$ I# G3 }7 p
  51. ID                                       : 3% [, x* U) U5 b6 g
  52. Format                                   : UTF-8
    9 [2 l0 q3 M+ t7 |( l
  53. Codec ID                                 : S_TEXT/UTF8+ O/ b" W) j% G0 j; a# S& m
  54. Codec ID/Info                            : UTF-8 Plain Text# d4 Z4 a; A7 j( q$ C
  55. Duration                                 : 1 h 38 min
    1 ]. z" O2 ~# @
  56. Bit rate                                 : 26 b/s
    5 ]) K& u' M9 z1 A
  57. Count of elements                        : 732
    4 g% h, i/ ^3 s8 D$ K7 S* K; d5 q7 W% d
  58. Stream size                              : 19.1 KiB (0%)0 {0 x$ ]4 o5 H1 k+ g6 @# b% \
  59. Title                                    : English0 f' _" d3 w, [$ z
  60. Language                                 : English# D; f6 `# D5 {' ^+ f' E
  61. Default                                  : Yes
    ; T' n/ Y5 ~! z
  62. Forced                                   : Yes! ^4 A# Q4 e5 W
  63. 4 S6 \7 R; |$ y; N/ x/ g+ {8 X% y
  64. Menu
    , ?3 d8 b! [; b9 O2 [, f
  65. 00:00:00.000                             : en:00:00:00.000
    , D5 o; ]& q6 `" O
  66. 00:08:50.417                             : en:00:08:50.417
    ; S& W1 \6 H+ p+ m
  67. 00:17:25.083                             : en:00:17:25.083
    $ X9 F' m, Y, Z3 Q# g+ P( d$ g
  68. 00:27:38.042                             : en:00:27:38.042
    $ E# N( ^0 X3 r( C% N
  69. 00:35:17.542                             : en:00:35:17.542- l/ ~% x. j# P' y
  70. 00:44:47.958                             : en:00:44:47.958
    $ x: V: e4 D% N9 _( o6 _, \: @
  71. 00:52:02.958                             : en:00:52:02.958
    + i! m6 d! v4 y( `$ W& G
  72. 01:01:47.042                             : en:01:01:47.042
    , F" d  A( q: J$ f) t3 W4 |
  73. 01:12:21.875                             : en:01:12:21.875) X: H. Q0 X, p) T
  74. 01:19:37.667                             : en:01:19:37.667
    2 X) ?1 ?; q1 o; Z
  75. 01:29:12.458                             : en:01:29:12.4589 u& k* O) n7 D$ Q
  76. 01:38:27.250                             : en:01:38:27.250
复制代码

) N7 H5 J$ H3 m4 R! l6 ~4 p 嘉韶华 Angels.Wear.White.2017.720p.BluRay.x264-USURY 4.38GB-2.png 7 W# {9 C2 ~2 P& V
) o- l! U$ b& B/ Y0 X

( U6 P  ]7 M8 \- X5 F* O  A, }! [8 o- H: ]* a
2 n! o! ^( r: Y5 E3 F
: k3 \( @( C9 I4 A3 h( K

& `  P* V+ S1 U9 _& _
VIP会员免费任意下载本站所有资源!---点击开通
回复

使用道具 举报

级别:荣升主角 Lv.5

注册时间
2019-2-3
最后登录
2019-9-21
听众
14
收听
0
主题
0
蓝光币
173 枚
贡献
0 点
发表于 2019-8-17 16:34:02 | 显示全部楼层
楼主发贴辛苦了,谢谢楼主分享!我觉得中国高清电影网是注册对了!
VIP会员免费任意下载本站所有资源!---点击开通
回复

使用道具 举报

级别:领衔主演 Lv.6

注册时间
2019-4-24
最后登录
2019-9-21
听众
13
收听
0
主题
0
蓝光币
111 枚
贡献
0 点
发表于 4 天前 | 显示全部楼层
楼主发贴辛苦了,谢谢楼主分享!我觉得中国高清电影网是注册对了!
VIP会员免费任意下载本站所有资源!---点击开通
回复

使用道具 举报

懒得打字嘛,点击右侧快捷回复 【右侧内容,后台自定义】
您需要登录后才可以回帖 登录 | 立即注册

本版积分规则

QQ|Archiver|手机版|小黑屋| 中国高清网 |网站地图

GMT+8, 2019-9-21 21:22 , Processed in 0.702148 second(s), 39 queries .

Powered by HDchina X3.4

Copyright 2017-2019©HDchina.All right reserved

返回顶部 联系我们