查看: 57|回复: 0

[剧情片] 塞巴斯蒂安 Sebastiane.1976.REMASTERED.1080p.BluRay.x264-USURY 8.75GB

[复制链接]

 成长值: 2560

级别:资源管理组

注册时间
2017-10-20
最后登录
2019-9-19
听众
1
收听
0
主题
82921
蓝光币
49296 枚
贡献
7249 点
发表于 2019-8-17 15:28:31 | 显示全部楼层 |阅读模式
塞巴斯蒂安 Sebastiane.1976.REMASTERED.1080p.BluRay.x264-USURY 8.75GB-1.png

译  名 塞巴斯蒂安
片  名 Sebastiane
年  代 1976
产  地 英国
类  别 剧情 / 惊悚 / 同性 / 历史
语  言 拉丁语
上映日期 1976-12(英国)
IMDb评分  6.1/10 from 2322 users
IMDb链接  http://www.imdb.com/title/tt0075177
豆瓣评分 6.8/10 from 2530 users
豆瓣链接 https://movie.douban.com/subject/1308674/
片  长 86分钟
导  演 保罗·哈姆弗里斯 Paul Humfress / 德里克·贾曼 Derek Jarman
编  剧 保罗·哈姆弗里斯 Paul Humfress / 德里克·贾曼 Derek Jarman / James Whaley
主  演 莱昂纳多·特雷维谬 Leonardo Treviglio
       Barney James
       Neil Kennedy
       理查德·沃里克 Richard Warwick
       Donald Dunham
       Ken Hicks
       Janusz Romanov
       Steffano Massari
       Daevid Finbar
       Gerald Incandela
       Robert Medley
       尼尔·坎贝尔 Nell Campbell
       彼得·欣伍德 Peter Hinwood
       Jordan
       林赛·肯普 Lindsay Kemp
       Andrew Logan
       帕特里夏·奎因 Patricia Quinn
       Philip Sayer


标  签 同道 | 英国 | 同道电影 | DerekJarman | Gay | 英国电影 | 1976 | 同性

简  介  

  故事发生在公元300年的罗马帝国,一场大火将罗马国王迪奥克里田(Robert Medley 饰)的王宫付之一炬,损失非常的惨重。侍卫队长塞巴斯蒂安(莱昂纳多·特雷维谬 Leonardo Treviglio 饰)曾是罗马国王最为宠幸的汉子,在此次变乱当中却沦为了罪魁罪魁,为了赏罚他,国王不能不将他放逐到了茫茫的沙漠当中。
  贾斯丁(理查德·沃里克 Richard Warwick 饰)、阿迪安(Ken Hicks 饰)、马鲁斯(Steffano Massari 饰)等六名流兵负责看管塞巴斯蒂安,但是对于他们来说,这并不是一件好差事。一行人在无穷无尽的沙漠中行走着,白天,他们练习肉搏以消磨时候,每当夜晚到临,一种奇妙的氛围渐渐的浮下水面。
  1. Video
  2. ID                                       : 1
  3. Format                                   : AVC
  4. Format/Info                              : Advanced Video Codec
  5. Format profile                           : <a href="/cdn-cgi/l/email-protection" class="__cf_email__" data-cfemail="fdb5949a95bdb1c9d3cc">[email protected]</a>
  6. Format settings                          : CABAC / 4 Ref Frames
  7. Format settings, CABAC                   : Yes
  8. Format settings, Reference frames        : 4 frames
  9. Codec ID                                 : V_MPEG4/ISO/AVC
  10. Duration                                 : 1 h 25 min
  11. Bit rate                                 : 14.0 Mb/s
  12. Width                                    : 1 488 pixels
  13. Height                                   : 1 080 pixels
  14. Display aspect ratio                     : 1.378
  15. Frame rate mode                          : Constant
  16. Frame rate                               : 24.000 FPS
  17. Color space                              : YUV
  18. Chroma subsampling                       : 4:2:0
  19. Bit depth                                : 8 bits
  20. Scan type                                : Progressive
  21. Bits/(Pixel*Frame)                       : 0.362
  22. Stream size                              : 8.32 GiB (95%)
  23. Writing library                          : x264 core 157 r2969 d4099dd
  24. Encoding settings                        : cabac=1 / ref=4 / deblock=1:-3:-3 / analyse=0x3:0x133 / me=umh / subme=9 / psy=1 / psy_rd=1.00:0.00 / mixed_ref=1 / me_range=16 / chroma_me=1 / trellis=2 / 8x8dct=1 / cqm=0 / deadzone=21,11 / fast_pskip=0 / chroma_qp_offset=-2 / threads=18 / lookahead_threads=1 / sliced_threads=0 / nr=0 / decimate=1 / interlaced=0 / bluray_compat=0 / constrained_intra=0 / bframes=3 / b_pyramid=2 / b_adapt=1 / b_bias=0 / direct=3 / weightb=1 / open_gop=0 / weightp=2 / keyint=240 / keyint_min=24 / scenecut=40 / intra_refresh=0 / rc_lookahead=50 / rc=2pass / mbtree=1 / bitrate=13952 / ratetol=1.0 / qcomp=0.60 / qpmin=0 / qpmax=69 / qpstep=4 / cplxblur=20.0 / qblur=0.5 / ip_ratio=1.40 / aq=1:1.00
  25. Language                                 : English
  26. Default                                  : Yes
  27. Forced                                   : No

  28. Audio
  29. ID                                       : 2
  30. Format                                   : FLAC
  31. Format/Info                              : Free Lossless Audio Codec
  32. Codec ID                                 : A_FLAC
  33. Duration                                 : 1 h 25 min
  34. Bit rate mode                            : Variable
  35. Bit rate                                 : 714 kb/s
  36. Channel(s)                               : 1 channel
  37. Channel layout                           : C
  38. Sampling rate                            : 48.0 kHz
  39. Frame rate                               : 11.719 FPS (4096 SPF)
  40. Bit depth                                : 24 bits
  41. Compression mode                         : Lossless
  42. Stream size                              : 436 MiB (5%)
  43. Writing library                          : libFLAC 1.2.1 (UTC 2007-09-17)
  44. Language                                 : Latin
  45. Default                                  : Yes
  46. Forced                                   : No

  47. Text
  48. ID                                       : 3
  49. Format                                   : UTF-8
  50. Codec ID                                 : S_TEXT/UTF8
  51. Codec ID/Info                            : UTF-8 Plain Text
  52. Duration                                 : 1 h 10 min
  53. Bit rate                                 : 18 b/s
  54. Count of elements                        : 366
  55. Stream size                              : 9.52 KiB (0%)
  56. Title                                    : English
  57. Language                                 : English
  58. Default                                  : Yes
  59. Forced                                   : Yes

  60. Menu
  61. 00:00:00.000                             : en:00:00:00.000
  62. 00:07:11.542                             : en:00:07:11.542
  63. 00:15:05.792                             : en:00:15:05.792
  64. 00:24:00.667                             : en:00:24:00.667
  65. 00:32:22.750                             : en:00:32:22.750
  66. 00:40:37.125                             : en:00:40:37.125
  67. 00:51:16.292                             : en:00:51:16.292
  68. 00:59:40.583                             : en:00:59:40.583
  69. 01:12:24.500                             : en:01:12:24.500
  70. 01:16:34.083                             : en:01:16:34.083
复制代码

塞巴斯蒂安 Sebastiane.1976.REMASTERED.1080p.BluRay.x264-USURY 8.75GB-2.png






VIP会员免费任意下载本站所有资源!---点击开通
回复

使用道具 举报

懒得打字嘛,点击右侧快捷回复 【右侧内容,后台自定义】
您需要登录后才可以回帖 登录 | 立即注册

本版积分规则

QQ|Archiver|手机版|小黑屋| 中国高清网 |网站地图

GMT+8, 2019-9-20 05:35 , Processed in 0.392640 second(s), 39 queries .

Powered by HDchina X3.4

Copyright 2017-2019©HDchina.All right reserved

返回顶部 联系我们