查看: 71|回复: 0

[剧情片] 日光之下 En.Plats.i.Solen.2012.SWEDISH.1080p.BluRay.x264-HANDJOB 7.94GB

[复制链接]

 成长值: 2570

级别:资源管理组

注册时间
2017-10-20
最后登录
2019-9-21
听众
1
收听
0
主题
83026
蓝光币
49781 枚
贡献
7354 点
发表于 2019-8-17 15:26:08 | 显示全部楼层 |阅读模式
日光之下 En.Plats.i.Solen.2012.SWEDISH.1080p.BluRay.x264-HANDJOB 7.94GB-1.png

译  名 日光之下 / A Place in the Sun / Annika Bengtzon-Crime Reporter: Place in The Sun / 安妮卡班森:日光之下 / 安尼卡.班森.日光之下
片  名 En plats i solen
年  代 2012
产  地 Sweden
类  别 剧情 / 犯罪
语  言 瑞典语
上映日期 2012-06-15
IMDb评分  6.3/10 from 994 users
IMDb链接  http://www.imdb.com/title/tt2230434
豆瓣评分 0/10 from 0 users
豆瓣链接 https://movie.douban.com/subject/11504257/
导  演 Peter Flinth
编  剧 亚历克斯·哈里迪 Alex Haridi
主  演 Malin Crépin


标  签 瑞典 | 瑞典电影 | 犯罪 | 剧情 | 电影 | 北欧 | doxtv | 欧洲

简  介  

  麗莎馬克倫德(Liza Marklund) 暢銷系列小說筆下的女配角-犯罪記者安妮卡班森來到有錢名流的度假勝地, 報導因為竊盜敗露而遭殺害的家庭。但是她發現整個案子触及過往不為人的隱情並與一位毒販牽連上關係。
  1. Video
  2. ID                                       : 1
  3. Format                                   : AVC
  4. Format/Info                              : Advanced Video Codec
  5. Format profile                           : <a href="/cdn-cgi/l/email-protection" class="__cf_email__" data-cfemail="91d9f8f6f9d1dda5bfa0">[email protected]</a>
  6. Format settings                          : CABAC / 4 Ref Frames
  7. Format settings, CABAC                   : Yes
  8. Format settings, Reference frames        : 4 frames
  9. Codec ID                                 : V_MPEG4/ISO/AVC
  10. Duration                                 : 1 h 29 min
  11. Bit rate                                 : 12.0 Mb/s
  12. Width                                    : 1 920 pixels
  13. Height                                   : 1 080 pixels
  14. Display aspect ratio                     : 16:9
  15. Frame rate mode                          : Constant
  16. Frame rate                               : 25.000 FPS
  17. Color space                              : YUV
  18. Chroma subsampling                       : 4:2:0
  19. Bit depth                                : 8 bits
  20. Scan type                                : Progressive
  21. Bits/(Pixel*Frame)                       : 0.232
  22. Stream size                              : 7.50 GiB (94%)
  23. Writing library                          : x264 core 157 r2935 545de2f
  24. Encoding settings                        : cabac=1 / ref=4 / deblock=1:-3:-3 / analyse=0x3:0x133 / me=umh / subme=10 / psy=1 / psy_rd=1.00:0.00 / mixed_ref=1 / me_range=32 / chroma_me=1 / trellis=2 / 8x8dct=1 / cqm=0 / deadzone=21,11 / fast_pskip=0 / chroma_qp_offset=-2 / threads=12 / lookahead_threads=3 / sliced_threads=0 / nr=0 / decimate=0 / interlaced=0 / bluray_compat=0 / constrained_intra=0 / bframes=16 / b_pyramid=2 / b_adapt=2 / b_bias=0 / direct=3 / weightb=1 / open_gop=0 / weightp=2 / keyint=250 / keyint_min=25 / scenecut=40 / intra_refresh=0 / rc_lookahead=60 / rc=crf / mbtree=0 / crf=16.5 / qcomp=0.60 / qpmin=0 / qpmax=69 / qpstep=4 / vbv_maxrate=62500 / vbv_bufsize=78125 / crf_max=0.0 / nal_hrd=none / filler=0 / ip_ratio=1.40 / pb_ratio=1.30 / aq=2:1.00
  25. Default                                  : Yes
  26. Forced                                   : No
  27. Color range                              : Limited
  28. Color primaries                          : BT.709
  29. Transfer characteristics                 : BT.709
  30. Matrix coefficients                      : BT.709

  31. Audio
  32. ID                                       : 2
  33. Format                                   : AC-3
  34. Format/Info                              : Audio Coding 3
  35. Commercial name                          : Dolby Digital
  36. Codec ID                                 : A_AC3
  37. Duration                                 : 1 h 29 min
  38. Bit rate mode                            : Constant
  39. Bit rate                                 : 640 kb/s
  40. Channel(s)                               : 6 channels
  41. Channel layout                           : L R C LFE Ls Rs
  42. Sampling rate                            : 48.0 kHz
  43. Frame rate                               : 31.250 FPS (1536 SPF)
  44. Bit depth                                : 16 bits
  45. Compression mode                         : Lossy
  46. Stream size                              : 409 MiB (5%)
  47. Language                                 : Swedish
  48. Service kind                             : Complete Main
  49. Default                                  : Yes
  50. Forced                                   : No

  51. Text #1
  52. ID                                       : 3
  53. Format                                   : UTF-8
  54. Codec ID                                 : S_TEXT/UTF8
  55. Codec ID/Info                            : UTF-8 Plain Text
  56. Duration                                 : 1 h 25 min
  57. Bit rate                                 : 45 b/s
  58. Count of elements                        : 1024
  59. Stream size                              : 28.5 KiB (0%)
  60. Language                                 : English
  61. Default                                  : Yes
  62. Forced                                   : No

  63. Text #2
  64. ID                                       : 4
  65. Format                                   : PGS
  66. Muxing mode                              : zlib
  67. Codec ID                                 : S_HDMV/PGS
  68. Codec ID/Info                            : Picture based subtitle format used on BDs/HD-DVDs
  69. Duration                                 : 1 h 27 min
  70. Bit rate                                 : 34.0 kb/s
  71. Count of elements                        : 1672
  72. Stream size                              : 21.4 MiB (0%)
  73. Language                                 : Swedish
  74. Default                                  : No
  75. Forced                                   : No

  76. Text #3
  77. ID                                       : 5
  78. Format                                   : PGS
  79. Muxing mode                              : zlib
  80. Codec ID                                 : S_HDMV/PGS
  81. Codec ID/Info                            : Picture based subtitle format used on BDs/HD-DVDs
  82. Duration                                 : 1 h 22 min
  83. Bit rate                                 : 4 907 b/s
  84. Count of elements                        : 302
  85. Stream size                              : 2.89 MiB (0%)
  86. Language                                 : Swedish
  87. Default                                  : No
  88. Forced                                   : No

  89. Text #4
  90. ID                                       : 6
  91. Format                                   : PGS
  92. Muxing mode                              : zlib
  93. Codec ID                                 : S_HDMV/PGS
  94. Codec ID/Info                            : Picture based subtitle format used on BDs/HD-DVDs
  95. Duration                                 : 1 h 28 min
  96. Bit rate                                 : 33.4 kb/s
  97. Count of elements                        : 1670
  98. Stream size                              : 21.2 MiB (0%)
  99. Language                                 : Norwegian
  100. Default                                  : No
  101. Forced                                   : No

  102. Text #5
  103. ID                                       : 7
  104. Format                                   : PGS
  105. Muxing mode                              : zlib
  106. Codec ID                                 : S_HDMV/PGS
  107. Codec ID/Info                            : Picture based subtitle format used on BDs/HD-DVDs
  108. Duration                                 : 1 h 28 min
  109. Bit rate                                 : 34.1 kb/s
  110. Count of elements                        : 1670
  111. Stream size                              : 21.7 MiB (0%)
  112. Language                                 : Finnish
  113. Default                                  : No
  114. Forced                                   : No

  115. Menu
  116. 00:00:00.000                             : en:Chapter 1
  117. 00:10:00.760                             : en:Chapter 2
  118. 00:20:00.080                             : en:Chapter 3
  119. 00:29:42.680                             : en:Chapter 4
  120. 00:40:00.160                             : en:Chapter 5
  121. 00:50:00.040                             : en:Chapter 6
  122. 01:00:00.000                             : en:Chapter 7
  123. 01:10:00.040                             : en:Chapter 8
  124. 01:20:00.040                             : en:Chapter 9
  125. 01:27:15.000                             : en:Chapter 10
复制代码

日光之下 En.Plats.i.Solen.2012.SWEDISH.1080p.BluRay.x264-HANDJOB 7.94GB-2.png 日光之下 En.Plats.i.Solen.2012.SWEDISH.1080p.BluRay.x264-HANDJOB 7.94GB-3.png 日光之下 En.Plats.i.Solen.2012.SWEDISH.1080p.BluRay.x264-HANDJOB 7.94GB-4.png






VIP会员免费任意下载本站所有资源!---点击开通
回复

使用道具 举报

懒得打字嘛,点击右侧快捷回复 【右侧内容,后台自定义】
您需要登录后才可以回帖 登录 | 立即注册

本版积分规则

QQ|Archiver|手机版|小黑屋| 中国高清网 |网站地图

GMT+8, 2019-9-21 21:58 , Processed in 0.619556 second(s), 39 queries .

Powered by HDchina X3.4

Copyright 2017-2019©HDchina.All right reserved

返回顶部 联系我们