查看: 48|回复: 1

[剧情片] 里斯本 Lisbon.1956.1080p.BluRay.x264-JRP 5.46GB

[复制链接]

 成长值: 2560

级别:资源管理组

注册时间
2017-10-20
最后登录
2019-9-19
听众
1
收听
0
主题
82921
蓝光币
49296 枚
贡献
7249 点
发表于 2019-8-17 15:24:09 | 显示全部楼层 |阅读模式
里斯本 Lisbon.1956.1080p.BluRay.x264-JRP 5.46GB-1.png

译  名 里斯本
片  名 Lisbon
年  代 1956
产  地 美国
类  别 剧情 / 恋爱 / 犯罪 / 冒险
语  言 英语
上映日期 1956-08-17
IMDb评分  6.0/10 from 302 users
IMDb链接  http://www.imdb.com/title/tt0049446
豆瓣评分 0/10 from 0 users
豆瓣链接 https://movie.douban.com/subject/25816171/
片  长 90分钟
导  演 雷·米兰德 Ray Milland
编  剧 John Tucker Battle / Martin Rackin
主  演 雷·米兰德 Ray Milland
       玛琳·奥哈拉 Maureen O'Hara
       克劳德·雷恩斯 Claude Rains
       伊冯·弗奴克丝 Yvonne Furneaux
       Francis Lederer


标  签 RayMilland | 美国 | Maureen_O'Hara | 被轻忽的电影 | 资本同享 | 不看 | 2019 | 1956

简  介  

  High stakes battle of wits and morals between gentlemen crooks, set in beautiful Portugal
  1. Video
  2. ID                                       : 1
  3. Format                                   : AVC
  4. Format/Info                              : Advanced Video Codec
  5. Format profile                           : <a href="/cdn-cgi/l/email-protection" class="__cf_email__" data-cfemail="1f577678775f532b312e">[email protected]</a>
  6. Format settings                          : CABAC / 5 Ref Frames
  7. Format settings, CABAC                   : Yes
  8. Format settings, Reference frames        : 5 frames
  9. Codec ID                                 : V_MPEG4/ISO/AVC
  10. Duration                                 : 1 h 30 min
  11. Bit rate                                 : 8 407 kb/s
  12. Width                                    : 1 920 pixels
  13. Height                                   : 824 pixels
  14. Display aspect ratio                     : 2.35:1
  15. Frame rate mode                          : Constant
  16. Frame rate                               : 23.976 (24000/1001) FPS
  17. Color space                              : YUV
  18. Chroma subsampling                       : 4:2:0
  19. Bit depth                                : 8 bits
  20. Scan type                                : Progressive
  21. Bits/(Pixel*Frame)                       : 0.222
  22. Stream size                              : 5.32 GiB (97%)
  23. Writing library                          : x264 core 158 r2984 3759fcb
  24. Encoding settings                        : cabac=1 / ref=5 / deblock=1:-3:-3 / analyse=0x3:0x113 / me=umh / subme=7 / psy=1 / psy_rd=1.00:0.00 / mixed_ref=1 / me_range=16 / chroma_me=1 / trellis=1 / 8x8dct=1 / cqm=0 / deadzone=21,11 / fast_pskip=0 / chroma_qp_offset=-2 / threads=9 / lookahead_threads=1 / sliced_threads=0 / nr=0 / decimate=1 / interlaced=0 / bluray_compat=0 / constrained_intra=0 / bframes=3 / b_pyramid=2 / b_adapt=1 / b_bias=0 / direct=3 / weightb=1 / open_gop=0 / weightp=2 / keyint=240 / keyint_min=23 / scenecut=40 / intra_refresh=0 / rc_lookahead=50 / rc=2pass / mbtree=0 / bitrate=8407 / ratetol=1.0 / qcomp=0.60 / qpmin=0 / qpmax=69 / qpstep=4 / cplxblur=20.0 / qblur=0.5 / vbv_maxrate=62500 / vbv_bufsize=78125 / nal_hrd=none / filler=0 / ip_ratio=1.40 / pb_ratio=1.30 / aq=1:0.70
  25. Default                                  : Yes
  26. Forced                                   : No

  27. Audio
  28. ID                                       : 2
  29. Format                                   : FLAC
  30. Format/Info                              : Free Lossless Audio Codec
  31. Codec ID                                 : A_FLAC
  32. Duration                                 : 1 h 30 min
  33. Bit rate mode                            : Variable
  34. Bit rate                                 : 223 kb/s
  35. Channel(s)                               : 1 channel
  36. Channel layout                           : C
  37. Sampling rate                            : 48.0 kHz
  38. Frame rate                               : 11.719 FPS (4096 SPF)
  39. Bit depth                                : 16 bits
  40. Compression mode                         : Lossless
  41. Stream size                              : 145 MiB (3%)
  42. Writing library                          : libFLAC 1.2.1 (UTC 2007-09-17)
  43. Language                                 : English
  44. Default                                  : Yes
  45. Forced                                   : No

  46. Text
  47. ID                                       : 3
  48. Format                                   : UTF-8
  49. Codec ID                                 : S_TEXT/UTF8
  50. Codec ID/Info                            : UTF-8 Plain Text
  51. Duration                                 : 1 h 26 min
  52. Bit rate                                 : 66 b/s
  53. Count of elements                        : 1168
  54. Stream size                              : 41.9 KiB (0%)
  55. Language                                 : English
  56. Default                                  : No
  57. Forced                                   : No
复制代码

里斯本 Lisbon.1956.1080p.BluRay.x264-JRP 5.46GB-2.png






VIP会员免费任意下载本站所有资源!---点击开通
回复

使用道具 举报

级别:群众演员 Lv.3

注册时间
2019-7-28
最后登录
2019-9-19
听众
4
收听
0
主题
0
蓝光币
68 枚
贡献
0 点
发表于 2019-8-18 07:56:29 | 显示全部楼层

这东西我收了!谢谢楼主!中国高清电影网真好!
VIP会员免费任意下载本站所有资源!---点击开通
回复

使用道具 举报

懒得打字嘛,点击右侧快捷回复 【右侧内容,后台自定义】
您需要登录后才可以回帖 登录 | 立即注册

本版积分规则

QQ|Archiver|手机版|小黑屋| 中国高清网 |网站地图

GMT+8, 2019-9-20 04:48 , Processed in 0.718842 second(s), 39 queries .

Powered by HDchina X3.4

Copyright 2017-2019©HDchina.All right reserved

返回顶部 联系我们