查看: 64|回复: 2

[武侠古装片] 杨门女将之军令如山 Legendary.Amazons.2011.LIMITED.1080p.BluRay.x264-MOOVEE 8.74GB

[复制链接]

 成长值: 2200

级别:资源管理组

注册时间
2017-10-20
最后登录
2019-8-17
听众
1
收听
0
主题
80689
蓝光币
41951 枚
贡献
5016 点
发表于 4 天前 | 显示全部楼层 |阅读模式
杨门女将之军令如山 Legendary.Amazons.2011.LIMITED.1080p.BluRay.x264-MOOVEE 8.74GB-1.jpg

译  名 Legendary Amazons
片  名 杨门女将之军令如山
年  代 2011
产  地 中国大陆 / 香港
类  别 行动 / 战争 / 武侠 / 古装
语  言 汉语普通话 / 粤语
上映日期 2011-11-18(中国大陆)
IMDb评分  4.5/10 from 634 users
IMDb链接  http://www.imdb.com/title/tt2106514
豆瓣评分 3.5/10 from 20852 users
豆瓣链接 https://movie.douban.com/subject/4824982/
片  长 108分钟
导  演 陈勋奇 Frankie Chan
编  剧 陈勋奇 Frankie Chan / 柳蘅 Heng Liu / 马红路 Hong-lu Ma
主  演 张柏芝 Cecilia Cheung
       任贤齐 Richie Jen
       刘晓庆 Xiaoqing Liu
       郑佩佩 Pei-pei Cheng
       周海媚 Kathy Chow
       陈紫函 Zihan Chen
       金巧巧 Qiaoqiao Jin
       于娜 Na Yu
       大岛由加利 Yukari ?shima
       刘冬 Dong Liu
       赵芊羽 Qianyu Zhao
       杨紫彤 Zi-tong Yang
       肖明玉 Mingyu Xiao
       戈春艳 Chunyan Ge
       周小飞 Xiaofei Zhou
       王媞 Katy Wang
       李静 Jing Li
       张绮烟 Qiyan Zhang
       午马 Wu Ma
       史梵希 Fanxi Shi
       任学海 Xuehai Ren
       林威 Wai Lam


标  签 张柏芝 | 行动 | 任贤齐 | 中国电影 | 2011 | 香港 | 香港电影 | 中国

简  介  

  时为北宋仁宗年间,君不君,臣不臣,大宋山河内忧外患。危难之际,杨继业率领的杨家将与异族抗战,却相继命丧沙场。及至天门关沦陷,杨家猛将杨宗保(任贤齐 饰)战死,北宋山河朝不保夕。在这关键时辰,天子擢升杨家老太君佘赛花(郑佩佩 饰)为监军、宗保之子杨文广(肖明玉 饰)挂帅管辖一万人马匹敌西夏国十万雄师。 此时杨门男儿多以战死,为报国恩,身怀绝世武功的杨门女将在佘太君、穆桂英(张柏芝 饰)等人的率领下朝向关外行进。
  本该是如花美眷刺绣描兰的的女儿家,为了国家大义捐弃身血在所不惜,由此谱写了六方百年的杨门女将的不朽传奇……

获奖情况  

  第3届金扫帚奖(2012)
  最使人失望影片
  最使人失望导演 陈勋奇
  最使人失望女演员 张柏芝

  第2届豆瓣电影鑫像奖(2012)
  豆渣单元 最渣影片(华语)
  豆渣单元 最渣导演(华语) 陈勋奇
  豆渣单元 最渣男演员(华语) 任贤齐
  豆渣单元 最渣女演员(华语) 张柏芝
  1. Video
  2. ID                                       : 1
  3. Format                                   : AVC
  4. Format/Info                              : Advanced Video Codec
  5. Format profile                           : <a href="/cdn-cgi/l/email-protection" class="__cf_email__" data-cfemail="347c5d535c7478001a05">[email protected]</a>
  6. Format settings                          : CABAC / 5 Ref Frames
  7. Format settings, CABAC                   : Yes
  8. Format settings, Reference frames        : 5 frames
  9. Muxing mode                              : Header stripping
  10. Codec ID                                 : V_MPEG4/ISO/AVC
  11. Duration                                 : 1 h 47 min
  12. Bit rate                                 : 8 576 kb/s
  13. Width                                    : 1 920 pixels
  14. Height                                   : 816 pixels
  15. Display aspect ratio                     : 2.35:1
  16. Frame rate mode                          : Constant
  17. Frame rate                               : 24.000 FPS
  18. Color space                              : YUV
  19. Chroma subsampling                       : 4:2:0
  20. Bit depth                                : 8 bits
  21. Scan type                                : Progressive
  22. Bits/(Pixel*Frame)                       : 0.228
  23. Stream size                              : 6.29 GiB (72%)
  24. Writing library                          : x264 core 124 r2197 69a0443
  25. Encoding settings                        : cabac=1 / ref=5 / deblock=1:0:0 / analyse=0x3:0x133 / me=umh / subme=8 / psy=1 / psy_rd=1.00:0.00 / mixed_ref=1 / me_range=16 / chroma_me=1 / trellis=1 / 8x8dct=1 / cqm=0 / deadzone=21,11 / fast_pskip=0 / chroma_qp_offset=-2 / threads=18 / sliced_threads=0 / nr=0 / decimate=1 / interlaced=0 / bluray_compat=0 / constrained_intra=0 / bframes=3 / b_pyramid=2 / b_adapt=1 / b_bias=0 / direct=1 / weightb=1 / open_gop=0 / weightp=2 / keyint=250 / keyint_min=24 / scenecut=40 / intra_refresh=0 / rc_lookahead=40 / rc=2pass / mbtree=1 / bitrate=8576 / ratetol=1.0 / qcomp=0.60 / qpmin=0 / qpmax=69 / qpstep=4 / cplxblur=20.0 / qblur=0.5 / ip_ratio=1.40 / aq=1:1.00
  26. Language                                 : English
  27. Default                                  : Yes
  28. Forced                                   : No

  29. Audio #1
  30. ID                                       : 2
  31. Format                                   : DTS
  32. Format/Info                              : Digital Theater Systems
  33. Muxing mode                              : Header stripping
  34. Codec ID                                 : A_DTS
  35. Duration                                 : 1 h 47 min
  36. Bit rate mode                            : Constant
  37. Bit rate                                 : 1 509 kb/s
  38. Channel(s)                               : 6 channels
  39. Channel layout                           : C L R Ls Rs LFE
  40. Sampling rate                            : 48.0 kHz
  41. Frame rate                               : 93.750 FPS (512 SPF)
  42. Bit depth                                : 24 bits
  43. Compression mode                         : Lossy
  44. Stream size                              : 1.14 GiB (13%)
  45. Title                                    : Chinese
  46. Language                                 : Chinese
  47. Default                                  : Yes
  48. Forced                                   : Yes

  49. Audio #2
  50. ID                                       : 3
  51. Format                                   : DTS
  52. Format/Info                              : Digital Theater Systems
  53. Muxing mode                              : Header stripping
  54. Codec ID                                 : A_DTS
  55. Duration                                 : 1 h 47 min
  56. Bit rate mode                            : Constant
  57. Bit rate                                 : 1 509 kb/s
  58. Channel(s)                               : 6 channels
  59. Channel layout                           : C L R Ls Rs LFE
  60. Sampling rate                            : 48.0 kHz
  61. Frame rate                               : 93.750 FPS (512 SPF)
  62. Bit depth                                : 24 bits
  63. Compression mode                         : Lossy
  64. Stream size                              : 1.14 GiB (13%)
  65. Title                                    : English
  66. Language                                 : English
  67. Default                                  : No
  68. Forced                                   : No

  69. Text
  70. ID                                       : 4
  71. Format                                   : UTF-8
  72. Codec ID                                 : S_TEXT/UTF8
  73. Codec ID/Info                            : UTF-8 Plain Text
  74. Title                                    : English
  75. Language                                 : English
  76. Default                                  : Yes
  77. Forced                                   : Yes
复制代码

杨门女将之军令如山 Legendary.Amazons.2011.LIMITED.1080p.BluRay.x264-MOOVEE 8.74GB-2.png 杨门女将之军令如山 Legendary.Amazons.2011.LIMITED.1080p.BluRay.x264-MOOVEE 8.74GB-3.png 杨门女将之军令如山 Legendary.Amazons.2011.LIMITED.1080p.BluRay.x264-MOOVEE 8.74GB-4.png






回复

使用道具 举报

级别:专业龙套 Lv.4

注册时间
2019-1-18
最后登录
2019-8-17
听众
11
收听
0
主题
0
蓝光币
377 枚
贡献
0 点
发表于 4 天前 | 显示全部楼层
楼主辛苦了,谢谢分享
回复

使用道具 举报

级别:荣升主角 Lv.5

注册时间
2019-1-26
最后登录
2019-8-17
听众
13
收听
0
主题
0
蓝光币
820 枚
贡献
0 点
发表于 3 天前 | 显示全部楼层

既然你诚信诚意的推荐了,那我就勉为其难的看看吧!中国高清电影网不走平凡路。
回复

使用道具 举报

懒得打字嘛,点击右侧快捷回复 【右侧内容,后台自定义】
您需要登录后才可以回帖 登录 | 立即注册

本版积分规则

QQ|Archiver|手机版|小黑屋| 中国高清网 |网站地图

GMT+8, 2019-8-17 20:52 , Processed in 0.433052 second(s), 39 queries .

Powered by HDchina X3.4

Copyright 2017-2019©HDchina.All right reserved

返回顶部 联系我们