查看: 168|回复: 5

[喜剧片] 偷心女盗 The.Hustle.2019.720p.BluRay.x264-DRONES 4.39GB

[复制链接]

 成长值: 3420

级别:资源管理组

注册时间
2017-10-20
最后登录
2019-12-11
听众
1
收听
0
主题
88410
蓝光币
70043 枚
贡献
12772 点
发表于 2019-8-13 17:25:17 | 显示全部楼层 |阅读模式
偷心女盗 The.Hustle.2019.720p.BluRay.x264-DRONES 4.39GB-1.jpg
! D1 q- T/ S! N8 [, W9 M7 _7 K" b1 ?. A5 x
译  名 偷心女盗 / Dirty Rotten Scoundrels / Nasty Women / 圆美大盗(港) / 坏坏女郎 / 欺骗女神(台)4 J' J" a+ X7 }
片  名 The Hustle
7 h9 p6 Z8 o+ n' P) E年  代 2019
2 T# E, D4 _7 N9 c9 l# r3 F产  地 美国. A$ Q2 }4 f& m( L3 {
类  别 笑剧
$ \( I7 v2 T, h0 `语  言 英语4 `* N/ W& ?( B8 P
上映日期 2019-05-10(美国)$ r- E2 K$ o. }- `+ `
IMDb评分  5.4/10 from 9025 users, @" B  r) n# @* M, C# ~5 L' T9 T
IMDb链接  http://www.imdb.com/title/tt1298644" P5 k- }! P: o
豆瓣评分 6.0/10 from 1006 users7 U& L; B: G9 ~  O. y
豆瓣链接 https://movie.douban.com/subject/3230155/
- B" p0 _6 S9 M2 F/ j' c8 L片  长 93分钟
; ]+ _. m7 e7 {! R9 u导  演 克里斯·艾迪生 Chris Addison
+ q4 {- J  ?- i编  剧 斯坦利·沙皮罗 Stanley Shapiro / 保罗·海宁 Paul Henning / 戴尔·劳纳尔 Dale Launer / 雅克·舍费尔 Jac Schaeffer1 ]  o5 j% `$ r# n/ W4 v% ~; p
主  演 安妮·海瑟薇 Anne Hathaway
8 q9 z6 e- k& v" C$ N  C: Y       蕾蓓尔·威尔森 Rebel Wilson
2 s1 g/ s* m4 s, g5 Q+ h: F       蒂姆·布雷克·尼尔森 Tim Blake Nelson
8 t: p7 h, }8 V: K" U. P2 H       艾利克斯·夏普 Alex Sharp
! T% s& I9 w: d       罗非洛·迪格托勒 Raffaello Degruttola+ F4 |( x' |& x. ?
       迪诺·布加迪 Deano Bugatti6 w9 J8 Y1 Q5 I1 q2 X  O! c& i
       布鲁诺·塞维利亚 Bruno Sevilla
- m/ N) M) U8 ^- E, v# |       克里斯多夫·德·舒瓦西 Christophe de Choisy) R, p; A5 H8 k) W. f, E
       菲利普·德斯穆尔斯 Philip Desmeules) p- U, J& e& j4 F, |; @* u
       库姆德·潘特 Kumud Pant
1 C2 |9 R6 K8 A( E9 z       塞缪尔·加斯帕德 Samuel Gaspard2 I( q+ u( Q  h: S" S8 @; t. v

" \- R6 [; u2 N2 L) D3 P- b* b
( T3 X6 w$ @9 e3 q* [0 o( w) h5 \标  签 笑剧 | 美国 | 2019 | 犯罪 | 搞笑 | 女性 | 翻拍 | 把妹# m$ _9 B5 {7 P1 D4 \

2 k+ E" `( F0 l& h" l简  介  + Z8 A8 T" J& A

$ y/ o6 Q7 N# e9 @5 h  安妮·海瑟薇将加盟蕾蓓尔·威尔森新片《坏坏女郎》(Nasty Women,暂译)。影片翻拍自1988年弗兰克·奥兹执导,史蒂夫·马丁、迈克尔·凯恩主演的《骗徒臭事多》。片中安妮·海瑟薇、蕾蓓尔·威尔森化身女版骗徒,固然此次她们的方针将是鲜嫩多汁的“单身男人”。- j8 `% L5 T( u/ A) C* Q2 J
  1. Video* k& J; P) u1 A% [0 w
  2. ID                                       : 1
    ' ?+ x) u0 T2 M- C6 l; c
  3. Format                                   : AVC
    & |  ^/ d( g$ M# d3 z3 ?; j9 b+ q
  4. Format/Info                              : Advanced Video Codec
    ( j( M& ^& l! P  I* P
  5. Format profile                           : <a href="/cdn-cgi/l/email-protection" class="__cf_email__" data-cfemail="5a12333d321a166e746b">[email protected]</a>- t: M- u- i) J9 `
  6. Format settings                          : CABAC / 5 Ref Frames
    0 X/ F$ k+ c% o2 n" f7 k+ l- D
  7. Format settings, CABAC                   : Yes
    ) h0 \2 Q4 V+ M+ u, k. c: M
  8. Format settings, Reference frames        : 5 frames
    * l! a; v  L' g: z" ]
  9. Codec ID                                 : V_MPEG4/ISO/AVC
    1 @; W+ \4 l! u9 O( U6 y
  10. Duration                                 : 1 h 33 min$ J! w7 W: ^+ x$ ~4 B( R! ^( q
  11. Bit rate                                 : 5 149 kb/s
    ; U( V. e8 R1 W, w" |9 |! T1 q
  12. Width                                    : 1 280 pixels
    ) Q/ G" ?7 _- ^7 @) o4 m
  13. Height                                   : 536 pixels
    3 ^  _& I6 U. [
  14. Display aspect ratio                     : 2.40:1
    : @  F- N! d. B4 M" l/ T' R! j% g4 o! u
  15. Frame rate mode                          : Constant; K/ i/ U& G1 j
  16. Frame rate                               : 23.976 (24000/1001) FPS2 K3 s( O6 U; M1 v
  17. Color space                              : YUV& r* m( S; j; d3 G5 y. O3 F- H3 A" w
  18. Chroma subsampling                       : 4:2:0+ ^# @' N4 `% R) C7 L4 U
  19. Bit depth                                : 8 bits7 r3 B9 R4 x" `8 ~2 c
  20. Scan type                                : Progressive) f; S8 t3 N6 b0 d8 I
  21. Bits/(Pixel*Frame)                       : 0.313
    # f0 a! u$ Z2 Q
  22. Stream size                              : 3.38 GiB (77%)* M/ u4 d/ i0 H
  23. Writing library                          : x264 core 158 r2984 3759fcb
    * `6 |" g/ q* J
  24. Encoding settings                        : cabac=1 / ref=5 / deblock=1:-3:-3 / analyse=0x3:0x133 / me=umh / subme=8 / psy=1 / psy_rd=1.00:0.00 / mixed_ref=1 / me_range=16 / chroma_me=1 / trellis=1 / 8x8dct=1 / cqm=0 / deadzone=21,11 / fast_pskip=0 / chroma_qp_offset=-2 / threads=17 / lookahead_threads=2 / sliced_threads=0 / nr=0 / decimate=1 / interlaced=0 / bluray_compat=0 / constrained_intra=0 / bframes=3 / b_pyramid=2 / b_adapt=1 / b_bias=0 / direct=3 / weightb=1 / open_gop=0 / weightp=2 / keyint=250 / keyint_min=23 / scenecut=40 / intra_refresh=0 / rc_lookahead=50 / rc=2pass / mbtree=1 / bitrate=5149 / ratetol=1.0 / qcomp=0.60 / qpmin=0 / qpmax=69 / qpstep=4 / cplxblur=20.0 / qblur=0.5 / vbv_maxrate=62500 / vbv_bufsize=78125 / nal_hrd=none / filler=0 / ip_ratio=1.40 / aq=1:1.00
    5 w- d: L! {6 v9 O# x. ~
  25. Default                                  : Yes
    & A; ]) {" P2 o0 {: r; E
  26. Forced                                   : No6 P$ M% m, R& ]

  27. % \/ m) d& w1 {3 J
  28. Audio7 C0 E' V+ a' `$ }) G4 f6 ~' l% E5 x4 I
  29. ID                                       : 2
    ! e) f% b# I8 I& e, f
  30. Format                                   : DTS/ A; r; O7 j1 q1 c! I
  31. Format/Info                              : Digital Theater Systems
      y) M0 L0 e% G% Z
  32. Codec ID                                 : A_DTS. V$ m% o7 w# x4 s% U
  33. Duration                                 : 1 h 33 min
    $ u! R8 _" ^+ G" C
  34. Bit rate mode                            : Constant5 p6 ^* n* F- m7 ^
  35. Bit rate                                 : 1 509 kb/s+ f! M1 E6 R9 i6 a# {8 o
  36. Channel(s)                               : 6 channels
    3 ]1 p/ ^" k) Q2 h9 }. f
  37. Channel layout                           : C L R Ls Rs LFE7 Z3 j, E: G) Y9 {
  38. Sampling rate                            : 48.0 kHz
    6 h' Z4 T4 r& M
  39. Frame rate                               : 93.750 FPS (512 SPF)* {6 u" A% M  u$ U6 Y
  40. Bit depth                                : 24 bits- V6 K4 W' y9 N1 [  G" C! k# r5 J
  41. Compression mode                         : Lossy
    ; O4 A' O0 l0 d/ }) T* V5 t
  42. Stream size                              : 1 014 MiB (23%)
    9 |( M7 b" B+ O
  43. Language                                 : English
    4 e" K( ^9 G4 f# m: v! }2 x
  44. Default                                  : Yes1 T& M1 \7 P* X$ z, h4 p
  45. Forced                                   : No! h0 o0 w- l8 V4 P# F6 q6 t

  46. # Y( j9 a+ v* u& K1 y; ~
  47. Menu
    ; `: C" `& x# {0 Z
  48. 00:00:00.000                             : en:00:00:00.000: G2 h3 M' U8 r) `
  49. 00:05:58.858                             : en:00:05:58.858
    / U6 y9 C$ ^, t8 J2 B
  50. 00:09:56.137                             : en:00:09:56.137) k& g' F1 V# ]6 O9 K: x
  51. 00:15:29.554                             : en:00:15:29.554
    - a0 X" K4 `/ m# Q) W- q- H
  52. 00:21:12.646                             : en:00:21:12.6467 P3 @7 t5 v* X7 S9 Y& m" T) {
  53. 00:25:19.852                             : en:00:25:19.852
    & Q2 `- p8 B) \! j- y2 l0 |
  54. 00:32:26.903                             : en:00:32:26.903& [( ^2 H( J0 v
  55. 00:37:56.608                             : en:00:37:56.608
    " K- y6 I1 G, F  O
  56. 00:41:51.300                             : en:00:41:51.3002 A* z% ^" k8 a. s/ s# F
  57. 00:44:55.818                             : en:00:44:55.8180 R  F$ U8 `, p& E$ g, W9 M
  58. 00:49:56.327                             : en:00:49:56.327
    * M5 M( G9 [% Z/ D# R
  59. 00:54:34.897                             : en:00:54:34.897+ }8 R3 ]# n: b) S1 P
  60. 00:59:16.261                             : en:00:59:16.261( K9 S9 h7 M$ x$ J8 b  E: b. F7 P$ r
  61. 01:02:15.899                             : en:01:02:15.899
    ! S( X8 }0 e) N6 E' k# ^
  62. 01:06:47.587                             : en:01:06:47.587
    , l" Q/ h$ c: o, B
  63. 01:09:58.152                             : en:01:09:58.152% `4 Z) l4 l$ k" s% z$ P) e
  64. 01:15:16.178                             : en:01:15:16.178- q5 ?* n$ O; ^' R" x
  65. 01:21:37.059                             : en:01:21:37.059
    ) K. |$ H8 x4 R) H, {! b# ~
  66. 01:28:58.833                             : en:01:28:58.833$ e- s$ S* x, k' q. i% O1 H& O
  67. 01:32:27.041                             : en:01:32:27.041
复制代码
% O0 v. C% }; w; v7 y  m7 L  e$ A' A2 ~
偷心女盗 The.Hustle.2019.720p.BluRay.x264-DRONES 4.39GB-2.png
2 X) U/ p+ J: x8 A8 y8 N% {) C9 J$ w/ B5 |* O
  `2 {# r* Z( P. w  o, S* x" C) p' |, D0 t
  \' w% J; T# B: A' @
' Y$ r# i- k& f' g

9 ?' C9 ~* X; l" L+ [  I2 C1 u: c
VIP会员免费任意下载本站所有资源!---点击开通
回复

使用道具 举报

级别:荣升主角 Lv.5

注册时间
2019-2-3
最后登录
2019-12-10
听众
15
收听
0
主题
0
蓝光币
227 枚
贡献
0 点
发表于 2019-8-13 21:07:13 | 显示全部楼层
楼主发贴辛苦了,谢谢楼主分享!我觉得中国高清电影网是注册对了!
VIP会员免费任意下载本站所有资源!---点击开通
回复

使用道具 举报

级别:专业龙套 Lv.4

注册时间
2019-4-11
最后登录
2019-12-11
听众
13
收听
0
主题
0
蓝光币
184 枚
贡献
0 点
发表于 2019-8-14 09:14:53 | 显示全部楼层
" E' j/ k" F* w& I  e
楼主太厉害了!楼主,电影应该很好看我觉得中国高清电影网真是个好地方!
VIP会员免费任意下载本站所有资源!---点击开通
回复

使用道具 举报

级别:荣升主角 Lv.5

注册时间
2018-2-26
最后登录
2019-12-11
听众
16
收听
0
主题
0
蓝光币
266 枚
贡献
0 点
发表于 2019-8-14 09:48:22 | 显示全部楼层

! M: V2 V/ q. f  @. R既然你诚信诚意的推荐了,那我就勉为其难的看看吧!中国高清电影网不走平凡路。
VIP会员免费任意下载本站所有资源!---点击开通
回复

使用道具 举报

级别:普通观众 Lv.2

注册时间
2019-4-27
最后登录
2019-9-7
听众
8
收听
0
主题
0
蓝光币
21 枚
贡献
0 点
QQ
发表于 2019-8-21 21:40:09 | 显示全部楼层
注册好久了,可是忘记了我自己注册时的密码!
VIP会员免费任意下载本站所有资源!---点击开通
回复

使用道具 举报

级别:一线明星 Lv.8

注册时间
2019-4-24
最后登录
2019-12-11
听众
14
收听
0
主题
0
蓝光币
214 枚
贡献
0 点
发表于 2019-9-17 10:38:41 | 显示全部楼层
楼主发贴辛苦了,谢谢楼主分享!我觉得中国高清电影网是注册对了!
VIP会员免费任意下载本站所有资源!---点击开通
回复

使用道具 举报

懒得打字嘛,点击右侧快捷回复 【右侧内容,后台自定义】
您需要登录后才可以回帖 登录 | 立即注册

本版积分规则

QQ|Archiver|手机版|小黑屋| 中国高清网 |网站地图

GMT+8, 2019-12-11 13:51 , Processed in 0.189248 second(s), 38 queries .

Powered by HDchina X3.4

Copyright 2017-2019©HDchina.All right reserved

返回顶部 联系我们