查看: 53|回复: 3

[喜剧片] 偷心女盗 The.Hustle.2019.720p.BluRay.x264-DRONES 4.39GB

[复制链接]

 成长值: 2200

级别:资源管理组

注册时间
2017-10-20
最后登录
2019-8-17
听众
1
收听
0
主题
80689
蓝光币
41953 枚
贡献
5016 点
发表于 4 天前 | 显示全部楼层 |阅读模式
偷心女盗 The.Hustle.2019.720p.BluRay.x264-DRONES 4.39GB-1.jpg 2 k  z  t% n7 Z
$ b5 ?' z/ G  b4 T; I2 l
译  名 偷心女盗 / Dirty Rotten Scoundrels / Nasty Women / 圆美大盗(港) / 坏坏女郎 / 欺骗女神(台)
: s& T: ^- ~" t/ U  R5 g片  名 The Hustle( B, h3 X. U: F6 i3 A
年  代 2019
4 s4 y6 B' v# k% j; ^产  地 美国
6 w8 T' K- X% @$ _( P  {5 m类  别 笑剧
7 i% L: i6 O# j+ w" E语  言 英语
" K8 y6 |5 ^% n  k上映日期 2019-05-10(美国)
' n0 m; @" X" o7 R5 tIMDb评分  5.4/10 from 9025 users
# `3 L! `0 V6 h, E0 N8 N3 eIMDb链接  http://www.imdb.com/title/tt1298644) }$ E2 t. V' X- t) ], `
豆瓣评分 6.0/10 from 1006 users9 L, {3 X2 P! G1 ^# T! o8 `
豆瓣链接 https://movie.douban.com/subject/3230155/
# R- V9 d/ ^: C( z片  长 93分钟0 X" R, s3 u, j; }
导  演 克里斯·艾迪生 Chris Addison
7 B# G; B' B6 w8 p$ p# B4 l2 q编  剧 斯坦利·沙皮罗 Stanley Shapiro / 保罗·海宁 Paul Henning / 戴尔·劳纳尔 Dale Launer / 雅克·舍费尔 Jac Schaeffer
$ b" x4 T6 b# N! t主  演 安妮·海瑟薇 Anne Hathaway
- o/ J" _: i: N: H2 i       蕾蓓尔·威尔森 Rebel Wilson
0 X# H8 z1 A# ~* R- l5 d       蒂姆·布雷克·尼尔森 Tim Blake Nelson1 s: Z! v/ e1 h( q; @+ y
       艾利克斯·夏普 Alex Sharp
3 B# H; d( f7 @; M       罗非洛·迪格托勒 Raffaello Degruttola- `2 ]" L$ b' N, j/ y
       迪诺·布加迪 Deano Bugatti3 d4 d! A3 ^7 r; Z# Q1 @) J
       布鲁诺·塞维利亚 Bruno Sevilla
- a1 Z. p4 R- P9 I( M$ o+ O       克里斯多夫·德·舒瓦西 Christophe de Choisy
4 o- ^9 m" M2 M0 x/ d* X( E       菲利普·德斯穆尔斯 Philip Desmeules
; @/ X( J% R4 ^% s! o' p       库姆德·潘特 Kumud Pant
* z9 t' @! U& p. M9 @       塞缪尔·加斯帕德 Samuel Gaspard" R+ T6 p8 V- S1 G
' d. h1 E8 W" H3 \, Q7 h

/ |( ]$ r+ y& o' ]4 G标  签 笑剧 | 美国 | 2019 | 犯罪 | 搞笑 | 女性 | 翻拍 | 把妹3 L# Z/ d, [, C  X5 J, S

& R' l7 @- D9 x7 j5 e简  介  ; R! k! _! s/ _: N# S, N
* a, {" o$ z! R" T8 [! L/ Z
  安妮·海瑟薇将加盟蕾蓓尔·威尔森新片《坏坏女郎》(Nasty Women,暂译)。影片翻拍自1988年弗兰克·奥兹执导,史蒂夫·马丁、迈克尔·凯恩主演的《骗徒臭事多》。片中安妮·海瑟薇、蕾蓓尔·威尔森化身女版骗徒,固然此次她们的方针将是鲜嫩多汁的“单身男人”。
6 ~: U2 q: n: f2 N
  1. Video
    9 M! d- f% o6 ?0 q$ ]% W( h
  2. ID                                       : 1
    5 f' h. c$ x4 z: ]8 i9 \
  3. Format                                   : AVC
    # |1 g( A. a) S% M- s8 Q
  4. Format/Info                              : Advanced Video Codec
    ; _' g9 p# D. L! e0 v0 q$ y" D) y
  5. Format profile                           : <a href="/cdn-cgi/l/email-protection" class="__cf_email__" data-cfemail="5a12333d321a166e746b">[email protected]</a>8 z9 g( _& S) Y' G: h+ W; _9 f
  6. Format settings                          : CABAC / 5 Ref Frames
    ( |; i+ ^6 ]5 i8 J' G* o$ q
  7. Format settings, CABAC                   : Yes
    % Z& }7 h: L) w: X0 m7 e
  8. Format settings, Reference frames        : 5 frames% {4 {- \  R0 L$ w$ ^" R, _4 S7 E
  9. Codec ID                                 : V_MPEG4/ISO/AVC
    - A  W' b! Z2 l% W+ U9 \
  10. Duration                                 : 1 h 33 min
    ' v) c" k1 N& P- ^
  11. Bit rate                                 : 5 149 kb/s; ]. |2 D6 b/ i# l
  12. Width                                    : 1 280 pixels. z  p3 I, X+ w. J1 R6 y
  13. Height                                   : 536 pixels$ p' N$ H1 C( T+ K4 W8 f
  14. Display aspect ratio                     : 2.40:1
    & F% n1 o, r/ Z! M. r; Q+ B5 \4 l$ T( i
  15. Frame rate mode                          : Constant5 b  c+ O- l4 C: S9 d/ W; W& L
  16. Frame rate                               : 23.976 (24000/1001) FPS
    ' B# T- R& }" f
  17. Color space                              : YUV( h% I2 ^+ D) @* g
  18. Chroma subsampling                       : 4:2:0) Y% _7 W: c- P% a
  19. Bit depth                                : 8 bits7 b8 Z! P, F- ?/ h" p
  20. Scan type                                : Progressive  G8 a$ E2 \8 h  A- K( _: M. S9 O
  21. Bits/(Pixel*Frame)                       : 0.313: r2 K) B0 a  V* L/ y
  22. Stream size                              : 3.38 GiB (77%)& J* p! |% t5 g) @, [) g
  23. Writing library                          : x264 core 158 r2984 3759fcb
      \! ^9 c$ t! L
  24. Encoding settings                        : cabac=1 / ref=5 / deblock=1:-3:-3 / analyse=0x3:0x133 / me=umh / subme=8 / psy=1 / psy_rd=1.00:0.00 / mixed_ref=1 / me_range=16 / chroma_me=1 / trellis=1 / 8x8dct=1 / cqm=0 / deadzone=21,11 / fast_pskip=0 / chroma_qp_offset=-2 / threads=17 / lookahead_threads=2 / sliced_threads=0 / nr=0 / decimate=1 / interlaced=0 / bluray_compat=0 / constrained_intra=0 / bframes=3 / b_pyramid=2 / b_adapt=1 / b_bias=0 / direct=3 / weightb=1 / open_gop=0 / weightp=2 / keyint=250 / keyint_min=23 / scenecut=40 / intra_refresh=0 / rc_lookahead=50 / rc=2pass / mbtree=1 / bitrate=5149 / ratetol=1.0 / qcomp=0.60 / qpmin=0 / qpmax=69 / qpstep=4 / cplxblur=20.0 / qblur=0.5 / vbv_maxrate=62500 / vbv_bufsize=78125 / nal_hrd=none / filler=0 / ip_ratio=1.40 / aq=1:1.004 ^2 x4 H  G) X* H2 a7 d( i
  25. Default                                  : Yes
    1 ~: z8 ]' A. F* o& Q
  26. Forced                                   : No1 L5 Q- \, d% G8 B$ d7 |. U' [

  27. ( V0 t; v  q3 M) e$ v
  28. Audio
    7 b; a" B: k  u
  29. ID                                       : 2
    $ \+ n0 J* i; ]" f& Y
  30. Format                                   : DTS( P5 m' E) f" K) ?( {
  31. Format/Info                              : Digital Theater Systems
    8 ?; }7 x! V" R% k: e$ C$ W
  32. Codec ID                                 : A_DTS% c! n2 Q% ?0 d5 h9 H  |
  33. Duration                                 : 1 h 33 min
    4 j0 l3 S$ A6 ^8 ^
  34. Bit rate mode                            : Constant
    % l/ z# s1 \/ l* Q: ~/ n* u
  35. Bit rate                                 : 1 509 kb/s
    . \3 [1 j* y# a. W+ T
  36. Channel(s)                               : 6 channels
    ; S  N( s/ d/ {+ k( |' A, g' L7 O
  37. Channel layout                           : C L R Ls Rs LFE
    - g. F* `, c9 j  |$ p2 J
  38. Sampling rate                            : 48.0 kHz
    ; l/ E* T/ T+ F) C
  39. Frame rate                               : 93.750 FPS (512 SPF)
    ) D& B) U7 x# o0 S- ]. m$ V! Q
  40. Bit depth                                : 24 bits
    6 l* B- B2 E' W3 S: R! S7 ^
  41. Compression mode                         : Lossy
    3 v8 G6 q1 T0 X, z# n. m
  42. Stream size                              : 1 014 MiB (23%)
    ' {6 A" T- v8 l9 q$ L" Q
  43. Language                                 : English
    5 Y% I; {& q( Y: U+ `& d5 f0 V6 r* {  z
  44. Default                                  : Yes/ O5 M7 t% y2 j  _: n
  45. Forced                                   : No
    7 N7 F$ r; W: v4 s+ u( P' ?- H" R

  46. 1 f# ]4 j8 F! L
  47. Menu* S6 e2 X5 Z7 z+ `! e
  48. 00:00:00.000                             : en:00:00:00.000
    $ N: j  I4 M* C$ S- O8 \
  49. 00:05:58.858                             : en:00:05:58.858, _  N. B% d! Z5 T% f
  50. 00:09:56.137                             : en:00:09:56.1375 V; }) B- v1 x" t6 I6 P$ p
  51. 00:15:29.554                             : en:00:15:29.554
    8 A( G3 P; R' m7 W' J
  52. 00:21:12.646                             : en:00:21:12.646
    7 s8 X, J8 \8 F* [' ^5 X
  53. 00:25:19.852                             : en:00:25:19.852
    ; O, j7 c, _# E: y3 W" x
  54. 00:32:26.903                             : en:00:32:26.903
    0 _, U0 F6 H# Y( P& Q2 Y& E) }
  55. 00:37:56.608                             : en:00:37:56.608
    1 _/ h3 q, r. I' ?" G, x
  56. 00:41:51.300                             : en:00:41:51.300( {  M" O9 m" G9 w3 j
  57. 00:44:55.818                             : en:00:44:55.818
    * ]; N. S, L8 b  z; l9 w1 |  T
  58. 00:49:56.327                             : en:00:49:56.327: p# D- u9 A$ {5 i0 I, {
  59. 00:54:34.897                             : en:00:54:34.8970 X: ]: U" U- _% s0 _! k
  60. 00:59:16.261                             : en:00:59:16.261+ w: z3 V: d" L" A* k. p  m2 h
  61. 01:02:15.899                             : en:01:02:15.899
    " k( s  F: c! i  O) D* [4 Y& z
  62. 01:06:47.587                             : en:01:06:47.587( @! a# O; `  s( [+ w: o
  63. 01:09:58.152                             : en:01:09:58.152
    3 _# L6 t- }. v! A; X& [
  64. 01:15:16.178                             : en:01:15:16.178
      k$ h6 f3 @: l! ~
  65. 01:21:37.059                             : en:01:21:37.0590 @. U; U, S) W. ]3 j- ^
  66. 01:28:58.833                             : en:01:28:58.8337 V" e0 j4 }' Q
  67. 01:32:27.041                             : en:01:32:27.041
复制代码

& l3 F6 g* l: \7 o' `& F+ r9 K 偷心女盗 The.Hustle.2019.720p.BluRay.x264-DRONES 4.39GB-2.png ' r* I$ F; x; U9 l8 B$ a6 Y
' p6 R2 ^0 s/ V. K

9 O8 g! a2 z+ u
2 L# P8 D0 E/ H# Z+ Y" x. ~, y$ d# B; T7 ?' x

, @  q; j! e0 H2 Z
' k. J  S0 y5 Z/ m: k8 p8 H; |
回复

使用道具 举报

级别:荣升主角 Lv.5

注册时间
2019-2-3
最后登录
2019-8-17
听众
12
收听
0
主题
0
蓝光币
157 枚
贡献
0 点
发表于 4 天前 | 显示全部楼层
楼主发贴辛苦了,谢谢楼主分享!我觉得中国高清电影网是注册对了!
回复

使用道具 举报

级别:群众演员 Lv.3

注册时间
2019-4-11
最后登录
2019-8-17
听众
11
收听
0
主题
0
蓝光币
99 枚
贡献
0 点
发表于 3 天前 | 显示全部楼层
# f& \/ d- C; z" A
楼主太厉害了!楼主,电影应该很好看我觉得中国高清电影网真是个好地方!
回复

使用道具 举报

级别:荣升主角 Lv.5

注册时间
2018-2-26
最后登录
2019-8-16
听众
14
收听
0
主题
0
蓝光币
314 枚
贡献
0 点
发表于 3 天前 | 显示全部楼层
: G6 C9 b! G3 I
既然你诚信诚意的推荐了,那我就勉为其难的看看吧!中国高清电影网不走平凡路。
回复

使用道具 举报

懒得打字嘛,点击右侧快捷回复 【右侧内容,后台自定义】
您需要登录后才可以回帖 登录 | 立即注册

本版积分规则

QQ|Archiver|手机版|小黑屋| 中国高清网 |网站地图

GMT+8, 2019-8-17 21:07 , Processed in 0.422440 second(s), 39 queries .

Powered by HDchina X3.4

Copyright 2017-2019©HDchina.All right reserved

返回顶部 联系我们