查看: 78|回复: 2

[动画片] 乔瓦尼之岛 Giovannis.Island.2014.1080p.BluRay.x264-SPLiTSViLLE 6.55GB

[复制链接]

 成长值: 3460

级别:资源管理组

注册时间
2017-10-20
最后登录
2019-12-14
听众
1
收听
0
主题
88450
蓝光币
71160 枚
贡献
12812 点
发表于 2019-8-13 16:57:17 | 显示全部楼层 |阅读模式
乔瓦尼之岛 Giovannis.Island.2014.1080p.BluRay.x264-SPLiTSViLLE 6.55GB-1.jpg

译  名 乔瓦尼之岛 / Giovanni no Shima / Giovanni's Island / 乔望尼之岛(台)
片  名 ジョバンニの島
年  代 2014
产  地 日本
类  别 动画
语  言 日语
上映日期 2014-02-22(日本)
IMDb评分  7.4/10 from 1495 users
IMDb链接  http://www.imdb.com/title/tt3178174
豆瓣评分 7.6/10 from 882 users
豆瓣链接 https://movie.douban.com/subject/25745650/
片  长 102分钟
导  演 西久保瑞穗 Mizuho Nishikubo
编  剧 杉田成道 Shigemichi Sugita / Yoshiki Sakurai
主  演 市村正亲 Masachika Ichimura
       仲间由纪惠 Yukie Nakama
       柳原可奈子 Kanako Yanagihara
       中山裕介 Yusuke Santamaria
       横山幸汰
       谷合純矢
       北岛三郎 Sabur? Kitajima
       犬塚弘 Hiroshi Inuzuka
       八千草薰 Kaoru Yachigusa
       仲代达矢 Tatsuya Nakadai


标  签 日本 | 动画 | 日本动画 | 2014 | 动画电影 | 戏院版 | 日本电影 | 动漫

简  介  

  1945年的炎天,二次天下大战的阴影从地球上空褪去。远在北方的色丹岛没法独占安好,炮火轰炸事后未几,苏联人的战舰军队到来,令日本岛民们不知是吉是凶。濑能家的两兄弟——10岁的淳平(横山幸汰 配音)和7岁的宽太(谷合纯矢 配音)见证着时代的庞大变化。最初的残暴曩昔,苏联人的家属来到岛上,不经意间种下了战争和睦的种子。经过音乐,苏日两国儿童成为可以唱歌顽耍的朋友,濑能兄弟则依靠玩具蒸汽火车和住在她家隔邻的女孩塔尼娅变得密切无间,但好不轻易获得的友谊却因某起事务而破裂。
  在时代、民族、国家和政治的洪流中,孩子们的人生留下了最初却永久不会褪去的伤痕……

获奖情况  

  第38届日本电影学院奖(2015)
  最好动画片(提名)
  1. Video
  2. ID                                       : 1
  3. Format                                   : AVC
  4. Format/Info                              : Advanced Video Codec
  5. Format profile                           : <a href="/cdn-cgi/l/email-protection" class="__cf_email__" data-cfemail="e2aa8b858aa2aed6ccd3">[email protected]</a>
  6. Format settings                          : CABAC / 4 Ref Frames
  7. Format settings, CABAC                   : Yes
  8. Format settings, Reference frames        : 4 frames
  9. Codec ID                                 : V_MPEG4/ISO/AVC
  10. Duration                                 : 1 h 41 min
  11. Bit rate                                 : 6 221 kb/s
  12. Width                                    : 1 920 pixels
  13. Height                                   : 1 080 pixels
  14. Display aspect ratio                     : 16:9
  15. Frame rate mode                          : Constant
  16. Frame rate                               : 23.976 (24000/1001) FPS
  17. Original frame rate                      : 23.976 (23976/1000) FPS
  18. Color space                              : YUV
  19. Chroma subsampling                       : 4:2:0
  20. Bit depth                                : 8 bits
  21. Scan type                                : Progressive
  22. Bits/(Pixel*Frame)                       : 0.125
  23. Stream size                              : 4.41 GiB (67%)
  24. Writing library                          : x264 core 144 r2525 40bb568
  25. Encoding settings                        : cabac=1 / ref=4 / deblock=1:0:0 / analyse=0x3:0x133 / me=umh / subme=7 / psy=1 / psy_rd=1.00:0.00 / mixed_ref=1 / me_range=16 / chroma_me=1 / trellis=1 / 8x8dct=1 / cqm=0 / deadzone=21,11 / fast_pskip=0 / chroma_qp_offset=-2 / threads=12 / lookahead_threads=2 / sliced_threads=0 / nr=0 / decimate=1 / interlaced=0 / bluray_compat=0 / constrained_intra=0 / bframes=3 / b_pyramid=2 / b_adapt=2 / b_bias=0 / direct=3 / weightb=1 / open_gop=0 / weightp=2 / keyint=250 / keyint_min=23 / scenecut=40 / intra_refresh=0 / rc_lookahead=50 / rc=2pass / mbtree=1 / bitrate=6221 / ratetol=1.0 / qcomp=0.60 / qpmin=0 / qpmax=69 / qpstep=4 / cplxblur=20.0 / qblur=0.5 / ip_ratio=1.40 / aq=1:1.00
  26. Language                                 : English
  27. Default                                  : Yes
  28. Forced                                   : No

  29. Audio #1
  30. ID                                       : 2
  31. Format                                   : DTS
  32. Format/Info                              : Digital Theater Systems
  33. Codec ID                                 : A_DTS
  34. Duration                                 : 1 h 41 min
  35. Bit rate mode                            : Constant
  36. Bit rate                                 : 1 509 kb/s
  37. Channel(s)                               : 6 channels
  38. Channel layout                           : C L R Ls Rs LFE
  39. Sampling rate                            : 48.0 kHz
  40. Frame rate                               : 93.750 FPS (512 SPF)
  41. Bit depth                                : 24 bits
  42. Compression mode                         : Lossy
  43. Stream size                              : 1.07 GiB (16%)
  44. Language                                 : Japanese
  45. Default                                  : Yes
  46. Forced                                   : No

  47. Audio #2
  48. ID                                       : 3
  49. Format                                   : DTS
  50. Format/Info                              : Digital Theater Systems
  51. Codec ID                                 : A_DTS
  52. Duration                                 : 1 h 41 min
  53. Bit rate mode                            : Constant
  54. Bit rate                                 : 1 509 kb/s
  55. Channel(s)                               : 6 channels
  56. Channel layout                           : C L R Ls Rs LFE
  57. Sampling rate                            : 48.0 kHz
  58. Frame rate                               : 93.750 FPS (512 SPF)
  59. Bit depth                                : 24 bits
  60. Compression mode                         : Lossy
  61. Stream size                              : 1.07 GiB (16%)
  62. Language                                 : English
  63. Default                                  : No
  64. Forced                                   : No

  65. Text
  66. ID                                       : 4
  67. Format                                   : UTF-8
  68. Codec ID                                 : S_TEXT/UTF8
  69. Codec ID/Info                            : UTF-8 Plain Text
  70. Duration                                 : 1 h 33 min
  71. Bit rate                                 : 47 b/s
  72. Count of elements                        : 1011
  73. Stream size                              : 32.4 KiB (0%)
  74. Language                                 : English
  75. Default                                  : Yes
  76. Forced                                   : No

  77. Menu
  78. 00:00:00.000                             : en:00:00:00.000
  79. 00:04:17.841                             : en:00:04:17.841
  80. 00:13:19.716                             : en:00:13:19.716
  81. 00:25:15.556                             : en:00:25:15.556
  82. 00:37:33.293                             : en:00:37:33.293
  83. 00:52:21.221                             : en:00:52:21.221
  84. 01:05:02.774                             : en:01:05:02.774
  85. 01:20:59.938                             : en:01:20:59.938
  86. 01:34:18.611                             : en:01:34:18.611
复制代码

乔瓦尼之岛 Giovannis.Island.2014.1080p.BluRay.x264-SPLiTSViLLE 6.55GB-2.png 乔瓦尼之岛 Giovannis.Island.2014.1080p.BluRay.x264-SPLiTSViLLE 6.55GB-3.png 乔瓦尼之岛 Giovannis.Island.2014.1080p.BluRay.x264-SPLiTSViLLE 6.55GB-4.png






VIP会员免费任意下载本站所有资源!---点击开通
回复

使用道具 举报

级别:荣升主角 Lv.5

注册时间
2019-1-18
最后登录
2019-12-15
听众
15
收听
0
主题
0
蓝光币
329 枚
贡献
0 点
发表于 2019-8-13 21:28:24 | 显示全部楼层
楼主辛苦了,谢谢分享
VIP会员免费任意下载本站所有资源!---点击开通
回复

使用道具 举报

级别:荣升主角 Lv.5

注册时间
2019-1-22
最后登录
2019-12-14
听众
14
收听
0
主题
0
蓝光币
126 枚
贡献
0 点
发表于 2019-8-13 21:38:45 | 显示全部楼层

楼主太厉害了!楼主,电影应该很好看我觉得中国高清电影网真是个好地方!
VIP会员免费任意下载本站所有资源!---点击开通
回复

使用道具 举报

懒得打字嘛,点击右侧快捷回复 【右侧内容,后台自定义】
您需要登录后才可以回帖 登录 | 立即注册

本版积分规则

QQ|Archiver|手机版|小黑屋| 中国高清网 |网站地图

GMT+8, 2019-12-15 10:43 , Processed in 0.170475 second(s), 37 queries .

Powered by HDchina X3.4

Copyright 2017-2019©HDchina.All right reserved

返回顶部 联系我们