查看: 32|回复: 3

[恐怖片] 魔童/明亮的燃烧 Brightburn.2019.720p.BluRay.x264-GECKOS 4.38GB

[复制链接]

 成长值: 2200

级别:资源管理组

注册时间
2017-10-20
最后登录
2019-8-17
听众
1
收听
0
主题
80689
蓝光币
41947 枚
贡献
5016 点
发表于 4 天前 | 显示全部楼层 |阅读模式
魔童/明亮的熄灭 Brightburn.2019.720p.BluRay.x264-GECKOS 4.38GB-1.png
8 S) ?& D- {( d" n. q5 B9 i2 M: k, [4 l; ^- A" X( _
译  名 魔童 / 明亮的熄灭 / 灵异乍现(台) / 魔童(港). |6 v9 c0 s2 T1 ~4 n
片  名 Brightburn3 P+ d! t2 a) f4 O
年  代 2019- [" m: z; M+ k! G4 e6 y. J
产  地 美国
) R6 B$ t  d6 N) L! C) M类  别 可骇+ a9 W- I) K/ ?2 j6 ?4 l8 t3 W' i/ `
语  言 英语
: a+ U' d8 p; }6 _2 j上映日期 2019-05-24(美国)  G- d& b( i6 M) A; f
IMDb评分  6.5/10 from 13989 users# P+ v. g1 q' L' Y3 w2 g+ E$ X
IMDb链接  http://www.imdb.com/title/tt7752126! O' _9 d$ ]* V3 K2 [! _
豆瓣评分 5.8/10 from 457 users
6 N# F/ `. X, d- X! W* d1 p豆瓣链接 https://movie.douban.com/subject/27608262/* h5 w# X' K/ C/ ~7 Z
片  长 91分钟
9 S0 Y) ^* L9 S* i, W5 }导  演 大卫·雅洛维斯基 David Yarovesky1 H6 N1 v" z* D8 j" M
编  剧 布莱恩·戈恩 Brian Gunn / 马克·戈恩 Mark Gunn. t1 ~, a* A$ h5 k7 B* [. p
主  演 伊丽莎白·班克斯 Elizabeth Banks
1 ~6 l9 s$ M" f      大卫·丹曼 David Denman
7 M& C( s; f' ~% F1 `7 @/ ^' b- B      梅瑞迪斯·海格纳 Meredith Hagner
* k' u5 f* a: x4 ~% L; O9 E) p      马特·琼斯 Matt Jones0 T9 s( H/ p0 M. K' X. @
      詹尼佛霍兰德 Jennifer Holland3 ~/ M4 O/ a/ `: J" o/ [
      贝基·瓦赫尔斯特罗姆 Becky Wahlstrom
$ l* Q% `2 k6 N! j' V      特伦斯·罗斯摩尔 Terence Rosemore1 R6 M) L3 j9 A+ @
      史蒂芬·布莱克哈特 Stephen Blackehart
1 k- I4 G& l  l; K9 w      史蒂夫·阿吉 Steve Agee) r- i+ W5 a: a. Y4 T' M
      杰克逊·艾顿 Jackson A. Dunn
% R  b4 Y1 t& k6 k7 P' |! ~      安妮·汉弗莱 Annie Humphrey4 R; R/ w8 p2 r- A; \  B
      克里斯蒂安·芬拉森 Christian Finlayson! n/ C2 p! p0 S8 e! T6 x
      艾美·亨特 Emmie Hunter3 |& t' u) v* W; c
      迈克·顿斯顿 Mike Dunston
0 L, U0 G; x! L; b% L' t
) v% B" d8 d' w! u: M
! j- ~* p' c1 u" x1 x标  签 可骇 | 惊悚 | 科幻 | 美国 | 超人 | 2019 | 灵异 | 悬疑
0 o' ^7 [. s/ W  E9 k0 a. W6 Z9 Q7 r
简  介  
2 S/ D- t6 O4 ~5 k
. R5 N! {* h3 |& @. ~. h( ?# |  一对没有孩子的乡乡人妻从家四周的宇宙飞船里捡到了一个婴儿抚养长大,渐渐的发现这个孩子有点与众分歧,各类超自然才能在他身上显现出来,他披上了斗篷...但穿上斗篷的纷歧建都是豪杰...
, k% a4 f+ y  O( Z2 w
' V- J# L* q3 _% z7 d
  1. Video' W$ S- @2 l+ }
  2. ID                                       : 1
    ; M6 c( e! k# \8 z, x  L
  3. Format                                   : AVC
    . Q$ h0 n3 z. I" o8 r
  4. Format/Info                              : Advanced Video Codec0 y4 M* J+ R" O
  5. Format profile                           : <a href="/cdn-cgi/l/email-protection" class="__cf_email__" data-cfemail="3e765759567e720a100f">[email protected]</a>
    0 }4 t- ], ]" O& H+ h; |) R0 _
  6. Format settings                          : CABAC / 5 Ref Frames" P6 x; o4 K. X' F- j- D; o9 I1 I
  7. Format settings, CABAC                   : Yes) a% ^1 D4 ]! y6 t4 R5 h
  8. Format settings, Reference frames        : 5 frames
    8 t' u- W2 o/ E  A
  9. Codec ID                                 : V_MPEG4/ISO/AVC
    ( G  b% O, P( p5 O
  10. Duration                                 : 1 h 30 min& v) P6 g7 }; D' G6 I+ M
  11. Bit rate                                 : 5 404 kb/s
    % J9 _# s% V/ q& U! C
  12. Width                                    : 1 280 pixels1 w/ T/ {+ S: v: @5 u: G0 ~, ?
  13. Height                                   : 536 pixels/ F, K) Q4 N% ~% ^2 M: n& Q
  14. Display aspect ratio                     : 2.40:1
    6 y, _: ]& f7 W5 k1 A
  15. Frame rate mode                          : Constant9 Q  j5 _3 c9 F
  16. Frame rate                               : 23.976 (24000/1001) FPS: p+ P+ X0 G: Z- X
  17. Color space                              : YUV
    4 M* {: H7 `% |) o! s
  18. Chroma subsampling                       : 4:2:03 w7 h' e1 a; V, I
  19. Bit depth                                : 8 bits
    ; z) W4 l2 p8 @* m
  20. Scan type                                : Progressive
    4 ^! c3 n; h" Z; V+ H
  21. Bits/(Pixel*Frame)                       : 0.329& G* e8 n+ a2 `
  22. Stream size                              : 3.42 GiB (78%)  o0 f5 w0 n' }* [
  23. Writing library                          : x264 core 158 r2984 3759fcb
    + v9 S7 M6 ?+ \" X& w
  24. Encoding settings                        : cabac=1 / ref=5 / deblock=1:-3:-3 / analyse=0x3:0x113 / me=umh / subme=8 / psy=1 / psy_rd=1.00:0.00 / mixed_ref=1 / me_range=16 / chroma_me=1 / trellis=1 / 8x8dct=1 / cqm=0 / deadzone=21,11 / fast_pskip=1 / chroma_qp_offset=-2 / threads=17 / lookahead_threads=2 / sliced_threads=0 / nr=0 / decimate=1 / interlaced=0 / bluray_compat=0 / constrained_intra=0 / bframes=3 / b_pyramid=2 / b_adapt=1 / b_bias=0 / direct=3 / weightb=1 / open_gop=0 / weightp=2 / keyint=250 / keyint_min=23 / scenecut=40 / intra_refresh=0 / rc_lookahead=50 / rc=2pass / mbtree=1 / bitrate=5404 / ratetol=1.0 / qcomp=0.60 / qpmin=0 / qpmax=69 / qpstep=4 / cplxblur=20.0 / qblur=0.5 / ip_ratio=1.40 / aq=1:1.004 }0 p- u) `+ [7 ?. c$ o
  25. Language                                 : English
    ' ?5 X/ W" w8 X2 w1 [  ]
  26. Default                                  : Yes# k' v& D% z+ \% M# _7 W
  27. Forced                                   : No
    ( S: k. t( B5 D% r9 N. G
  28. # G5 T0 ?& Q7 G/ A5 z9 w' s) c: ^* [$ }
  29. Audio. c9 x! v% _  D  v0 w5 ?9 L% A
  30. ID                                       : 2# |. T5 ?$ Y& X" f
  31. Format                                   : DTS
    : d; j2 N  Q7 B6 Y) |) ]+ Y, d0 M
  32. Format/Info                              : Digital Theater Systems
    6 v& t+ s3 I! {& @, c0 G; K, w
  33. Codec ID                                 : A_DTS2 O8 u* \# j; N* y
  34. Duration                                 : 1 h 30 min- P% r' b$ J5 k- y& T. y  O
  35. Bit rate mode                            : Constant0 }1 i9 I5 c7 _( D; U/ f. r& @3 I( r
  36. Bit rate                                 : 1 509 kb/s. c, i, f, y% s5 }" L
  37. Channel(s)                               : 6 channels9 B0 Q5 G( u7 N0 [' m
  38. Channel layout                           : C L R Ls Rs LFE
    7 g0 q) v3 B( @
  39. Sampling rate                            : 48.0 kHz
    * C2 R5 \* j7 x& _3 O) k' M+ W) j
  40. Frame rate                               : 93.750 FPS (512 SPF)( M2 Z# ~+ k8 ?6 ]" e6 j
  41. Bit depth                                : 24 bits( Q! M( E  q: Q0 f
  42. Compression mode                         : Lossy4 Z& D1 c8 r5 M: K+ x; ?/ ?
  43. Stream size                              : 977 MiB (22%)
    , a+ s+ Z) A% W1 B
  44. Language                                 : English1 @2 C2 C1 t4 E9 V( D  L
  45. Default                                  : Yes
    9 g8 e# H1 z5 g1 t: @! H
  46. Forced                                   : No
复制代码
% I+ {; k5 U3 t0 |2 i
魔童/明亮的熄灭 Brightburn.2019.720p.BluRay.x264-GECKOS 4.38GB-2.png
9 M6 O8 v0 q3 `7 i, e! c6 T0 w6 Z% |. W
, `& }- D2 D8 g
7 s! f1 L) k" H

* {% y2 |! M6 Q0 {. F! D
2 n0 r  p5 M; B  v2 y9 G0 j1 y
回复

使用道具 举报

级别:荣升主角 Lv.5

注册时间
2019-2-3
最后登录
2019-8-17
听众
12
收听
0
主题
0
蓝光币
157 枚
贡献
0 点
发表于 4 天前 | 显示全部楼层
楼主发贴辛苦了,谢谢楼主分享!我觉得中国高清电影网是注册对了!
回复

使用道具 举报

级别:群众演员 Lv.3

注册时间
2019-4-11
最后登录
2019-8-17
听众
11
收听
0
主题
0
蓝光币
99 枚
贡献
0 点
发表于 3 天前 | 显示全部楼层
0 M  X* s2 O" Q' I8 G
这东西我收了!谢谢楼主!中国高清电影网真好!
回复

使用道具 举报

级别:荣升主角 Lv.5

注册时间
2018-2-26
最后登录
2019-8-16
听众
14
收听
0
主题
0
蓝光币
314 枚
贡献
0 点
发表于 3 天前 | 显示全部楼层
1 n  b2 P/ e9 J/ r3 v2 q
楼主太厉害了!楼主,电影应该很好看我觉得中国高清电影网真是个好地方!
回复

使用道具 举报

懒得打字嘛,点击右侧快捷回复 【右侧内容,后台自定义】
您需要登录后才可以回帖 登录 | 立即注册

本版积分规则

QQ|Archiver|手机版|小黑屋| 中国高清网 |网站地图

GMT+8, 2019-8-17 20:35 , Processed in 0.407719 second(s), 39 queries .

Powered by HDchina X3.4

Copyright 2017-2019©HDchina.All right reserved

返回顶部 联系我们