查看: 124|回复: 5

[恐怖片] 魔童/明亮的燃烧 Brightburn.2019.720p.BluRay.x264-GECKOS 4.38GB

[复制链接]

 成长值: 3420

级别:资源管理组

注册时间
2017-10-20
最后登录
2019-12-11
听众
1
收听
0
主题
88410
蓝光币
70033 枚
贡献
12772 点
发表于 2019-8-13 16:56:20 | 显示全部楼层 |阅读模式
魔童/明亮的熄灭 Brightburn.2019.720p.BluRay.x264-GECKOS 4.38GB-1.png + I5 X9 T3 s. ~4 X1 a/ L& p. h+ T
0 u) v# z: g& q) @/ V  b9 L' I
译  名 魔童 / 明亮的熄灭 / 灵异乍现(台) / 魔童(港)$ T7 z. h. O7 u3 G" ~, B& i! h
片  名 Brightburn
% g% G; T! `  A5 f2 z; Q年  代 2019% @. Y* L! \2 h4 b% D8 z, u! i
产  地 美国4 M  t$ n% m* K- y3 l
类  别 可骇
4 T; _0 V3 r. [语  言 英语6 Y4 }) l2 p4 W6 o5 n" R# h3 V5 O
上映日期 2019-05-24(美国)
4 H! D: A6 U; H0 l  VIMDb评分  6.5/10 from 13989 users  w5 F# G+ H; A% t0 M3 f9 C# t
IMDb链接  http://www.imdb.com/title/tt7752126
( k) o; T/ ?/ T( E  c8 L豆瓣评分 5.8/10 from 457 users3 H6 h5 \$ v5 s8 m% X
豆瓣链接 https://movie.douban.com/subject/27608262/
; G" {" a( d+ P片  长 91分钟0 P7 w; y' g( P8 i' D, E. {0 L$ o6 j
导  演 大卫·雅洛维斯基 David Yarovesky
" k0 m, B3 E9 z3 w编  剧 布莱恩·戈恩 Brian Gunn / 马克·戈恩 Mark Gunn! s9 Y$ z- p$ y$ |  B7 x: q( i+ D$ a
主  演 伊丽莎白·班克斯 Elizabeth Banks
8 O, k8 g% ?% c/ c      大卫·丹曼 David Denman
$ ~, a" ^" F' `' F5 s      梅瑞迪斯·海格纳 Meredith Hagner
& C, X$ I% W; E  l. n2 b8 I1 R      马特·琼斯 Matt Jones
- S8 _3 ~5 u5 K# J' f+ E( ~      詹尼佛霍兰德 Jennifer Holland
9 T1 T6 s! `1 P+ w, K& d      贝基·瓦赫尔斯特罗姆 Becky Wahlstrom7 O" `' A, F- L. C8 z4 f$ v% {
      特伦斯·罗斯摩尔 Terence Rosemore4 V3 U4 O3 ?! H/ E5 r( X
      史蒂芬·布莱克哈特 Stephen Blackehart* C$ q8 ?# `- \9 r, Q+ ]# A6 A( k
      史蒂夫·阿吉 Steve Agee
9 V# B" @* c/ X# h# Z      杰克逊·艾顿 Jackson A. Dunn* ^9 D9 i' V! t0 L# B1 J( c: P4 E
      安妮·汉弗莱 Annie Humphrey$ O# i/ I2 e& g8 D# I
      克里斯蒂安·芬拉森 Christian Finlayson) Z2 x# z2 n% l  z9 ^1 x' X
      艾美·亨特 Emmie Hunter1 ?+ f9 I, i- L  F1 T' K& D
      迈克·顿斯顿 Mike Dunston
! j  ^$ P; ]/ J* v3 D# L* r: z6 ?4 j1 B
; w4 v( c7 u' A& y3 F& |& K5 v* [
标  签 可骇 | 惊悚 | 科幻 | 美国 | 超人 | 2019 | 灵异 | 悬疑1 H0 g/ N) C3 O+ \7 K2 R

# ?, |8 x9 Z4 J3 G. K& J简  介  6 ~% @9 p& ]0 j

4 _8 f5 v' T" z' F  一对没有孩子的乡乡人妻从家四周的宇宙飞船里捡到了一个婴儿抚养长大,渐渐的发现这个孩子有点与众分歧,各类超自然才能在他身上显现出来,他披上了斗篷...但穿上斗篷的纷歧建都是豪杰...; C8 g% a6 `$ [4 _( _
9 c5 m# A( u' V7 t4 N& l
  1. Video8 J; f. d8 k- ]5 Z* i# v' M
  2. ID                                       : 1
    ; J8 s, m# r& L. Y" b/ u
  3. Format                                   : AVC& M1 W" ]2 I: u) S! I# N% M
  4. Format/Info                              : Advanced Video Codec
      M1 V$ v/ t* {8 D2 d7 Z
  5. Format profile                           : <a href="/cdn-cgi/l/email-protection" class="__cf_email__" data-cfemail="3e765759567e720a100f">[email protected]</a>
    1 U6 J$ E7 }/ B5 q! x
  6. Format settings                          : CABAC / 5 Ref Frames$ j4 q% v6 `0 m1 k, [" N
  7. Format settings, CABAC                   : Yes
    * U: y% y6 @; [9 J4 [& x7 c8 T) v
  8. Format settings, Reference frames        : 5 frames: p  J9 S7 Q) ^) H9 ]
  9. Codec ID                                 : V_MPEG4/ISO/AVC5 _: x7 u! j& X7 w
  10. Duration                                 : 1 h 30 min' ^- ~& A  t" z+ v  R
  11. Bit rate                                 : 5 404 kb/s; ], }/ h3 `( R) U% W* }
  12. Width                                    : 1 280 pixels) K* P! L0 A6 j3 M9 Q2 R
  13. Height                                   : 536 pixels. l  j: [- c( i; s8 Z: _' j5 M
  14. Display aspect ratio                     : 2.40:1( T- T9 K* ~# U' f
  15. Frame rate mode                          : Constant
    $ V4 k: B" V9 a& }6 Q
  16. Frame rate                               : 23.976 (24000/1001) FPS
    2 M1 t9 d+ j4 ]6 M/ n1 W
  17. Color space                              : YUV; G9 F+ |# O/ V  X
  18. Chroma subsampling                       : 4:2:0& r, ?! e4 t$ V- F  _
  19. Bit depth                                : 8 bits
      E; f; g1 F$ Q4 ?# F
  20. Scan type                                : Progressive
    - }! v2 m4 \: l. M
  21. Bits/(Pixel*Frame)                       : 0.329
    1 k( l- k$ M. m  X
  22. Stream size                              : 3.42 GiB (78%)
    : G6 g' g8 E& t  ?  B
  23. Writing library                          : x264 core 158 r2984 3759fcb  t' B' J1 O! e/ K; y& \- g, F
  24. Encoding settings                        : cabac=1 / ref=5 / deblock=1:-3:-3 / analyse=0x3:0x113 / me=umh / subme=8 / psy=1 / psy_rd=1.00:0.00 / mixed_ref=1 / me_range=16 / chroma_me=1 / trellis=1 / 8x8dct=1 / cqm=0 / deadzone=21,11 / fast_pskip=1 / chroma_qp_offset=-2 / threads=17 / lookahead_threads=2 / sliced_threads=0 / nr=0 / decimate=1 / interlaced=0 / bluray_compat=0 / constrained_intra=0 / bframes=3 / b_pyramid=2 / b_adapt=1 / b_bias=0 / direct=3 / weightb=1 / open_gop=0 / weightp=2 / keyint=250 / keyint_min=23 / scenecut=40 / intra_refresh=0 / rc_lookahead=50 / rc=2pass / mbtree=1 / bitrate=5404 / ratetol=1.0 / qcomp=0.60 / qpmin=0 / qpmax=69 / qpstep=4 / cplxblur=20.0 / qblur=0.5 / ip_ratio=1.40 / aq=1:1.00
    6 R, b8 g9 j7 o, D  y0 j
  25. Language                                 : English
    $ V  z2 h, u9 i$ i, L% D* ~0 J- l
  26. Default                                  : Yes
    5 E- r1 X) C' ~4 ~' m( C. ^8 ~
  27. Forced                                   : No; l3 }7 F" q# E% C% g- ^

  28. 9 r+ x; `, P6 K; w$ K$ Q0 |
  29. Audio) n4 B4 P4 a, X( c  k9 v! v0 N
  30. ID                                       : 21 q! c" `" K! M: _1 ^) K
  31. Format                                   : DTS/ b5 P% `- j% |( h4 @2 j* ]) N
  32. Format/Info                              : Digital Theater Systems
    1 m! _) z3 N5 Z+ O
  33. Codec ID                                 : A_DTS* u! B+ k7 }1 m  v+ t5 y
  34. Duration                                 : 1 h 30 min1 B( E9 {/ y9 U: d8 `+ `, o
  35. Bit rate mode                            : Constant  s' S" P6 [' H% Y; P  \0 y8 F9 T
  36. Bit rate                                 : 1 509 kb/s
    7 O0 r1 Z& \. f8 o
  37. Channel(s)                               : 6 channels* U3 @( I* L& T+ F) r& W+ E
  38. Channel layout                           : C L R Ls Rs LFE
    * T" P1 }! z; S
  39. Sampling rate                            : 48.0 kHz
    ; R; \' n  T% J6 V& q
  40. Frame rate                               : 93.750 FPS (512 SPF)0 I" M# l, ]! u+ |1 n
  41. Bit depth                                : 24 bits
    $ ~1 \& {2 c6 U4 u" ]4 T
  42. Compression mode                         : Lossy
    # O( u. R& d; K( p9 C
  43. Stream size                              : 977 MiB (22%); T7 V3 n% t2 b8 y: w
  44. Language                                 : English
    " p, ]( ~- R) z( s5 {  N
  45. Default                                  : Yes
    ' Q6 K/ l7 K# V  q2 U
  46. Forced                                   : No
复制代码

5 x  i6 J9 t9 A7 Z# r/ T 魔童/明亮的熄灭 Brightburn.2019.720p.BluRay.x264-GECKOS 4.38GB-2.png & V8 u; z8 d" n( a
9 s$ N3 n, U  b( x7 r" x* F/ l
/ M, T; Z" r9 u/ t0 A

2 A' D# K- G. h& r4 J2 f% L" ~' |5 n  r& K) W& s8 Q& y
; }4 I2 e3 G* O
( J/ y4 X, C! N
VIP会员免费任意下载本站所有资源!---点击开通
回复

使用道具 举报

级别:荣升主角 Lv.5

注册时间
2019-2-3
最后登录
2019-12-10
听众
15
收听
0
主题
0
蓝光币
227 枚
贡献
0 点
发表于 2019-8-13 21:06:40 | 显示全部楼层
楼主发贴辛苦了,谢谢楼主分享!我觉得中国高清电影网是注册对了!
VIP会员免费任意下载本站所有资源!---点击开通
回复

使用道具 举报

级别:专业龙套 Lv.4

注册时间
2019-4-11
最后登录
2019-12-11
听众
13
收听
0
主题
0
蓝光币
184 枚
贡献
0 点
发表于 2019-8-14 09:12:48 | 显示全部楼层
' Q  g/ i; p7 ~3 r
这东西我收了!谢谢楼主!中国高清电影网真好!
VIP会员免费任意下载本站所有资源!---点击开通
回复

使用道具 举报

级别:荣升主角 Lv.5

注册时间
2018-2-26
最后登录
2019-12-11
听众
16
收听
0
主题
0
蓝光币
266 枚
贡献
0 点
发表于 2019-8-14 09:45:20 | 显示全部楼层
4 H" @$ Z8 D1 R  ]( K% O3 l
楼主太厉害了!楼主,电影应该很好看我觉得中国高清电影网真是个好地方!
VIP会员免费任意下载本站所有资源!---点击开通
回复

使用道具 举报

级别:普通观众 Lv.2

注册时间
2019-3-11
最后登录
2019-9-16
听众
14
收听
0
主题
0
蓝光币
5 枚
贡献
0 点
发表于 2019-8-20 14:55:14 | 显示全部楼层
听过这片子,看看
VIP会员免费任意下载本站所有资源!---点击开通
回复

使用道具 举报

级别:一线明星 Lv.8

注册时间
2019-4-24
最后登录
2019-12-11
听众
14
收听
0
主题
0
蓝光币
214 枚
贡献
0 点
发表于 2019-9-17 10:36:44 | 显示全部楼层
楼主发贴辛苦了,谢谢楼主分享!我觉得中国高清电影网是注册对了!
VIP会员免费任意下载本站所有资源!---点击开通
回复

使用道具 举报

懒得打字嘛,点击右侧快捷回复 【右侧内容,后台自定义】
您需要登录后才可以回帖 登录 | 立即注册

本版积分规则

QQ|Archiver|手机版|小黑屋| 中国高清网 |网站地图

GMT+8, 2019-12-11 13:18 , Processed in 0.299858 second(s), 37 queries .

Powered by HDchina X3.4

Copyright 2017-2019©HDchina.All right reserved

返回顶部 联系我们