查看: 101|回复: 2

[西部片] 姜戈备好棺材! Django.Prepare.a.Coffin.1968.REMASTERED.1080p.BluRay.x264-SADPANDA 7.95GB

[复制链接]

 成长值: 3460

级别:资源管理组

注册时间
2017-10-20
最后登录
2019-12-14
听众
1
收听
0
主题
88450
蓝光币
71158 枚
贡献
12812 点
发表于 2019-8-12 22:12:44 | 显示全部楼层 |阅读模式
姜戈备好棺材! Django.Prepare.a.Coffin.1968.REMASTERED.1080p.BluRay.x264-SADPANDA 7.95GB-1.jpg

译  名 姜戈,备好棺材! / Django, Prepare a Coffin / El Clan de los Ahorcados
片  名 Preparati la bara!
年  代 1968
产  地 意大利
类  别 行动 / 西部
语  言 意大利语
上映日期 1968
IMDb评分  6.5/10 from 2086 users
IMDb链接  http://www.imdb.com/title/tt0062151
豆瓣评分 0/10 from 0 users
豆瓣链接 https://movie.douban.com/subject/6097369/
片  长 92分钟
导  演 费迪南多·巴尔迪 Ferdinando Baldi
编  剧 费迪南多·巴尔迪 Ferdinando Baldi / 弗兰科·罗塞蒂 Franco Rossetti
主  演 特伦斯·希尔 Terence Hill
       霍斯特·弗兰克 Horst Frank
       路易吉·蒙得菲洛勒 George Eastman


标  签 西部 | 意大利 | 1960s | 犯罪 | 意大利电影 | 意大利通心粉 | 剧情 | TerenceHill

简  介  

  几年前,大佬(霍斯特·弗兰克 饰)为了好处,杀光了好朋友姜戈(特伦斯·希尔 饰)的一家。几年后,大佬为了名正言顺地掠夺平民的地盘,将无辜的好人诬陷成罪犯,并将他们统统处以了绞刑。可是大佬不晓得的是,履行绞刑的绞刑吏不是他人,正是昔时死里逃生的姜戈,他不但没有绞死那些人, 还将他们放走并组成了一支“奥秘军队”,为的是撤除大佬以报杀妻之仇。一场复仇之战在所难免......《姜戈:掘墓者》诠释了第一部《姜戈》“爱人被杀”的布景故事,且在飞腾大战中初次出现了“从棺材中拿机关枪”的典范元素,和第一部构成对接,可以算作是《姜戈》的前传。
  1. Video
  2. ID                                       : 1
  3. Format                                   : AVC
  4. Format/Info                              : Advanced Video Codec
  5. Format profile                           : <a href="/cdn-cgi/l/email-protection" class="__cf_email__" data-cfemail="430b2a242b030f776d72">[email protected]</a>
  6. Format settings, CABAC                   : Yes
  7. Format settings, ReFrames                : 4 frames
  8. Codec ID                                 : V_MPEG4/ISO/AVC
  9. Duration                                 : 1h 31mn
  10. Bit rate                                 : 11.9 Mbps
  11. Width                                    : 1 792 pixels
  12. Height                                   : 1 080 pixels
  13. Display aspect ratio                     : 5:3
  14. Frame rate mode                          : Constant
  15. Frame rate                               : 23.976 (24000/1001) fps
  16. Color space                              : YUV
  17. Chroma subsampling                       : 4:2:0
  18. Bit depth                                : 8 bits
  19. Scan type                                : Progressive
  20. Bits/(Pixel*Frame)                       : 0.257
  21. Stream size                              : 7.67 GiB (97%)
  22. Writing library                          : x264 core 152 r2851 ba24899
  23. Encoding settings                        : cabac=1 / ref=4 / deblock=1:-3:-3 / analyse=0x3:0x113 / me=umh / subme=8 / psy=1 / psy_rd=1.00:0.25 / mixed_ref=1 / me_range=24 / chroma_me=1 / trellis=1 / 8x8dct=1 / cqm=0 / deadzone=21,11 / fast_pskip=1 / chroma_qp_offset=-4 / threads=30 / lookahead_threads=5 / sliced_threads=0 / nr=0 / decimate=1 / interlaced=0 / bluray_compat=0 / constrained_intra=0 / bframes=3 / b_pyramid=2 / b_adapt=1 / b_bias=0 / direct=3 / weightb=1 / open_gop=0 / weightp=2 / keyint=240 / keyint_min=24 / scenecut=40 / intra_refresh=0 / rc_lookahead=50 / rc=2pass / mbtree=1 / bitrate=11935 / ratetol=1.0 / qcomp=0.60 / qpmin=0 / qpmax=69 / qpstep=4 / cplxblur=20.0 / qblur=0.5 / ip_ratio=1.40 / aq=1:0.75
  24. Default                                  : Yes
  25. Forced                                   : No

  26. Audio #1
  27. ID                                       : 2
  28. Format                                   : FLAC
  29. Format/Info                              : Free Lossless Audio Codec
  30. Codec ID                                 : A_FLAC
  31. Duration                                 : 1h 31mn
  32. Bit rate mode                            : Variable
  33. Bit rate                                 : 218 Kbps
  34. Channel(s)                               : 1 channel
  35. Channel positions                        : Front: C
  36. Sampling rate                            : 48.0 KHz
  37. Frame rate                               : 11.719 fps (4096 spf)
  38. Bit depth                                : 16 bits
  39. Stream size                              : 143 MiB (2%)
  40. Writing library                          : libFLAC 1.2.1 (UTC 2007-09-17)
  41. Language                                 : Italian
  42. Default                                  : Yes
  43. Forced                                   : No

  44. Audio #2
  45. ID                                       : 3
  46. Format                                   : FLAC
  47. Format/Info                              : Free Lossless Audio Codec
  48. Codec ID                                 : A_FLAC
  49. Duration                                 : 1h 31mn
  50. Bit rate mode                            : Variable
  51. Bit rate                                 : 207 Kbps
  52. Channel(s)                               : 1 channel
  53. Channel positions                        : Front: C
  54. Sampling rate                            : 48.0 KHz
  55. Frame rate                               : 11.719 fps (4096 spf)
  56. Bit depth                                : 16 bits
  57. Stream size                              : 136 MiB (2%)
  58. Writing library                          : libFLAC 1.2.1 (UTC 2007-09-17)
  59. Language                                 : English
  60. Default                                  : No
  61. Forced                                   : No

  62. Text
  63. ID                                       : 4
  64. Format                                   : UTF-8
  65. Codec ID                                 : S_TEXT/UTF8
  66. Codec ID/Info                            : UTF-8 Plain Text
  67. Duration                                 : 1h 30mn
  68. Bit rate                                 : 33 bps
  69. Count of elements                        : 703
  70. Stream size                              : 22.3 KiB (0%)
  71. Language                                 : English
  72. Default                                  : Yes
  73. Forced                                   : No

  74. Menu
  75. 00:00:00.000                             : en:00:00:00.000
  76. 00:08:14.452                             : en:00:08:14.452
  77. 00:15:03.569                             : en:00:15:03.569
  78. 00:22:12.790                             : en:00:22:12.790
  79. 00:30:01.341                             : en:00:30:01.341
  80. 00:39:08.972                             : en:00:39:08.972
  81. 00:46:07.223                             : en:00:46:07.223
  82. 00:52:47.706                             : en:00:52:47.706
  83. 01:01:40.822                             : en:01:01:40.822
  84. 01:11:26.324                             : en:01:11:26.324
  85. 01:17:52.877                             : en:01:17:52.877
  86. 01:23:55.030                             : en:01:23:55.030
复制代码

姜戈备好棺材! Django.Prepare.a.Coffin.1968.REMASTERED.1080p.BluRay.x264-SADPANDA 7.95GB-2.png






VIP会员免费任意下载本站所有资源!---点击开通
回复

使用道具 举报

级别:一线明星 Lv.8

注册时间
2019-4-24
最后登录
2019-12-13
听众
14
收听
0
主题
0
蓝光币
218 枚
贡献
0 点
发表于 2019-8-13 14:34:48 | 显示全部楼层
楼主发贴辛苦了,谢谢楼主分享!我觉得中国高清电影网是注册对了!
VIP会员免费任意下载本站所有资源!---点击开通
回复

使用道具 举报

级别:初级观众 Lv.1

注册时间
2019-8-14
最后登录
2019-8-14
听众
0
收听
0
主题
0
蓝光币
0 枚
贡献
0 点
发表于 2019-8-14 01:17:06 | 显示全部楼层
希望种子速度可以
VIP会员免费任意下载本站所有资源!---点击开通
回复

使用道具 举报

懒得打字嘛,点击右侧快捷回复 【右侧内容,后台自定义】
您需要登录后才可以回帖 登录 | 立即注册

本版积分规则

QQ|Archiver|手机版|小黑屋| 中国高清网 |网站地图

GMT+8, 2019-12-15 09:53 , Processed in 0.231554 second(s), 37 queries .

Powered by HDchina X3.4

Copyright 2017-2019©HDchina.All right reserved

返回顶部 联系我们