查看: 48|回复: 2

[动画片] 机器人嘉年华 Robot.Carnival.1987.1080p.BluRay.x264-SADPANDA 5.46GB

[复制链接]

 成长值: 2270

级别:资源管理组

注册时间
2017-10-20
最后登录
2019-8-23
听众
1
收听
0
主题
81029
蓝光币
43234 枚
贡献
5356 点
发表于 2019-8-12 22:11:41 | 显示全部楼层 |阅读模式
机械人嘉韶华 Robot.Carnival.1987.1080p.BluRay.x264-SADPANDA 5.46GB-1.jpg

译  名 机械人嘉韶华 / Robot Carnival / 机械人狂欢节 / 机械人的嘉韶华会
片  名 ロボットカーニバル
年  代 1987
产  地 日本
类  别 科幻 / 动画
语  言 日语
上映日期 1987-07-21(日本)
IMDb评分  7.0/10 from 1686 users
IMDb链接  http://www.imdb.com/title/tt0093871
豆瓣评分 8.2/10 from 2750 users
豆瓣链接 https://movie.douban.com/subject/1299701/
片  长 93分钟
导  演 大友克洋 Katsuhiro ?tomo / 森本晃司 K?ji Morimoto / 大森英敏 Hidetoshi ?mori / 梅津泰臣 Yasuomi Umetsu / 北爪宏幸 Hiroyuki Kitazume / マオラムド / 北久保弘之 Hiroyuki Kitakubo / なかむらたかし
主  演 森次晃嗣 K?ji Moritsugu
       Yayoi Maki
       Keiko Hanagata
       泷泽久美子 Kumiko Takizawa
       Aya Murata
       Nariko Fujieda


标  签 大友克洋 | 动画 | 日本 | 日本动画 | 科幻 | 短片集 | 动画短片 | 短片

简  介  

  《机械人嘉韶华》荒凉贫困的沙漠村子,一幢标着“机械人嘉韶华”的庞然大物忽然出现,残暴的炊火和奋进的音乐陪伴着阵阵喝彩声,配合展开了对人类的杀戮;《弗兰肯德齿车》电闪雷鸣,风雨交集,阴森古堡,疯狂的科学家制造的机械人行将苏醒,可是意外忽然发生;《DEPRIVE》入侵的外星机械人虏走了心爱的小女孩,她的机械人伙伴立誓闯入敌救援出女孩;《PRESENCE》他具有富足的生活,却忍受着压制的婚姻,因而渴望造出一个完全服从于自己的机械人少女;《星光天使》游乐场内,忽然失恋的女孩被拾到项链的机械人带入虚拟天下顽耍,履历了史无前例的大冒险;《云》一个机械人少年单独行走,身旁的云朵变化万千,如梦如幻;《明治文化奇谭—红毛人来袭卷》一个疯狂的西洋科学家操纵者机械人登陆明治期间的日本,日今年轻人则造了一个木桶机械人迎战;《庭鸟男与红脑壳》醉酒男人无意中闯入机械人统治的街区,他将履历惊险可骇的一夜。
  1. Video
  2. ID                                       : 1
  3. Format                                   : AVC
  4. Format/Info                              : Advanced Video Codec
  5. Format profile                           : <a href="/cdn-cgi/l/email-protection" class="__cf_email__" data-cfemail="86ceefe1eec6cab2a8b7">[email protected]</a>
  6. Format settings                          : CABAC / 4 Ref Frames
  7. Format settings, CABAC                   : Yes
  8. Format settings, RefFrames               : 4 frames
  9. Codec ID                                 : V_MPEG4/ISO/AVC
  10. Duration                                 : 1 h 32 min
  11. Bit rate                                 : 5 792 kb/s
  12. Width                                    : 1 920 pixels
  13. Height                                   : 1 040 pixels
  14. Display aspect ratio                     : 1.85:1
  15. Frame rate mode                          : Constant
  16. Frame rate                               : 23.976 (24000/1001) FPS
  17. Color space                              : YUV
  18. Chroma subsampling                       : 4:2:0
  19. Bit depth                                : 8 bits
  20. Scan type                                : Progressive
  21. Bits/(Pixel*Frame)                       : 0.121
  22. Stream size                              : 3.75 GiB (69%)
  23. Writing library                          : x264 core 155 r2901 7d0ff22
  24. Encoding settings                        : cabac=1 / ref=4 / deblock=1:-3:-3 / analyse=0x3:0x113 / me=umh / subme=8 / psy=1 / psy_rd=1.00:0.25 / mixed_ref=1 / me_range=24 / chroma_me=1 / trellis=1 / 8x8dct=1 / cqm=0 / deadzone=21,11 / fast_pskip=1 / chroma_qp_offset=-4 / threads=32 / lookahead_threads=5 / sliced_threads=0 / nr=0 / decimate=1 / interlaced=0 / bluray_compat=0 / constrained_intra=0 / bframes=3 / b_pyramid=2 / b_adapt=1 / b_bias=0 / direct=3 / weightb=1 / open_gop=0 / weightp=2 / keyint=240 / keyint_min=24 / scenecut=40 / intra_refresh=0 / rc_lookahead=50 / rc=2pass / mbtree=1 / bitrate=5792 / ratetol=1.0 / qcomp=0.60 / qpmin=0 / qpmax=69 / qpstep=4 / cplxblur=20.0 / qblur=0.5 / ip_ratio=1.40 / aq=1:0.75
  25. Default                                  : Yes
  26. Forced                                   : No

  27. Audio #1
  28. ID                                       : 2
  29. Format                                   : FLAC
  30. Format/Info                              : Free Lossless Audio Codec
  31. Codec ID                                 : A_FLAC
  32. Duration                                 : 1 h 32 min
  33. Bit rate mode                            : Variable
  34. Bit rate                                 : 1 307 kb/s
  35. Channel(s)                               : 2 channels
  36. Channel positions                        : Front: L R
  37. Sampling rate                            : 48.0 kHz
  38. Frame rate                               : 11.719 FPS (4096 SPF)
  39. Bit depth                                : 24 bits
  40. Stream size                              : 867 MiB (16%)
  41. Writing library                          : libFLAC 1.2.1 (UTC 2007-09-17)
  42. Language                                 : Japanese
  43. Default                                  : Yes
  44. Forced                                   : No

  45. Audio #2
  46. ID                                       : 3
  47. Format                                   : FLAC
  48. Format/Info                              : Free Lossless Audio Codec
  49. Codec ID                                 : A_FLAC
  50. Duration                                 : 1 h 32 min
  51. Bit rate mode                            : Variable
  52. Bit rate                                 : 1 327 kb/s
  53. Channel(s)                               : 2 channels
  54. Channel positions                        : Front: L R
  55. Sampling rate                            : 48.0 kHz
  56. Frame rate                               : 11.719 FPS (4096 SPF)
  57. Bit depth                                : 24 bits
  58. Stream size                              : 880 MiB (16%)
  59. Writing library                          : libFLAC 1.2.1 (UTC 2007-09-17)
  60. Language                                 : English
  61. Default                                  : No
  62. Forced                                   : No

  63. Text #1
  64. ID                                       : 4
  65. Format                                   : UTF-8
  66. Codec ID                                 : S_TEXT/UTF8
  67. Codec ID/Info                            : UTF-8 Plain Text
  68. Duration                                 : 1 h 25 min
  69. Bit rate                                 : 0 b/s
  70. Count of elements                        : 20
  71. Stream size                              : 559 Bytes (0%)
  72. Title                                    : Forced
  73. Language                                 : English
  74. Default                                  : No
  75. Forced                                   : No

  76. Text #2
  77. ID                                       : 5
  78. Format                                   : UTF-8
  79. Codec ID                                 : S_TEXT/UTF8
  80. Codec ID/Info                            : UTF-8 Plain Text
  81. Duration                                 : 1 h 25 min
  82. Bit rate                                 : 9 b/s
  83. Count of elements                        : 198
  84. Stream size                              : 6.14 KiB (0%)
  85. Language                                 : English
  86. Default                                  : Yes
  87. Forced                                   : No

  88. Menu
  89. 00:00:00.000                             : en:00:00:00.000
  90. 00:04:48.246                             : en:00:04:48.246
  91. 00:14:11.976                             : en:00:14:11.976
  92. 00:21:04.805                             : en:00:21:04.805
  93. 00:40:27.258                             : en:00:40:27.258
  94. 00:49:33.637                             : en:00:49:33.637
  95. 01:01:22.721                             : en:01:01:22.721
  96. 01:12:46.362                             : en:01:12:46.362
  97. 01:22:55.345                             : en:01:22:55.345
  98. 01:30:10.905                             : en:01:30:10.905
复制代码

机械人嘉韶华 Robot.Carnival.1987.1080p.BluRay.x264-SADPANDA 5.46GB-2.png






回复

使用道具 举报

级别:荣升主角 Lv.5

注册时间
2019-4-24
最后登录
2019-8-23
听众
13
收听
0
主题
0
蓝光币
87 枚
贡献
0 点
发表于 2019-8-13 14:35:49 | 显示全部楼层
楼主发贴辛苦了,谢谢楼主分享!我觉得中国高清电影网是注册对了!
回复

使用道具 举报

级别:专业龙套 Lv.4

注册时间
2019-1-22
最后登录
2019-8-20
听众
12
收听
0
主题
0
蓝光币
192 枚
贡献
0 点
发表于 2019-8-13 21:37:48 | 显示全部楼层

楼主太厉害了!楼主,电影应该很好看我觉得中国高清电影网真是个好地方!
回复

使用道具 举报

懒得打字嘛,点击右侧快捷回复 【右侧内容,后台自定义】
您需要登录后才可以回帖 登录 | 立即注册

本版积分规则

QQ|Archiver|手机版|小黑屋| 中国高清网 |网站地图

GMT+8, 2019-8-24 12:46 , Processed in 0.443137 second(s), 39 queries .

Powered by HDchina X3.4

Copyright 2017-2019©HDchina.All right reserved

返回顶部 联系我们