查看: 75|回复: 1

[8bit.SDR] 雷神2:黑暗世界 Thor.The.Dark.World.2013.2160p.BluRay.x264.8bit.SDR.DTS-HD.MA.TrueHD.7.1.Atmos-SWTYBLZ 27.79GB

[复制链接]

 成长值: 2200

级别:资源管理组

注册时间
2017-10-20
最后登录
2019-8-17
听众
1
收听
0
主题
80689
蓝光币
41951 枚
贡献
5016 点
发表于 6 天前 | 显示全部楼层 |阅读模式
雷神2:黑暗天下 Thor.The.Dark.World.2013.2160p.BluRay.x264.8bit.SDR.DTS-HD.MA.TrueHD.7.1.Atmos-SWTYBLZ 27.79GB-1.jpg

译  名 雷神2:黑暗天下 / Marvel's Thor: The Dark World / Thor 2 / 雷神2:黑暗国家 / 雷奇异侠2:黑暗天下(港) / 雷神托尔2 / 雷神索尔2:黑暗天下(台)
片  名 Thor: The Dark World
年  代 2013
产  地 美国
类  别 行动 / 奇异 / 冒险
语  言 英语
上映日期 2013-11-08(中国大陆/美国)
IMDb评分  6.9/10 from 548286 users
IMDb链接  http://www.imdb.com/title/tt1981115
豆瓣评分 7.4/10 from 252390 users
豆瓣链接 https://movie.douban.com/subject/6560058/
片  长 112分钟
导  演 阿兰·泰勒 Alan Taylor
编  剧 克里斯托弗·约斯特 Christopher Yost / 克里斯托弗·马库斯 Christopher Markus / 斯蒂芬·麦克菲利 Stephen McFeely / 唐·佩恩 Don Payne / 罗伯特·罗达特 Robert Rodat / 斯坦·李 Stan Lee / 拉里·利伯 Larry Lieber / 杰克·科比 Jack Kirby / 沃尔特·西蒙森 Walter Simonson
主  演 克里斯·海姆斯沃斯 Chris Hemsworth
       娜塔莉·波特曼 Natalie Portman
       汤姆·希德勒斯顿 Tom Hiddleston
       安东尼·霍普金斯 Anthony Hopkins
       克里斯托弗·埃克莱斯顿 Christopher Eccleston
       杰米·亚历山大 Jaimie Alexander
       扎克瑞·莱维 Zachary Levi
       雷·史蒂文森 Ray Stevenson
       浅野忠信 Tadanobu Asano
       伊德里斯·艾尔巴 Idris Elba
       蕾妮·罗素 Rene Russo
       阿德沃尔·阿吉纽依-艾格拜吉 Adewale Akinnuoye-Agbaje
       凯特·戴琳斯 Kat Dennings
       斯特兰·斯卡斯加德 Stellan Skarsg?rd
       艾丽丝·克里奇 Alice Krige
       克里夫·罗素 Clive Russell
       乔纳森·霍华德 Jonathan Howard
       克里斯·奥多德 Chris O'Dowd
       妲露拉·莱莉 Talulah Riley
       奥菲利亚·拉维邦德 Ophelia Lovibond
       本尼西奥·德尔·托罗 Benicio Del Toro
       斯坦·李 Stan Lee


标  签 美国 | 科幻 | Marvel | 漫画改编 | 漫威 | 行动 | 超级豪杰 | 2013

简  介  

  纽约大战后,雷神索尔(克里斯·海姆斯沃斯 Chris Hemsworth 饰)将弟弟洛基(汤姆·希德勒斯顿 Tom Hiddleston 饰)带回仙宫软禁起来,此外帮助九大国家安定纷争,威名扶摇直上。虽然父王奥丁(安东尼·霍普金斯 Anthony Hopkins 饰)劝其尽早即位,但索尔记忆犹新地球的美丽女孩简·福斯特(娜塔丽·波特曼 Natalie Portman 饰)。与此同时,简在和黛西及其助手伊安观察某个地区时意外被奥秘物资入侵,却也是以重逢索尔,并随其返回仙宫。使人意想不到的是,藏在简体内的物资来自太古的黑暗精灵玛勒基斯(克里斯托弗·埃克莱斯顿 Christopher Eccleston 饰)。在“天体味聚”的时辰再次到来之际,玛勒基斯诡计摧毁九大国家,缔造一个全然黑暗的宇宙。
  藏匿简的仙宫遭到重创,而索尔和洛基这对朋友兄弟也不能不联手迎战宿命的强敌……

获奖情况  

  第23届MTV电影奖(2014)
  MTV电影奖 最好赤膊表演(提名) 克里斯·海姆斯沃斯
  MTV电影奖 最好豪杰形象(提名) 克里斯·海姆斯沃斯

  第16届美国青少年挑选奖(2014)
  最好科幻/奇异电影(提名)
  最好科幻/奇异电影男演员(提名) 克里斯·海姆斯沃斯
  最好科幻/奇异电影女演员(提名) 娜塔莉·波特曼

  第4届豆瓣电影鑫像奖(2014)
  鑫豆单元 最好科幻/行动片(提名)
  豆渣单元 最渣女演员(外语)(提名) 娜塔莉·波特曼
  1. Video
  2. ID                                       : 1
  3. Format                                   : AVC
  4. Format/Info                              : Advanced Video Codec
  5. Format profile                           : <a href="/cdn-cgi/l/email-protection" class="__cf_email__" data-cfemail="e9a1808e81a9a5dcc7d8">[email protected]</a>
  6. Format settings                          : CABAC / 5 Ref Frames
  7. Format settings, CABAC                   : Yes
  8. Format settings, Reference frames        : 5 frames
  9. Codec ID                                 : V_MPEG4/ISO/AVC
  10. Duration                                 : 1 h 52 min
  11. Bit rate                                 : 25.8 Mb/s
  12. Width                                    : 3 840 pixels
  13. Height                                   : 1 600 pixels
  14. Display aspect ratio                     : 2.40:1
  15. Frame rate mode                          : Constant
  16. Frame rate                               : 23.976 (24000/1001) FPS
  17. Color space                              : YUV
  18. Chroma subsampling                       : 4:2:0
  19. Bit depth                                : 8 bits
  20. Scan type                                : Progressive
  21. Bits/(Pixel*Frame)                       : 0.175
  22. Stream size                              : 20.2 GiB (73%)
  23. Title                                    : Thor.The.Dark.World.2013.2160p.BluRay.x264.8bit.SDR.DTS-HD.MA.TrueHD.7.1.Atmos-SWTYBLZ
  24. Writing library                          : x264 core 157 r2935 545de2f
  25. Encoding settings                        : cabac=1 / ref=5 / deblock=1:-1:-1 / analyse=0x3:0x113 / me=umh / subme=10 / psy=1 / psy_rd=1.00:0.15 / mixed_ref=1 / me_range=48 / chroma_me=1 / trellis=2 / 8x8dct=1 / cqm=0 / deadzone=21,11 / fast_pskip=1 / chroma_qp_offset=-3 / threads=50 / lookahead_threads=4 / sliced_threads=0 / nr=0 / decimate=0 / interlaced=0 / bluray_compat=0 / constrained_intra=0 / bframes=3 / b_pyramid=2 / b_adapt=2 / b_bias=0 / direct=3 / weightb=1 / open_gop=0 / weightp=2 / keyint=250 / keyint_min=23 / scenecut=40 / intra_refresh=0 / rc_lookahead=50 / rc=crf / mbtree=1 / crf=15.0 / qcomp=0.60 / qpmin=0 / qpmax=69 / qpstep=4 / ip_ratio=1.40 / aq=1:1.00
  26. Default                                  : Yes
  27. Forced                                   : No

  28. Audio #1
  29. ID                                       : 2
  30. Format                                   : MLP FBA 16-ch
  31. Format/Info                              : Meridian Lossless Packing FBA with 16-channel presentation
  32. Commercial name                          : Dolby TrueHD with Dolby Atmos
  33. Codec ID                                 : A_TRUEHD
  34. Duration                                 : 1 h 52 min
  35. Bit rate mode                            : Variable
  36. Bit rate                                 : 4 579 kb/s
  37. Maximum bit rate                         : 8 301 kb/s
  38. Channel(s)                               : 8 channels
  39. Channel layout                           : L R C LFE Ls Rs Lb Rb
  40. Sampling rate                            : 48.0 kHz
  41. Frame rate                               : 1 200.000 FPS (40 SPF)
  42. Compression mode                         : Lossless
  43. Stream size                              : 3.58 GiB (13%)
  44. Title                                    : Thor.The.Dark.World.2013.2160p.BluRay.x264.8bit.SDR.DTS-HD.MA.TrueHD.7.1.Atmos-SWTYBLZ
  45. Language                                 : English
  46. Default                                  : Yes
  47. Forced                                   : No
  48. Number of dynamic objects                : 13
  49. Bed channel count                        : 1 channel
  50. Bed channel configuration                : LFE

  51. Audio #2
  52. ID                                       : 3
  53. Format                                   : DTS XLL
  54. Format/Info                              : Digital Theater Systems
  55. Commercial name                          : DTS-HD Master Audio
  56. Codec ID                                 : A_DTS
  57. Duration                                 : 1 h 52 min
  58. Bit rate mode                            : Variable
  59. Bit rate                                 : 4 185 kb/s
  60. Channel(s)                               : 8 channels
  61. Channel layout                           : C L R LFE Lb Rb Lss Rss
  62. Sampling rate                            : 48.0 kHz
  63. Frame rate                               : 93.750 FPS (512 SPF)
  64. Bit depth                                : 24 bits
  65. Compression mode                         : Lossless
  66. Stream size                              : 3.28 GiB (12%)
  67. Title                                    : Thor.The.Dark.World.2013.2160p.BluRay.x264.8bit.SDR.DTS-HD.MA.TrueHD.7.1.Atmos-SWTYBLZ
  68. Language                                 : English
  69. Default                                  : No
  70. Forced                                   : No

  71. Audio #3
  72. ID                                       : 4
  73. Format                                   : AC-3
  74. Format/Info                              : Audio Coding 3
  75. Commercial name                          : Dolby Digital
  76. Codec ID                                 : A_AC3
  77. Duration                                 : 1 h 52 min
  78. Bit rate mode                            : Constant
  79. Bit rate                                 : 640 kb/s
  80. Channel(s)                               : 6 channels
  81. Channel layout                           : L R C LFE Ls Rs
  82. Sampling rate                            : 48.0 kHz
  83. Frame rate                               : 31.250 FPS (1536 SPF)
  84. Bit depth                                : 16 bits
  85. Compression mode                         : Lossy
  86. Stream size                              : 513 MiB (2%)
  87. Title                                    : Thor.The.Dark.World.2013.2160p.BluRay.x264.8bit.SDR.DTS-HD.MA.TrueHD.7.1.Atmos-SWTYBLZ
  88. Language                                 : English
  89. Service kind                             : Complete Main
  90. Default                                  : No
  91. Forced                                   : No

  92. Text #1
  93. ID                                       : 5
  94. Format                                   : UTF-8
  95. Codec ID                                 : S_TEXT/UTF8
  96. Codec ID/Info                            : UTF-8 Plain Text
  97. Duration                                 : 1 h 13 min
  98. Bit rate                                 : 1 b/s
  99. Count of elements                        : 30
  100. Stream size                              : 995 Bytes (0%)
  101. Title                                    : English-FORCED-SRT
  102. Language                                 : English
  103. Default                                  : Yes
  104. Forced                                   : Yes

  105. Text #2
  106. ID                                       : 6
  107. Format                                   : UTF-8
  108. Codec ID                                 : S_TEXT/UTF8
  109. Codec ID/Info                            : UTF-8 Plain Text
  110. Duration                                 : 1 h 45 min
  111. Bit rate                                 : 41 b/s
  112. Count of elements                        : 1103
  113. Stream size                              : 31.6 KiB (0%)
  114. Title                                    : English-SRT
  115. Language                                 : English
  116. Default                                  : No
  117. Forced                                   : No

  118. Text #3
  119. ID                                       : 7
  120. Format                                   : PGS
  121. Muxing mode                              : zlib
  122. Codec ID                                 : S_HDMV/PGS
  123. Codec ID/Info                            : Picture based subtitle format used on BDs/HD-DVDs
  124. Duration                                 : 1 h 13 min
  125. Bit rate                                 : 562 b/s
  126. Count of elements                        : 56
  127. Stream size                              : 305 KiB (0%)
  128. Title                                    : English-FORCED-PGS
  129. Language                                 : English
  130. Default                                  : No
  131. Forced                                   : No

  132. Text #4
  133. ID                                       : 8
  134. Format                                   : PGS
  135. Muxing mode                              : zlib
  136. Codec ID                                 : S_HDMV/PGS
  137. Codec ID/Info                            : Picture based subtitle format used on BDs/HD-DVDs
  138. Duration                                 : 1 h 51 min
  139. Bit rate                                 : 34.1 kb/s
  140. Count of elements                        : 2757
  141. Stream size                              : 27.1 MiB (0%)
  142. Title                                    : English-PGS
  143. Language                                 : English
  144. Default                                  : No
  145. Forced                                   : No

  146. Text #5
  147. ID                                       : 9
  148. Format                                   : PGS
  149. Muxing mode                              : zlib
  150. Codec ID                                 : S_HDMV/PGS
  151. Codec ID/Info                            : Picture based subtitle format used on BDs/HD-DVDs
  152. Duration                                 : 1 h 51 min
  153. Bit rate                                 : 28.8 kb/s
  154. Count of elements                        : 2222
  155. Stream size                              : 23.0 MiB (0%)
  156. Title                                    : French-PGS
  157. Language                                 : French
  158. Default                                  : No
  159. Forced                                   : No

  160. Text #6
  161. ID                                       : 10
  162. Format                                   : PGS
  163. Muxing mode                              : zlib
  164. Codec ID                                 : S_HDMV/PGS
  165. Codec ID/Info                            : Picture based subtitle format used on BDs/HD-DVDs
  166. Duration                                 : 1 h 51 min
  167. Bit rate                                 : 23.9 kb/s
  168. Count of elements                        : 2124
  169. Stream size                              : 19.1 MiB (0%)
  170. Title                                    : French-PGS
  171. Language                                 : French
  172. Default                                  : No
  173. Forced                                   : No

  174. Text #7
  175. ID                                       : 11
  176. Format                                   : PGS
  177. Muxing mode                              : zlib
  178. Codec ID                                 : S_HDMV/PGS
  179. Codec ID/Info                            : Picture based subtitle format used on BDs/HD-DVDs
  180. Duration                                 : 1 h 45 min
  181. Bit rate                                 : 27.6 kb/s
  182. Count of elements                        : 2020
  183. Stream size                              : 20.7 MiB (0%)
  184. Title                                    : German-PGS
  185. Language                                 : German
  186. Default                                  : No
  187. Forced                                   : No

  188. Text #8
  189. ID                                       : 12
  190. Format                                   : PGS
  191. Muxing mode                              : zlib
  192. Codec ID                                 : S_HDMV/PGS
  193. Codec ID/Info                            : Picture based subtitle format used on BDs/HD-DVDs
  194. Duration                                 : 1 h 51 min
  195. Bit rate                                 : 29.2 kb/s
  196. Count of elements                        : 2164
  197. Stream size                              : 23.3 MiB (0%)
  198. Title                                    : Italian-PGS
  199. Language                                 : Italian
  200. Default                                  : No
  201. Forced                                   : No

  202. Text #9
  203. ID                                       : 13
  204. Format                                   : PGS
  205. Muxing mode                              : zlib
  206. Codec ID                                 : S_HDMV/PGS
  207. Codec ID/Info                            : Picture based subtitle format used on BDs/HD-DVDs
  208. Duration                                 : 1 h 51 min
  209. Bit rate                                 : 15.9 kb/s
  210. Count of elements                        : 1934
  211. Stream size                              : 12.6 MiB (0%)
  212. Title                                    : Japanese-PGS
  213. Language                                 : Japanese
  214. Default                                  : No
  215. Forced                                   : No

  216. Text #10
  217. ID                                       : 14
  218. Format                                   : PGS
  219. Muxing mode                              : zlib
  220. Codec ID                                 : S_HDMV/PGS
  221. Codec ID/Info                            : Picture based subtitle format used on BDs/HD-DVDs
  222. Duration                                 : 1 h 51 min
  223. Bit rate                                 : 26.7 kb/s
  224. Count of elements                        : 2156
  225. Stream size                              : 21.3 MiB (0%)
  226. Title                                    : Norwegian-PGS
  227. Language                                 : Norwegian
  228. Default                                  : No
  229. Forced                                   : No

  230. Text #11
  231. ID                                       : 15
  232. Format                                   : PGS
  233. Muxing mode                              : zlib
  234. Codec ID                                 : S_HDMV/PGS
  235. Codec ID/Info                            : Picture based subtitle format used on BDs/HD-DVDs
  236. Duration                                 : 1 h 51 min
  237. Bit rate                                 : 28.5 kb/s
  238. Count of elements                        : 2164
  239. Stream size                              : 22.7 MiB (0%)
  240. Title                                    : Spanish-PGS
  241. Language                                 : Spanish
  242. Default                                  : No
  243. Forced                                   : No

  244. Text #12
  245. ID                                       : 16
  246. Format                                   : PGS
  247. Muxing mode                              : zlib
  248. Codec ID                                 : S_HDMV/PGS
  249. Codec ID/Info                            : Picture based subtitle format used on BDs/HD-DVDs
  250. Duration                                 : 1 h 51 min
  251. Bit rate                                 : 24.2 kb/s
  252. Count of elements                        : 1412
  253. Stream size                              : 19.3 MiB (0%)
  254. Title                                    : Swedish-PGS
  255. Language                                 : Swedish
  256. Default                                  : No
  257. Forced                                   : No

  258. Menu
  259. 00:00:00.000                             : en:Chapter 01
  260. 00:06:13.664                             : en:Chapter 02
  261. 00:13:05.201                             : en:Chapter 03
  262. 00:18:40.994                             : en:Chapter 04
  263. 00:24:56.703                             : en:Chapter 05
  264. 00:29:07.495                             : en:Chapter 06
  265. 00:41:33.365                             : en:Chapter 07
  266. 00:49:40.227                             : en:Chapter 08
  267. 00:55:56.144                             : en:Chapter 09
  268. 01:00:08.855                             : en:Chapter 10
  269. 01:08:12.671                             : en:Chapter 11
  270. 01:12:39.897                             : en:Chapter 12
  271. 01:21:34.180                             : en:Chapter 13
  272. 01:26:22.093                             : en:Chapter 14
  273. 01:33:58.799                             : en:Chapter 15
  274. 01:38:31.363                             : en:Chapter 16
  275. 01:41:49.228                             : en:Chapter 17
复制代码

雷神2:黑暗天下 Thor.The.Dark.World.2013.2160p.BluRay.x264.8bit.SDR.DTS-HD.MA.TrueHD.7.1.Atmos-SWTYBLZ 27.79GB-2.png 雷神2:黑暗天下 Thor.The.Dark.World.2013.2160p.BluRay.x264.8bit.SDR.DTS-HD.MA.TrueHD.7.1.Atmos-SWTYBLZ 27.79GB-3.png 雷神2:黑暗天下 Thor.The.Dark.World.2013.2160p.BluRay.x264.8bit.SDR.DTS-HD.MA.TrueHD.7.1.Atmos-SWTYBLZ 27.79GB-4.png 雷神2:黑暗天下 Thor.The.Dark.World.2013.2160p.BluRay.x264.8bit.SDR.DTS-HD.MA.TrueHD.7.1.Atmos-SWTYBLZ 27.79GB-5.png 雷神2:黑暗天下 Thor.The.Dark.World.2013.2160p.BluRay.x264.8bit.SDR.DTS-HD.MA.TrueHD.7.1.Atmos-SWTYBLZ 27.79GB-6.png 雷神2:黑暗天下 Thor.The.Dark.World.2013.2160p.BluRay.x264.8bit.SDR.DTS-HD.MA.TrueHD.7.1.Atmos-SWTYBLZ 27.79GB-7.png






本帖隐藏的下载地址需要VIP会员才可阅读,您需要升级才可阅读,点击这里升级VIP

回复

使用道具 举报

级别:普通观众 Lv.2

注册时间
2019-7-28
最后登录
2019-8-17
听众
2
收听
0
主题
0
蓝光币
43 枚
贡献
0 点
发表于 5 天前 | 显示全部楼层

这个帖子不回对不起自己!我想我是一天也不能离开中国高清电影网
回复

使用道具 举报

懒得打字嘛,点击右侧快捷回复 【右侧内容,后台自定义】
您需要登录后才可以回帖 登录 | 立即注册

本版积分规则

QQ|Archiver|手机版|小黑屋| 中国高清网 |网站地图

GMT+8, 2019-8-17 20:47 , Processed in 0.495360 second(s), 39 queries .

Powered by HDchina X3.4

Copyright 2017-2019©HDchina.All right reserved

返回顶部 联系我们