查看: 119|回复: 1

[8bit.SDR] 雷神 Thor.2011.2160p.BluRay.x264.8bit.SDR.DTS-HD.MA.TrueHD.7.1.Atmos-SWTYBLZ 27.02GB

[复制链接]

 成长值: 2850

级别:资源管理组

注册时间
2017-10-20
最后登录
2019-10-17
听众
1
收听
0
主题
84967
蓝光币
55455 枚
贡献
9324 点
发表于 2019-8-11 14:10:20 | 显示全部楼层 |阅读模式
雷神 Thor.2011.2160p.BluRay.x264.8bit.SDR.DTS-HD.MA.TrueHD.7.1.Atmos-SWTYBLZ 27.02GB-1.jpg

译  名 雷神 / The Mighty Thor / 托尔 / 雷神之锤 / 雷奇异侠(港) / 雷神归来 / 雷神托尔 / 雷神索尔(台)
片  名 Thor
年  代 2011
产  地 美国
类  别 行动 / 奇异 / 冒险
语  言 英语
上映日期 2011-05-06(美国) / 2011-05-08(中国大陆)
IMDb评分  7.0/10 from 691648 users
IMDb链接  http://www.imdb.com/title/tt0800369
豆瓣评分 7.0/10 from 241891 users
豆瓣链接 https://movie.douban.com/subject/1866471/
片  长 115分钟
导  演 肯尼思·布拉纳 Kenneth Branagh
编  剧 阿什利·米勒 Ashley Miller / 扎克·施坦茨 Zack Stentz / 唐·佩恩 Don Payne / J·迈克尔·斯特拉辛斯基 J. Michael Straczynski / 马克·波托塞维奇 Mark Protosevich / 斯坦·李 Stan Lee / 拉里·利伯 Larry Lieber / 杰克·科比 Jack Kirby
主  演 克里斯·海姆斯沃斯 Chris Hemsworth
       娜塔莉·波特曼 Natalie Portman
       汤姆·希德勒斯顿 Tom Hiddleston
       安东尼·霍普金斯 Anthony Hopkins
       斯特兰·斯卡斯加德 Stellan Skarsg?rd
       凯特·戴琳斯 Kat Dennings
       克拉克·格雷格 Clark Gregg
       科鲁姆·费奥瑞 Colm Feore
       伊德里斯·艾尔巴 Idris Elba
       雷·史蒂文森 Ray Stevenson
       浅野忠信 Tadanobu Asano
       乔希·达拉斯 Josh Dallas
       杰米·亚历山大 Jaimie Alexander
       蕾妮·罗素 Rene Russo
       艾德里安娜·巴拉扎 Adriana Barraza
       马克斯米利亚诺·赫尔南德斯 Maximiliano Hernández
       杰瑞米·雷纳 Jeremy Renner
       塞缪尔·杰克逊 Samuel L. Jackson
       达科塔·高尤 Dakota Goyo
       泰德·沃普莱斯 ted allpress
       斯坦·李 Stan Lee


标  签 美国 | 科幻 | 漫画改编 | 漫威 | 行动 | 神话 | 2011 | 奇异

简  介  

  勇敢善战雷神托尔(克里斯?海姆斯沃斯 Chris Hemsworth 饰),作为永久境界阿斯加德的王位继续人,受人敬佩。但是由于一次冒失的行动,几乎挑起一场陈腐的战争,是以被父亲天神奥丁(安东尼?霍普金斯 Anthony Hopkins 饰)放逐到人世。托尔在人世熟悉了 美丽的女科学家珍?福斯特(娜塔莉?波特曼 Natalie Portman 饰)和她的工作伙伴,在他们的帮助下,托尔找到了和自己一路被贬的雷神之锤,但此时的雷神之锤并不属于他。其间,托尔的弟弟洛基为了成为阿斯加德的王,居然结合寒冰伟人,诡计在永久境界掀起一场腥风血雨。为了保持永久之界的法式,托尔的四位朋友也来到人世,他们决议带托尔返回永久之境。此时,为了阻止雷神重归永久境界,洛基派出伟人杀死托尔。损失才能和法战的托尔为了庇护无辜的人类与自己的朋友,献出了自己的生命。托尔的死打破了天神的的咒语,托尔新生并重获雷神之力克服伟人。此时,天神生命危在旦夕,托尔必须与自己的朋友们重返永久之界,保护那边的法式……
  本片改编自传奇漫画家同伴斯坦?李(Stan Lee)和杰克?科比(Jack Kirby)于1962年推出《雷神》连载漫画。

获奖情况  

  第21届MTV电影奖(2012)
  MTV电影奖 最好豪杰形象(提名) 克里斯·海姆斯沃斯

  第13届美国青少年挑选奖(2011)
  Choice Movie Breakout: Male(提名) 克里斯·海姆斯沃斯
  1. Video
  2. ID                                       : 1
  3. Format                                   : AVC
  4. Format/Info                              : Advanced Video Codec
  5. Format profile                           : <a href="/cdn-cgi/l/email-protection" class="__cf_email__" data-cfemail="3f775658577f730a110e">[email protected]</a>
  6. Format settings                          : CABAC / 5 Ref Frames
  7. Format settings, CABAC                   : Yes
  8. Format settings, Reference frames        : 5 frames
  9. Codec ID                                 : V_MPEG4/ISO/AVC
  10. Duration                                 : 1 h 54 min
  11. Bit rate                                 : 23.9 Mb/s
  12. Width                                    : 3 840 pixels
  13. Height                                   : 1 632 pixels
  14. Display aspect ratio                     : 2.35:1
  15. Frame rate mode                          : Constant
  16. Frame rate                               : 23.976 (24000/1001) FPS
  17. Color space                              : YUV
  18. Chroma subsampling                       : 4:2:0
  19. Bit depth                                : 8 bits
  20. Scan type                                : Progressive
  21. Bits/(Pixel*Frame)                       : 0.159
  22. Stream size                              : 19.2 GiB (71%)
  23. Title                                    : Thor.2011.2160p.BluRay.x264.8bit.SDR.DTS-HD.MA.TrueHD.7.1.Atmos-SWTYBLZ
  24. Writing library                          : x264 core 157 r2935 545de2f
  25. Encoding settings                        : cabac=1 / ref=5 / deblock=1:-1:-1 / analyse=0x3:0x113 / me=umh / subme=10 / psy=1 / psy_rd=1.00:0.15 / mixed_ref=1 / me_range=48 / chroma_me=1 / trellis=2 / 8x8dct=1 / cqm=0 / deadzone=21,11 / fast_pskip=1 / chroma_qp_offset=-3 / threads=51 / lookahead_threads=4 / sliced_threads=0 / nr=0 / decimate=0 / interlaced=0 / bluray_compat=0 / constrained_intra=0 / bframes=3 / b_pyramid=2 / b_adapt=2 / b_bias=0 / direct=3 / weightb=1 / open_gop=0 / weightp=2 / keyint=250 / keyint_min=23 / scenecut=40 / intra_refresh=0 / rc_lookahead=50 / rc=crf / mbtree=1 / crf=18.0 / qcomp=0.60 / qpmin=0 / qpmax=69 / qpstep=4 / ip_ratio=1.40 / aq=1:1.00
  26. Default                                  : Yes
  27. Forced                                   : No

  28. Audio #1
  29. ID                                       : 2
  30. Format                                   : MLP FBA 16-ch
  31. Format/Info                              : Meridian Lossless Packing FBA with 16-channel presentation
  32. Commercial name                          : Dolby TrueHD with Dolby Atmos
  33. Codec ID                                 : A_TRUEHD
  34. Duration                                 : 1 h 54 min
  35. Bit rate mode                            : Variable
  36. Bit rate                                 : 4 938 kb/s
  37. Maximum bit rate                         : 8 058 kb/s
  38. Channel(s)                               : 8 channels
  39. Channel layout                           : L R C LFE Ls Rs Lb Rb
  40. Sampling rate                            : 48.0 kHz
  41. Frame rate                               : 1 200.000 FPS (40 SPF)
  42. Compression mode                         : Lossless
  43. Stream size                              : 3.96 GiB (15%)
  44. Title                                    : Thor.2011.2160p.BluRay.x264.8bit.SDR.DTS-HD.MA.TrueHD.7.1.Atmos-SWTYBLZ
  45. Language                                 : English
  46. Default                                  : Yes
  47. Forced                                   : No
  48. Number of dynamic objects                : 13
  49. Bed channel count                        : 1 channel
  50. Bed channel configuration                : LFE

  51. Audio #2
  52. ID                                       : 3
  53. Format                                   : DTS XLL
  54. Format/Info                              : Digital Theater Systems
  55. Commercial name                          : DTS-HD Master Audio
  56. Codec ID                                 : A_DTS
  57. Duration                                 : 1 h 54 min
  58. Bit rate mode                            : Variable
  59. Bit rate                                 : 3 964 kb/s
  60. Channel(s)                               : 8 channels
  61. Channel layout                           : C L R LFE Lb Rb Lss Rss
  62. Sampling rate                            : 48.0 kHz
  63. Frame rate                               : 93.750 FPS (512 SPF)
  64. Bit depth                                : 24 bits
  65. Compression mode                         : Lossless
  66. Stream size                              : 3.18 GiB (12%)
  67. Title                                    : Thor.2011.2160p.BluRay.x264.8bit.SDR.DTS-HD.MA.TrueHD.7.1.Atmos-SWTYBLZ
  68. Language                                 : English
  69. Default                                  : No
  70. Forced                                   : No

  71. Audio #3
  72. ID                                       : 4
  73. Format                                   : AC-3
  74. Format/Info                              : Audio Coding 3
  75. Commercial name                          : Dolby Digital
  76. Codec ID                                 : A_AC3
  77. Duration                                 : 1 h 54 min
  78. Bit rate mode                            : Constant
  79. Bit rate                                 : 640 kb/s
  80. Channel(s)                               : 6 channels
  81. Channel layout                           : L R C LFE Ls Rs
  82. Sampling rate                            : 48.0 kHz
  83. Frame rate                               : 31.250 FPS (1536 SPF)
  84. Bit depth                                : 16 bits
  85. Compression mode                         : Lossy
  86. Stream size                              : 526 MiB (2%)
  87. Title                                    : Thor.2011.2160p.BluRay.x264.8bit.SDR.DTS-HD.MA.TrueHD.7.1.Atmos-SWTYBLZ
  88. Language                                 : English
  89. Service kind                             : Complete Main
  90. Default                                  : No
  91. Forced                                   : No

  92. Text #1
  93. ID                                       : 5
  94. Format                                   : UTF-8
  95. Codec ID                                 : S_TEXT/UTF8
  96. Codec ID/Info                            : UTF-8 Plain Text
  97. Duration                                 : 1 h 53 min
  98. Bit rate                                 : 39 b/s
  99. Count of elements                        : 1095
  100. Stream size                              : 33.1 KiB (0%)
  101. Title                                    : English-SRT
  102. Language                                 : English
  103. Default                                  : Yes
  104. Forced                                   : No

  105. Text #2
  106. ID                                       : 6
  107. Format                                   : PGS
  108. Muxing mode                              : zlib
  109. Codec ID                                 : S_HDMV/PGS
  110. Codec ID/Info                            : Picture based subtitle format used on BDs/HD-DVDs
  111. Duration                                 : 1 h 53 min
  112. Bit rate                                 : 32.3 kb/s
  113. Count of elements                        : 2416
  114. Stream size                              : 26.3 MiB (0%)
  115. Title                                    : English-PGS
  116. Language                                 : English
  117. Default                                  : No
  118. Forced                                   : No

  119. Text #3
  120. ID                                       : 7
  121. Format                                   : PGS
  122. Muxing mode                              : zlib
  123. Codec ID                                 : S_HDMV/PGS
  124. Codec ID/Info                            : Picture based subtitle format used on BDs/HD-DVDs
  125. Duration                                 : 1 h 53 min
  126. Bit rate                                 : 27.0 kb/s
  127. Count of elements                        : 2214
  128. Stream size                              : 22.0 MiB (0%)
  129. Title                                    : French-PGS
  130. Language                                 : French
  131. Default                                  : No
  132. Forced                                   : No

  133. Text #4
  134. ID                                       : 8
  135. Format                                   : PGS
  136. Muxing mode                              : zlib
  137. Codec ID                                 : S_HDMV/PGS
  138. Codec ID/Info                            : Picture based subtitle format used on BDs/HD-DVDs
  139. Duration                                 : 1 h 53 min
  140. Bit rate                                 : 24.8 kb/s
  141. Count of elements                        : 2084
  142. Stream size                              : 20.2 MiB (0%)
  143. Title                                    : French-PGS
  144. Language                                 : French
  145. Default                                  : No
  146. Forced                                   : No

  147. Text #5
  148. ID                                       : 9
  149. Format                                   : PGS
  150. Muxing mode                              : zlib
  151. Codec ID                                 : S_HDMV/PGS
  152. Codec ID/Info                            : Picture based subtitle format used on BDs/HD-DVDs
  153. Duration                                 : 1 h 53 min
  154. Bit rate                                 : 32.8 kb/s
  155. Count of elements                        : 2214
  156. Stream size                              : 26.5 MiB (0%)
  157. Title                                    : German-PGS
  158. Language                                 : German
  159. Default                                  : No
  160. Forced                                   : No

  161. Text #6
  162. ID                                       : 10
  163. Format                                   : PGS
  164. Muxing mode                              : zlib
  165. Codec ID                                 : S_HDMV/PGS
  166. Codec ID/Info                            : Picture based subtitle format used on BDs/HD-DVDs
  167. Duration                                 : 1 h 53 min
  168. Bit rate                                 : 28.4 kb/s
  169. Count of elements                        : 2094
  170. Stream size                              : 23.0 MiB (0%)
  171. Title                                    : Italian-PGS
  172. Language                                 : Italian
  173. Default                                  : No
  174. Forced                                   : No

  175. Text #7
  176. ID                                       : 11
  177. Format                                   : PGS
  178. Muxing mode                              : zlib
  179. Codec ID                                 : S_HDMV/PGS
  180. Codec ID/Info                            : Picture based subtitle format used on BDs/HD-DVDs
  181. Duration                                 : 1 h 53 min
  182. Bit rate                                 : 19.1 kb/s
  183. Count of elements                        : 2119
  184. Stream size                              : 15.5 MiB (0%)
  185. Title                                    : Japanese-PGS
  186. Language                                 : Japanese
  187. Default                                  : No
  188. Forced                                   : No

  189. Text #8
  190. ID                                       : 12
  191. Format                                   : PGS
  192. Muxing mode                              : zlib
  193. Codec ID                                 : S_HDMV/PGS
  194. Codec ID/Info                            : Picture based subtitle format used on BDs/HD-DVDs
  195. Duration                                 : 1 h 53 min
  196. Bit rate                                 : 24.9 kb/s
  197. Count of elements                        : 2108
  198. Stream size                              : 20.2 MiB (0%)
  199. Title                                    : Norwegian-PGS
  200. Language                                 : Norwegian
  201. Default                                  : No
  202. Forced                                   : No

  203. Text #9
  204. ID                                       : 13
  205. Format                                   : PGS
  206. Muxing mode                              : zlib
  207. Codec ID                                 : S_HDMV/PGS
  208. Codec ID/Info                            : Picture based subtitle format used on BDs/HD-DVDs
  209. Duration                                 : 1 h 53 min
  210. Bit rate                                 : 24.1 kb/s
  211. Count of elements                        : 2118
  212. Stream size                              : 19.7 MiB (0%)
  213. Title                                    : Spanish-PGS
  214. Language                                 : Spanish
  215. Default                                  : No
  216. Forced                                   : No

  217. Text #10
  218. ID                                       : 14
  219. Format                                   : PGS
  220. Muxing mode                              : zlib
  221. Codec ID                                 : S_HDMV/PGS
  222. Codec ID/Info                            : Picture based subtitle format used on BDs/HD-DVDs
  223. Duration                                 : 1 h 53 min
  224. Bit rate                                 : 28.1 kb/s
  225. Count of elements                        : 2118
  226. Stream size                              : 22.7 MiB (0%)
  227. Title                                    : Swedish-PGS
  228. Language                                 : Swedish
  229. Default                                  : No
  230. Forced                                   : No

  231. Menu
  232. 00:00:00.000                             : en:Chapter 01
  233. 00:10:37.637                             : en:Chapter 02
  234. 00:17:32.635                             : en:Chapter 03
  235. 00:26:02.102                             : en:Chapter 04
  236. 00:32:27.696                             : en:Chapter 05
  237. 00:37:27.912                             : en:Chapter 06
  238. 00:42:13.698                             : en:Chapter 07
  239. 00:52:09.877                             : en:Chapter 08
  240. 01:01:24.472                             : en:Chapter 09
  241. 01:08:45.038                             : en:Chapter 10
  242. 01:15:38.659                             : en:Chapter 11
  243. 01:21:18.749                             : en:Chapter 12
  244. 01:30:34.846                             : en:Chapter 13
  245. 01:40:57.677                             : en:Chapter 14
  246. 01:45:13.224                             : en:Chapter 15
  247. 01:53:05.696                             : en:Chapter 16
复制代码

雷神 Thor.2011.2160p.BluRay.x264.8bit.SDR.DTS-HD.MA.TrueHD.7.1.Atmos-SWTYBLZ 27.02GB-2.png 雷神 Thor.2011.2160p.BluRay.x264.8bit.SDR.DTS-HD.MA.TrueHD.7.1.Atmos-SWTYBLZ 27.02GB-3.png 雷神 Thor.2011.2160p.BluRay.x264.8bit.SDR.DTS-HD.MA.TrueHD.7.1.Atmos-SWTYBLZ 27.02GB-4.png 雷神 Thor.2011.2160p.BluRay.x264.8bit.SDR.DTS-HD.MA.TrueHD.7.1.Atmos-SWTYBLZ 27.02GB-5.png 雷神 Thor.2011.2160p.BluRay.x264.8bit.SDR.DTS-HD.MA.TrueHD.7.1.Atmos-SWTYBLZ 27.02GB-6.png 雷神 Thor.2011.2160p.BluRay.x264.8bit.SDR.DTS-HD.MA.TrueHD.7.1.Atmos-SWTYBLZ 27.02GB-7.png 雷神 Thor.2011.2160p.BluRay.x264.8bit.SDR.DTS-HD.MA.TrueHD.7.1.Atmos-SWTYBLZ 27.02GB-8.png






本帖隐藏的下载地址需要VIP会员才可阅读,您需要升级才可阅读,点击这里升级VIP

VIP会员免费任意下载本站所有资源!---点击开通
回复

使用道具 举报

级别:普通观众 Lv.2

注册时间
2018-12-10
最后登录
2019-9-3
听众
10
收听
0
主题
0
蓝光币
11 枚
贡献
0 点
QQ
发表于 2019-8-12 08:54:51 | 显示全部楼层
楼主发贴辛苦了,谢谢楼主分享!我觉得中国高清电影网是注册对了!
VIP会员免费任意下载本站所有资源!---点击开通
回复

使用道具 举报

懒得打字嘛,点击右侧快捷回复 【右侧内容,后台自定义】
您需要登录后才可以回帖 登录 | 立即注册

本版积分规则

QQ|Archiver|手机版|小黑屋| 中国高清网 |网站地图

GMT+8, 2019-10-17 20:31 , Processed in 0.812414 second(s), 42 queries .

Powered by HDchina X3.4

Copyright 2017-2019©HDchina.All right reserved

返回顶部 联系我们