查看: 156|回复: 0

[10bit.SDR] 雷神 Thor.2011.2160p.BluRay.x265.10bit.SDR.DTS-HD.MA.TrueHD.7.1.Atmos-SWTYBLZ 25.83GB

[复制链接]

 成长值: 3420

级别:资源管理组

注册时间
2017-10-20
最后登录
2019-12-11
听众
1
收听
0
主题
88410
蓝光币
70047 枚
贡献
12772 点
发表于 2019-8-11 14:08:46 | 显示全部楼层 |阅读模式
雷神 Thor.2011.2160p.BluRay.x265.10bit.SDR.DTS-HD.MA.TrueHD.7.1.Atmos-SWTYBLZ 25.83GB-1.jpg

译  名 雷神 / The Mighty Thor / 托尔 / 雷神之锤 / 雷奇异侠(港) / 雷神归来 / 雷神托尔 / 雷神索尔(台)
片  名 Thor
年  代 2011
产  地 美国
类  别 行动 / 奇异 / 冒险
语  言 英语
上映日期 2011-05-06(美国) / 2011-05-08(中国大陆)
IMDb评分  7.0/10 from 691648 users
IMDb链接  http://www.imdb.com/title/tt0800369
豆瓣评分 7.0/10 from 241891 users
豆瓣链接 https://movie.douban.com/subject/1866471/
片  长 115分钟
导  演 肯尼思·布拉纳 Kenneth Branagh
编  剧 阿什利·米勒 Ashley Miller / 扎克·施坦茨 Zack Stentz / 唐·佩恩 Don Payne / J·迈克尔·斯特拉辛斯基 J. Michael Straczynski / 马克·波托塞维奇 Mark Protosevich / 斯坦·李 Stan Lee / 拉里·利伯 Larry Lieber / 杰克·科比 Jack Kirby
主  演 克里斯·海姆斯沃斯 Chris Hemsworth
       娜塔莉·波特曼 Natalie Portman
       汤姆·希德勒斯顿 Tom Hiddleston
       安东尼·霍普金斯 Anthony Hopkins
       斯特兰·斯卡斯加德 Stellan Skarsg?rd
       凯特·戴琳斯 Kat Dennings
       克拉克·格雷格 Clark Gregg
       科鲁姆·费奥瑞 Colm Feore
       伊德里斯·艾尔巴 Idris Elba
       雷·史蒂文森 Ray Stevenson
       浅野忠信 Tadanobu Asano
       乔希·达拉斯 Josh Dallas
       杰米·亚历山大 Jaimie Alexander
       蕾妮·罗素 Rene Russo
       艾德里安娜·巴拉扎 Adriana Barraza
       马克斯米利亚诺·赫尔南德斯 Maximiliano Hernández
       杰瑞米·雷纳 Jeremy Renner
       塞缪尔·杰克逊 Samuel L. Jackson
       达科塔·高尤 Dakota Goyo
       泰德·沃普莱斯 ted allpress
       斯坦·李 Stan Lee


标  签 美国 | 科幻 | 漫画改编 | 漫威 | 行动 | 神话 | 2011 | 奇异

简  介  

  勇敢善战雷神托尔(克里斯?海姆斯沃斯 Chris Hemsworth 饰),作为永久境界阿斯加德的王位继续人,受人敬佩。但是由于一次冒失的行动,几乎挑起一场陈腐的战争,是以被父亲天神奥丁(安东尼?霍普金斯 Anthony Hopkins 饰)放逐到人世。托尔在人世熟悉了 美丽的女科学家珍?福斯特(娜塔莉?波特曼 Natalie Portman 饰)和她的工作伙伴,在他们的帮助下,托尔找到了和自己一路被贬的雷神之锤,但此时的雷神之锤并不属于他。其间,托尔的弟弟洛基为了成为阿斯加德的王,居然结合寒冰伟人,诡计在永久境界掀起一场腥风血雨。为了保持永久之界的法式,托尔的四位朋友也来到人世,他们决议带托尔返回永久之境。此时,为了阻止雷神重归永久境界,洛基派出伟人杀死托尔。损失才能和法战的托尔为了庇护无辜的人类与自己的朋友,献出了自己的生命。托尔的死打破了天神的的咒语,托尔新生并重获雷神之力克服伟人。此时,天神生命危在旦夕,托尔必须与自己的朋友们重返永久之界,保护那边的法式……
  本片改编自传奇漫画家同伴斯坦?李(Stan Lee)和杰克?科比(Jack Kirby)于1962年推出《雷神》连载漫画。

获奖情况  

  第21届MTV电影奖(2012)
  MTV电影奖 最好豪杰形象(提名) 克里斯·海姆斯沃斯

  第13届美国青少年挑选奖(2011)
  Choice Movie Breakout: Male(提名) 克里斯·海姆斯沃斯
  1. Video
  2. ID                                       : 1
  3. Format                                   : HEVC
  4. Format/Info                              : High Efficiency Video Coding
  5. Format profile                           : Main <a href="/cdn-cgi/l/email-protection" class="__cf_email__" data-cfemail="d8e9e89894edf6e9">[email protected]</a>@High
  6. Codec ID                                 : V_MPEGH/ISO/HEVC
  7. Duration                                 : 1 h 54 min
  8. Bit rate                                 : 22.4 Mb/s
  9. Width                                    : 3 840 pixels
  10. Height                                   : 1 632 pixels
  11. Display aspect ratio                     : 2.35:1
  12. Frame rate mode                          : Constant
  13. Frame rate                               : 23.976 (24000/1001) FPS
  14. Color space                              : YUV
  15. Chroma subsampling                       : 4:2:0
  16. Bit depth                                : 10 bits
  17. Bits/(Pixel*Frame)                       : 0.149
  18. Stream size                              : 17.9 GiB (70%)
  19. Title                                    : Thor.2011.2160p.BluRay.x265.10bit.SDR.DTS-HD.MA.TrueHD.7.1.Atmos-SWTYBLZ
  20. Writing library                          : x265 3.0ed72af837053:[Windows][GCC 8.2.0][64 bit] 10bit
  21. Encoding settings                        : cpuid=1111039 / frame-threads=16 / numa-pools=24,24,24,24 / wpp / no-pmode / no-pme / no-psnr / no-ssim / log-level=2 / input-csp=1 / input-res=3840x1632 / interlace=0 / total-frames=165165 / level-idc=51 / high-tier=1 / uhd-bd=0 / ref=3 / no-allow-non-conformance / repeat-headers / annexb / aud / hrd / info / hash=0 / no-temporal-layers / no-open-gop / min-keyint=1 / keyint=24 / gop-lookahead=0 / bframes=4 / b-adapt=2 / b-pyramid / bframe-bias=0 / rc-lookahead=25 / lookahead-slices=4 / scenecut=40 / radl=0 / no-splice / no-intra-refresh / ctu=64 / min-cu-size=8 / no-rect / no-amp / max-tu-size=32 / tu-inter-depth=1 / tu-intra-depth=1 / limit-tu=0 / rdoq-level=0 / dynamic-rd=0.00 / no-ssim-rd / signhide / no-tskip / nr-intra=0 / nr-inter=0 / no-constrained-intra / strong-intra-smoothing / max-merge=2 / limit-refs=3 / no-limit-modes / me=1 / subme=2 / merange=57 / temporal-mvp / weightp / no-weightb / no-analyze-src-pics / deblock=0:0 / no-sao / no-sao-non-deblock / rd=3 / no-early-skip / rskip / no-fast-intra / no-tskip-fast / no-cu-lossless / no-b-intra / no-splitrd-skip / rdpenalty=0 / psy-rd=2.00 / psy-rdoq=0.00 / no-rd-refine / no-lossless / cbqpoffs=0 / crqpoffs=0 / rc=crf / crf=16.0 / qcomp=0.60 / qpstep=4 / stats-write=0 / stats-read=0 / vbv-maxrate=160000 / vbv-bufsize=160000 / vbv-init=0.9 / crf-max=0.0 / crf-min=0.0 / ipratio=1.40 / pbratio=1.30 / aq-mode=1 / aq-strength=1.00 / cutree / zone-count=0 / no-strict-cbr / qg-size=32 / no-rc-grain / qpmax=69 / qpmin=0 / no-const-vbv / sar=1 / overscan=0 / videoformat=5 / range=0 / colorprim=2 / transfer=2 / colormatrix=2 / chromaloc=0 / display-window=0 / max-cll=0,0 / min-luma=0 / max-luma=1023 / log2-max-poc-lsb=8 / vui-timing-info / vui-hrd-info / slices=1 / opt-qp-pps / opt-ref-list-length-pps / no-multi-pass-opt-rps / scenecut-bias=0.05 / no-opt-cu-delta-qp / no-aq-motion / no-hdr / no-hdr-opt / no-dhdr10-opt / no-idr-recovery-sei / analysis-reuse-level=5 / scale-factor=0 / refine-intra=0 / refine-inter=0 / refine-mv=0 / refine-ctu-distortion=0 / no-limit-sao / ctu-info=0 / no-lowpass-dct / refine-analysis-type=0 / copy-pic=1 / max-ausize-factor=1.0 / no-dynamic-refine / no-single-sei / no-hevc-aq / qp-adaptation-range=1.00
  22. Default                                  : Yes
  23. Forced                                   : No

  24. Audio #1
  25. ID                                       : 2
  26. Format                                   : MLP FBA 16-ch
  27. Format/Info                              : Meridian Lossless Packing FBA with 16-channel presentation
  28. Commercial name                          : Dolby TrueHD with Dolby Atmos
  29. Codec ID                                 : A_TRUEHD
  30. Duration                                 : 1 h 54 min
  31. Bit rate mode                            : Variable
  32. Bit rate                                 : 4 938 kb/s
  33. Maximum bit rate                         : 8 058 kb/s
  34. Channel(s)                               : 8 channels
  35. Channel layout                           : L R C LFE Ls Rs Lb Rb
  36. Sampling rate                            : 48.0 kHz
  37. Frame rate                               : 1 200.000 FPS (40 SPF)
  38. Compression mode                         : Lossless
  39. Stream size                              : 3.96 GiB (15%)
  40. Title                                    : Thor.2011.2160p.BluRay.x265.10bit.SDR.DTS-HD.MA.TrueHD.7.1.Atmos-SWTYBLZ
  41. Language                                 : English
  42. Default                                  : Yes
  43. Forced                                   : No
  44. Number of dynamic objects                : 13
  45. Bed channel count                        : 1 channel
  46. Bed channel configuration                : LFE

  47. Audio #2
  48. ID                                       : 3
  49. Format                                   : DTS XLL
  50. Format/Info                              : Digital Theater Systems
  51. Commercial name                          : DTS-HD Master Audio
  52. Codec ID                                 : A_DTS
  53. Duration                                 : 1 h 54 min
  54. Bit rate mode                            : Variable
  55. Bit rate                                 : 3 964 kb/s
  56. Channel(s)                               : 8 channels
  57. Channel layout                           : C L R LFE Lb Rb Lss Rss
  58. Sampling rate                            : 48.0 kHz
  59. Frame rate                               : 93.750 FPS (512 SPF)
  60. Bit depth                                : 24 bits
  61. Compression mode                         : Lossless
  62. Stream size                              : 3.18 GiB (12%)
  63. Title                                    : Thor.2011.2160p.BluRay.x265.10bit.SDR.DTS-HD.MA.TrueHD.7.1.Atmos-SWTYBLZ
  64. Language                                 : English
  65. Default                                  : No
  66. Forced                                   : No

  67. Audio #3
  68. ID                                       : 4
  69. Format                                   : AC-3
  70. Format/Info                              : Audio Coding 3
  71. Commercial name                          : Dolby Digital
  72. Codec ID                                 : A_AC3
  73. Duration                                 : 1 h 54 min
  74. Bit rate mode                            : Constant
  75. Bit rate                                 : 640 kb/s
  76. Channel(s)                               : 6 channels
  77. Channel layout                           : L R C LFE Ls Rs
  78. Sampling rate                            : 48.0 kHz
  79. Frame rate                               : 31.250 FPS (1536 SPF)
  80. Bit depth                                : 16 bits
  81. Compression mode                         : Lossy
  82. Stream size                              : 526 MiB (2%)
  83. Title                                    : Thor.2011.2160p.BluRay.x264.8bit.SDR.DTS-HD.MA.TrueHD.7.1.Atmos-SWTYBLZ
  84. Language                                 : English
  85. Service kind                             : Complete Main
  86. Default                                  : No
  87. Forced                                   : No

  88. Text #1
  89. ID                                       : 5
  90. Format                                   : UTF-8
  91. Codec ID                                 : S_TEXT/UTF8
  92. Codec ID/Info                            : UTF-8 Plain Text
  93. Duration                                 : 1 h 53 min
  94. Bit rate                                 : 39 b/s
  95. Count of elements                        : 1095
  96. Stream size                              : 33.1 KiB (0%)
  97. Title                                    : English-SRT
  98. Language                                 : English
  99. Default                                  : Yes
  100. Forced                                   : No

  101. Text #2
  102. ID                                       : 6
  103. Format                                   : PGS
  104. Muxing mode                              : zlib
  105. Codec ID                                 : S_HDMV/PGS
  106. Codec ID/Info                            : Picture based subtitle format used on BDs/HD-DVDs
  107. Duration                                 : 1 h 53 min
  108. Bit rate                                 : 32.3 kb/s
  109. Count of elements                        : 2416
  110. Stream size                              : 26.3 MiB (0%)
  111. Title                                    : English-PGS
  112. Language                                 : English
  113. Default                                  : No
  114. Forced                                   : No

  115. Text #3
  116. ID                                       : 7
  117. Format                                   : PGS
  118. Muxing mode                              : zlib
  119. Codec ID                                 : S_HDMV/PGS
  120. Codec ID/Info                            : Picture based subtitle format used on BDs/HD-DVDs
  121. Duration                                 : 1 h 53 min
  122. Bit rate                                 : 27.0 kb/s
  123. Count of elements                        : 2214
  124. Stream size                              : 22.0 MiB (0%)
  125. Title                                    : French-PGS
  126. Language                                 : French
  127. Default                                  : No
  128. Forced                                   : No

  129. Text #4
  130. ID                                       : 8
  131. Format                                   : PGS
  132. Muxing mode                              : zlib
  133. Codec ID                                 : S_HDMV/PGS
  134. Codec ID/Info                            : Picture based subtitle format used on BDs/HD-DVDs
  135. Duration                                 : 1 h 53 min
  136. Bit rate                                 : 24.8 kb/s
  137. Count of elements                        : 2084
  138. Stream size                              : 20.2 MiB (0%)
  139. Title                                    : French-PGS
  140. Language                                 : French
  141. Default                                  : No
  142. Forced                                   : No

  143. Text #5
  144. ID                                       : 9
  145. Format                                   : PGS
  146. Muxing mode                              : zlib
  147. Codec ID                                 : S_HDMV/PGS
  148. Codec ID/Info                            : Picture based subtitle format used on BDs/HD-DVDs
  149. Duration                                 : 1 h 53 min
  150. Bit rate                                 : 32.8 kb/s
  151. Count of elements                        : 2214
  152. Stream size                              : 26.5 MiB (0%)
  153. Title                                    : German-PGS
  154. Language                                 : German
  155. Default                                  : No
  156. Forced                                   : No

  157. Text #6
  158. ID                                       : 10
  159. Format                                   : PGS
  160. Muxing mode                              : zlib
  161. Codec ID                                 : S_HDMV/PGS
  162. Codec ID/Info                            : Picture based subtitle format used on BDs/HD-DVDs
  163. Duration                                 : 1 h 53 min
  164. Bit rate                                 : 28.4 kb/s
  165. Count of elements                        : 2094
  166. Stream size                              : 23.0 MiB (0%)
  167. Title                                    : Italian-PGS
  168. Language                                 : Italian
  169. Default                                  : No
  170. Forced                                   : No

  171. Text #7
  172. ID                                       : 11
  173. Format                                   : PGS
  174. Muxing mode                              : zlib
  175. Codec ID                                 : S_HDMV/PGS
  176. Codec ID/Info                            : Picture based subtitle format used on BDs/HD-DVDs
  177. Duration                                 : 1 h 53 min
  178. Bit rate                                 : 19.1 kb/s
  179. Count of elements                        : 2119
  180. Stream size                              : 15.5 MiB (0%)
  181. Title                                    : Japanese-PGS
  182. Language                                 : Japanese
  183. Default                                  : No
  184. Forced                                   : No

  185. Text #8
  186. ID                                       : 12
  187. Format                                   : PGS
  188. Muxing mode                              : zlib
  189. Codec ID                                 : S_HDMV/PGS
  190. Codec ID/Info                            : Picture based subtitle format used on BDs/HD-DVDs
  191. Duration                                 : 1 h 53 min
  192. Bit rate                                 : 24.9 kb/s
  193. Count of elements                        : 2108
  194. Stream size                              : 20.2 MiB (0%)
  195. Title                                    : Norwegian-PGS
  196. Language                                 : Norwegian
  197. Default                                  : No
  198. Forced                                   : No

  199. Text #9
  200. ID                                       : 13
  201. Format                                   : PGS
  202. Muxing mode                              : zlib
  203. Codec ID                                 : S_HDMV/PGS
  204. Codec ID/Info                            : Picture based subtitle format used on BDs/HD-DVDs
  205. Duration                                 : 1 h 53 min
  206. Bit rate                                 : 24.1 kb/s
  207. Count of elements                        : 2118
  208. Stream size                              : 19.7 MiB (0%)
  209. Title                                    : Spanish-PGS
  210. Language                                 : Spanish
  211. Default                                  : No
  212. Forced                                   : No

  213. Text #10
  214. ID                                       : 14
  215. Format                                   : PGS
  216. Muxing mode                              : zlib
  217. Codec ID                                 : S_HDMV/PGS
  218. Codec ID/Info                            : Picture based subtitle format used on BDs/HD-DVDs
  219. Duration                                 : 1 h 53 min
  220. Bit rate                                 : 28.1 kb/s
  221. Count of elements                        : 2118
  222. Stream size                              : 22.7 MiB (0%)
  223. Title                                    : Swedish-PGS
  224. Language                                 : Swedish
  225. Default                                  : No
  226. Forced                                   : No

  227. Menu
  228. 00:00:00.000                             : en:Chapter 01
  229. 00:10:37.637                             : en:Chapter 02
  230. 00:17:32.635                             : en:Chapter 03
  231. 00:26:02.102                             : en:Chapter 04
  232. 00:32:27.696                             : en:Chapter 05
  233. 00:37:27.912                             : en:Chapter 06
  234. 00:42:13.698                             : en:Chapter 07
  235. 00:52:09.877                             : en:Chapter 08
  236. 01:01:24.472                             : en:Chapter 09
  237. 01:08:45.038                             : en:Chapter 10
  238. 01:15:38.659                             : en:Chapter 11
  239. 01:21:18.749                             : en:Chapter 12
  240. 01:30:34.846                             : en:Chapter 13
  241. 01:40:57.677                             : en:Chapter 14
  242. 01:45:13.224                             : en:Chapter 15
  243. 01:53:05.696                             : en:Chapter 16
复制代码

雷神 Thor.2011.2160p.BluRay.x265.10bit.SDR.DTS-HD.MA.TrueHD.7.1.Atmos-SWTYBLZ 25.83GB-2.png 雷神 Thor.2011.2160p.BluRay.x265.10bit.SDR.DTS-HD.MA.TrueHD.7.1.Atmos-SWTYBLZ 25.83GB-3.png 雷神 Thor.2011.2160p.BluRay.x265.10bit.SDR.DTS-HD.MA.TrueHD.7.1.Atmos-SWTYBLZ 25.83GB-4.png 雷神 Thor.2011.2160p.BluRay.x265.10bit.SDR.DTS-HD.MA.TrueHD.7.1.Atmos-SWTYBLZ 25.83GB-5.png 雷神 Thor.2011.2160p.BluRay.x265.10bit.SDR.DTS-HD.MA.TrueHD.7.1.Atmos-SWTYBLZ 25.83GB-6.png 雷神 Thor.2011.2160p.BluRay.x265.10bit.SDR.DTS-HD.MA.TrueHD.7.1.Atmos-SWTYBLZ 25.83GB-7.png 雷神 Thor.2011.2160p.BluRay.x265.10bit.SDR.DTS-HD.MA.TrueHD.7.1.Atmos-SWTYBLZ 25.83GB-8.png






本帖隐藏的下载地址需要VIP会员才可阅读,您需要升级才可阅读,点击这里升级VIP

VIP会员免费任意下载本站所有资源!---点击开通
回复

使用道具 举报

懒得打字嘛,点击右侧快捷回复 【右侧内容,后台自定义】
您需要登录后才可以回帖 登录 | 立即注册

本版积分规则

QQ|Archiver|手机版|小黑屋| 中国高清网 |网站地图

GMT+8, 2019-12-11 14:10 , Processed in 0.288848 second(s), 38 queries .

Powered by HDchina X3.4

Copyright 2017-2019©HDchina.All right reserved

返回顶部 联系我们