查看: 174|回复: 0

[10bit.SDR] 雷神2:黑暗世界 Thor.The.Dark.World.2013.2160p.BluRay.x265.10bit.SDR.DTS-HD.MA.TrueHD.7.1.Atmos-SWTYBLZ 24.90GB

[复制链接]

 成长值: 3420

级别:资源管理组

注册时间
2017-10-20
最后登录
2019-12-11
听众
1
收听
0
主题
88410
蓝光币
70033 枚
贡献
12772 点
发表于 2019-8-11 14:07:22 | 显示全部楼层 |阅读模式
雷神2:黑暗天下 Thor.The.Dark.World.2013.2160p.BluRay.x265.10bit.SDR.DTS-HD.MA.TrueHD.7.1.Atmos-SWTYBLZ 24.90GB-1.jpg

译  名 雷神2:黑暗天下 / Marvel's Thor: The Dark World / Thor 2 / 雷神2:黑暗国家 / 雷奇异侠2:黑暗天下(港) / 雷神托尔2 / 雷神索尔2:黑暗天下(台)
片  名 Thor: The Dark World
年  代 2013
产  地 美国
类  别 行动 / 奇异 / 冒险
语  言 英语
上映日期 2013-11-08(中国大陆/美国)
IMDb评分  6.9/10 from 548286 users
IMDb链接  http://www.imdb.com/title/tt1981115
豆瓣评分 7.4/10 from 252390 users
豆瓣链接 https://movie.douban.com/subject/6560058/
片  长 112分钟
导  演 阿兰·泰勒 Alan Taylor
编  剧 克里斯托弗·约斯特 Christopher Yost / 克里斯托弗·马库斯 Christopher Markus / 斯蒂芬·麦克菲利 Stephen McFeely / 唐·佩恩 Don Payne / 罗伯特·罗达特 Robert Rodat / 斯坦·李 Stan Lee / 拉里·利伯 Larry Lieber / 杰克·科比 Jack Kirby / 沃尔特·西蒙森 Walter Simonson
主  演 克里斯·海姆斯沃斯 Chris Hemsworth
       娜塔莉·波特曼 Natalie Portman
       汤姆·希德勒斯顿 Tom Hiddleston
       安东尼·霍普金斯 Anthony Hopkins
       克里斯托弗·埃克莱斯顿 Christopher Eccleston
       杰米·亚历山大 Jaimie Alexander
       扎克瑞·莱维 Zachary Levi
       雷·史蒂文森 Ray Stevenson
       浅野忠信 Tadanobu Asano
       伊德里斯·艾尔巴 Idris Elba
       蕾妮·罗素 Rene Russo
       阿德沃尔·阿吉纽依-艾格拜吉 Adewale Akinnuoye-Agbaje
       凯特·戴琳斯 Kat Dennings
       斯特兰·斯卡斯加德 Stellan Skarsg?rd
       艾丽丝·克里奇 Alice Krige
       克里夫·罗素 Clive Russell
       乔纳森·霍华德 Jonathan Howard
       克里斯·奥多德 Chris O'Dowd
       妲露拉·莱莉 Talulah Riley
       奥菲利亚·拉维邦德 Ophelia Lovibond
       本尼西奥·德尔·托罗 Benicio Del Toro
       斯坦·李 Stan Lee


标  签 美国 | 科幻 | Marvel | 漫画改编 | 漫威 | 行动 | 超级豪杰 | 2013

简  介  

  纽约大战后,雷神索尔(克里斯·海姆斯沃斯 Chris Hemsworth 饰)将弟弟洛基(汤姆·希德勒斯顿 Tom Hiddleston 饰)带回仙宫软禁起来,此外帮助九大国家安定纷争,威名扶摇直上。虽然父王奥丁(安东尼·霍普金斯 Anthony Hopkins 饰)劝其尽早即位,但索尔记忆犹新地球的美丽女孩简·福斯特(娜塔丽·波特曼 Natalie Portman 饰)。与此同时,简在和黛西及其助手伊安观察某个地区时意外被奥秘物资入侵,却也是以重逢索尔,并随其返回仙宫。使人意想不到的是,藏在简体内的物资来自太古的黑暗精灵玛勒基斯(克里斯托弗·埃克莱斯顿 Christopher Eccleston 饰)。在“天体味聚”的时辰再次到来之际,玛勒基斯诡计摧毁九大国家,缔造一个全然黑暗的宇宙。
  藏匿简的仙宫遭到重创,而索尔和洛基这对朋友兄弟也不能不联手迎战宿命的强敌……

获奖情况  

  第23届MTV电影奖(2014)
  MTV电影奖 最好赤膊表演(提名) 克里斯·海姆斯沃斯
  MTV电影奖 最好豪杰形象(提名) 克里斯·海姆斯沃斯

  第16届美国青少年挑选奖(2014)
  最好科幻/奇异电影(提名)
  最好科幻/奇异电影男演员(提名) 克里斯·海姆斯沃斯
  最好科幻/奇异电影女演员(提名) 娜塔莉·波特曼

  第4届豆瓣电影鑫像奖(2014)
  鑫豆单元 最好科幻/行动片(提名)
  豆渣单元 最渣女演员(外语)(提名) 娜塔莉·波特曼
  1. Video
  2. ID                                       : 1
  3. Format                                   : HEVC
  4. Format/Info                              : High Efficiency Video Coding
  5. Format profile                           : Main <a href="/cdn-cgi/l/email-protection" class="__cf_email__" data-cfemail="efdedfafa3dac1de">[email protected]</a>@High
  6. Codec ID                                 : V_MPEGH/ISO/HEVC
  7. Duration                                 : 1 h 52 min
  8. Bit rate                                 : 22.2 Mb/s
  9. Width                                    : 3 840 pixels
  10. Height                                   : 1 600 pixels
  11. Display aspect ratio                     : 2.40:1
  12. Frame rate mode                          : Constant
  13. Frame rate                               : 23.976 (24000/1001) FPS
  14. Color space                              : YUV
  15. Chroma subsampling                       : 4:2:0
  16. Bit depth                                : 10 bits
  17. Bits/(Pixel*Frame)                       : 0.150
  18. Stream size                              : 17.3 GiB (70%)
  19. Title                                    : Thor.The.Dark.World.2013.2160p.BluRay.x265.10bit.SDR.DTS-HD.MA.TrueHD.7.1.Atmos-SWTYBLZ
  20. Writing library                          : x265 3.0ed72af837053:[Windows][GCC 8.2.0][64 bit] 10bit
  21. Encoding settings                        : cpuid=1111039 / frame-threads=16 / numa-pools=24,24,24,24 / wpp / no-pmode / no-pme / no-psnr / no-ssim / log-level=2 / input-csp=1 / input-res=3840x1600 / interlace=0 / total-frames=161192 / level-idc=51 / high-tier=1 / uhd-bd=0 / ref=3 / no-allow-non-conformance / repeat-headers / annexb / aud / hrd / info / hash=0 / no-temporal-layers / no-open-gop / min-keyint=1 / keyint=24 / gop-lookahead=0 / bframes=4 / b-adapt=2 / b-pyramid / bframe-bias=0 / rc-lookahead=25 / lookahead-slices=4 / scenecut=40 / radl=0 / no-splice / no-intra-refresh / ctu=64 / min-cu-size=8 / no-rect / no-amp / max-tu-size=32 / tu-inter-depth=1 / tu-intra-depth=1 / limit-tu=0 / rdoq-level=0 / dynamic-rd=0.00 / no-ssim-rd / signhide / no-tskip / nr-intra=0 / nr-inter=0 / no-constrained-intra / strong-intra-smoothing / max-merge=2 / limit-refs=3 / no-limit-modes / me=1 / subme=2 / merange=57 / temporal-mvp / weightp / no-weightb / no-analyze-src-pics / deblock=0:0 / no-sao / no-sao-non-deblock / rd=3 / no-early-skip / rskip / no-fast-intra / no-tskip-fast / no-cu-lossless / no-b-intra / no-splitrd-skip / rdpenalty=0 / psy-rd=2.00 / psy-rdoq=0.00 / no-rd-refine / no-lossless / cbqpoffs=0 / crqpoffs=0 / rc=crf / crf=13.0 / qcomp=0.60 / qpstep=4 / stats-write=0 / stats-read=0 / vbv-maxrate=160000 / vbv-bufsize=160000 / vbv-init=0.9 / crf-max=0.0 / crf-min=0.0 / ipratio=1.40 / pbratio=1.30 / aq-mode=1 / aq-strength=1.00 / cutree / zone-count=0 / no-strict-cbr / qg-size=32 / no-rc-grain / qpmax=69 / qpmin=0 / no-const-vbv / sar=1 / overscan=0 / videoformat=5 / range=0 / colorprim=2 / transfer=2 / colormatrix=2 / chromaloc=0 / display-window=0 / max-cll=0,0 / min-luma=0 / max-luma=1023 / log2-max-poc-lsb=8 / vui-timing-info / vui-hrd-info / slices=1 / opt-qp-pps / opt-ref-list-length-pps / no-multi-pass-opt-rps / scenecut-bias=0.05 / no-opt-cu-delta-qp / no-aq-motion / no-hdr / no-hdr-opt / no-dhdr10-opt / no-idr-recovery-sei / analysis-reuse-level=5 / scale-factor=0 / refine-intra=0 / refine-inter=0 / refine-mv=0 / refine-ctu-distortion=0 / no-limit-sao / ctu-info=0 / no-lowpass-dct / refine-analysis-type=0 / copy-pic=1 / max-ausize-factor=1.0 / no-dynamic-refine / no-single-sei / no-hevc-aq / qp-adaptation-range=1.00
  22. Default                                  : Yes
  23. Forced                                   : No

  24. Audio #1
  25. ID                                       : 2
  26. Format                                   : MLP FBA 16-ch
  27. Format/Info                              : Meridian Lossless Packing FBA with 16-channel presentation
  28. Commercial name                          : Dolby TrueHD with Dolby Atmos
  29. Codec ID                                 : A_TRUEHD
  30. Duration                                 : 1 h 52 min
  31. Bit rate mode                            : Variable
  32. Bit rate                                 : 4 579 kb/s
  33. Maximum bit rate                         : 8 301 kb/s
  34. Channel(s)                               : 8 channels
  35. Channel layout                           : L R C LFE Ls Rs Lb Rb
  36. Sampling rate                            : 48.0 kHz
  37. Frame rate                               : 1 200.000 FPS (40 SPF)
  38. Compression mode                         : Lossless
  39. Stream size                              : 3.58 GiB (14%)
  40. Title                                    : Thor.The.Dark.World.2013.2160p.BluRay.x265.10bit.SDR.DTS-HD.MA.TrueHD.7.1.Atmos-SWTYBLZ
  41. Language                                 : English
  42. Default                                  : Yes
  43. Forced                                   : No
  44. Number of dynamic objects                : 13
  45. Bed channel count                        : 1 channel
  46. Bed channel configuration                : LFE

  47. Audio #2
  48. ID                                       : 3
  49. Format                                   : DTS XLL
  50. Format/Info                              : Digital Theater Systems
  51. Commercial name                          : DTS-HD Master Audio
  52. Codec ID                                 : A_DTS
  53. Duration                                 : 1 h 52 min
  54. Bit rate mode                            : Variable
  55. Bit rate                                 : 4 185 kb/s
  56. Channel(s)                               : 8 channels
  57. Channel layout                           : C L R LFE Lb Rb Lss Rss
  58. Sampling rate                            : 48.0 kHz
  59. Frame rate                               : 93.750 FPS (512 SPF)
  60. Bit depth                                : 24 bits
  61. Compression mode                         : Lossless
  62. Stream size                              : 3.28 GiB (13%)
  63. Title                                    : Thor.The.Dark.World.2013.2160p.BluRay.x265.10bit.SDR.DTS-HD.MA.TrueHD.7.1.Atmos-SWTYBLZ
  64. Language                                 : English
  65. Default                                  : No
  66. Forced                                   : No

  67. Audio #3
  68. ID                                       : 4
  69. Format                                   : AC-3
  70. Format/Info                              : Audio Coding 3
  71. Commercial name                          : Dolby Digital
  72. Codec ID                                 : A_AC3
  73. Duration                                 : 1 h 52 min
  74. Bit rate mode                            : Constant
  75. Bit rate                                 : 640 kb/s
  76. Channel(s)                               : 6 channels
  77. Channel layout                           : L R C LFE Ls Rs
  78. Sampling rate                            : 48.0 kHz
  79. Frame rate                               : 31.250 FPS (1536 SPF)
  80. Bit depth                                : 16 bits
  81. Compression mode                         : Lossy
  82. Stream size                              : 513 MiB (2%)
  83. Title                                    : Thor.The.Dark.World.2013.2160p.BluRay.x265.10bit.SDR.DTS-HD.MA.TrueHD.7.1.Atmos-SWTYBLZ
  84. Language                                 : English
  85. Service kind                             : Complete Main
  86. Default                                  : No
  87. Forced                                   : No

  88. Text #1
  89. ID                                       : 5
  90. Format                                   : UTF-8
  91. Codec ID                                 : S_TEXT/UTF8
  92. Codec ID/Info                            : UTF-8 Plain Text
  93. Duration                                 : 1 h 13 min
  94. Bit rate                                 : 1 b/s
  95. Count of elements                        : 30
  96. Stream size                              : 995 Bytes (0%)
  97. Title                                    : English-FORCED-SRT
  98. Language                                 : English
  99. Default                                  : Yes
  100. Forced                                   : Yes

  101. Text #2
  102. ID                                       : 6
  103. Format                                   : UTF-8
  104. Codec ID                                 : S_TEXT/UTF8
  105. Codec ID/Info                            : UTF-8 Plain Text
  106. Duration                                 : 1 h 45 min
  107. Bit rate                                 : 41 b/s
  108. Count of elements                        : 1103
  109. Stream size                              : 31.6 KiB (0%)
  110. Title                                    : English-SRT
  111. Language                                 : English
  112. Default                                  : No
  113. Forced                                   : No

  114. Text #3
  115. ID                                       : 7
  116. Format                                   : PGS
  117. Muxing mode                              : zlib
  118. Codec ID                                 : S_HDMV/PGS
  119. Codec ID/Info                            : Picture based subtitle format used on BDs/HD-DVDs
  120. Duration                                 : 1 h 13 min
  121. Bit rate                                 : 562 b/s
  122. Count of elements                        : 56
  123. Stream size                              : 305 KiB (0%)
  124. Title                                    : English-FORCED-PGS
  125. Language                                 : English
  126. Default                                  : No
  127. Forced                                   : No

  128. Text #4
  129. ID                                       : 8
  130. Format                                   : PGS
  131. Muxing mode                              : zlib
  132. Codec ID                                 : S_HDMV/PGS
  133. Codec ID/Info                            : Picture based subtitle format used on BDs/HD-DVDs
  134. Duration                                 : 1 h 51 min
  135. Bit rate                                 : 34.1 kb/s
  136. Count of elements                        : 2757
  137. Stream size                              : 27.1 MiB (0%)
  138. Title                                    : English-PGS
  139. Language                                 : English
  140. Default                                  : No
  141. Forced                                   : No

  142. Text #5
  143. ID                                       : 9
  144. Format                                   : PGS
  145. Muxing mode                              : zlib
  146. Codec ID                                 : S_HDMV/PGS
  147. Codec ID/Info                            : Picture based subtitle format used on BDs/HD-DVDs
  148. Duration                                 : 1 h 51 min
  149. Bit rate                                 : 28.8 kb/s
  150. Count of elements                        : 2222
  151. Stream size                              : 23.0 MiB (0%)
  152. Title                                    : French-PGS
  153. Language                                 : French
  154. Default                                  : No
  155. Forced                                   : No

  156. Text #6
  157. ID                                       : 10
  158. Format                                   : PGS
  159. Muxing mode                              : zlib
  160. Codec ID                                 : S_HDMV/PGS
  161. Codec ID/Info                            : Picture based subtitle format used on BDs/HD-DVDs
  162. Duration                                 : 1 h 51 min
  163. Bit rate                                 : 23.9 kb/s
  164. Count of elements                        : 2124
  165. Stream size                              : 19.1 MiB (0%)
  166. Title                                    : French-PGS
  167. Language                                 : French
  168. Default                                  : No
  169. Forced                                   : No

  170. Text #7
  171. ID                                       : 11
  172. Format                                   : PGS
  173. Muxing mode                              : zlib
  174. Codec ID                                 : S_HDMV/PGS
  175. Codec ID/Info                            : Picture based subtitle format used on BDs/HD-DVDs
  176. Duration                                 : 1 h 45 min
  177. Bit rate                                 : 27.6 kb/s
  178. Count of elements                        : 2020
  179. Stream size                              : 20.7 MiB (0%)
  180. Title                                    : German-PGS
  181. Language                                 : German
  182. Default                                  : No
  183. Forced                                   : No

  184. Text #8
  185. ID                                       : 12
  186. Format                                   : PGS
  187. Muxing mode                              : zlib
  188. Codec ID                                 : S_HDMV/PGS
  189. Codec ID/Info                            : Picture based subtitle format used on BDs/HD-DVDs
  190. Duration                                 : 1 h 51 min
  191. Bit rate                                 : 29.2 kb/s
  192. Count of elements                        : 2164
  193. Stream size                              : 23.3 MiB (0%)
  194. Title                                    : Italian-PGS
  195. Language                                 : Italian
  196. Default                                  : No
  197. Forced                                   : No

  198. Text #9
  199. ID                                       : 13
  200. Format                                   : PGS
  201. Muxing mode                              : zlib
  202. Codec ID                                 : S_HDMV/PGS
  203. Codec ID/Info                            : Picture based subtitle format used on BDs/HD-DVDs
  204. Duration                                 : 1 h 51 min
  205. Bit rate                                 : 15.9 kb/s
  206. Count of elements                        : 1934
  207. Stream size                              : 12.6 MiB (0%)
  208. Title                                    : Japanese-PGS
  209. Language                                 : Japanese
  210. Default                                  : No
  211. Forced                                   : No

  212. Text #10
  213. ID                                       : 14
  214. Format                                   : PGS
  215. Muxing mode                              : zlib
  216. Codec ID                                 : S_HDMV/PGS
  217. Codec ID/Info                            : Picture based subtitle format used on BDs/HD-DVDs
  218. Duration                                 : 1 h 51 min
  219. Bit rate                                 : 26.7 kb/s
  220. Count of elements                        : 2156
  221. Stream size                              : 21.3 MiB (0%)
  222. Title                                    : Norwegian-PGS
  223. Language                                 : Norwegian
  224. Default                                  : No
  225. Forced                                   : No

  226. Text #11
  227. ID                                       : 15
  228. Format                                   : PGS
  229. Muxing mode                              : zlib
  230. Codec ID                                 : S_HDMV/PGS
  231. Codec ID/Info                            : Picture based subtitle format used on BDs/HD-DVDs
  232. Duration                                 : 1 h 51 min
  233. Bit rate                                 : 28.5 kb/s
  234. Count of elements                        : 2164
  235. Stream size                              : 22.7 MiB (0%)
  236. Title                                    : Spanish-PGS
  237. Language                                 : Spanish
  238. Default                                  : No
  239. Forced                                   : No

  240. Text #12
  241. ID                                       : 16
  242. Format                                   : PGS
  243. Muxing mode                              : zlib
  244. Codec ID                                 : S_HDMV/PGS
  245. Codec ID/Info                            : Picture based subtitle format used on BDs/HD-DVDs
  246. Duration                                 : 1 h 51 min
  247. Bit rate                                 : 24.2 kb/s
  248. Count of elements                        : 1412
  249. Stream size                              : 19.3 MiB (0%)
  250. Title                                    : Swedish-PGS
  251. Language                                 : Swedish
  252. Default                                  : No
  253. Forced                                   : No

  254. Menu
  255. 00:00:00.000                             : en:Chapter 01
  256. 00:06:13.664                             : en:Chapter 02
  257. 00:13:05.201                             : en:Chapter 03
  258. 00:18:40.994                             : en:Chapter 04
  259. 00:24:56.703                             : en:Chapter 05
  260. 00:29:07.495                             : en:Chapter 06
  261. 00:41:33.365                             : en:Chapter 07
  262. 00:49:40.227                             : en:Chapter 08
  263. 00:55:56.144                             : en:Chapter 09
  264. 01:00:08.855                             : en:Chapter 10
  265. 01:08:12.671                             : en:Chapter 11
  266. 01:12:39.897                             : en:Chapter 12
  267. 01:21:34.180                             : en:Chapter 13
  268. 01:26:22.093                             : en:Chapter 14
  269. 01:33:58.799                             : en:Chapter 15
  270. 01:38:31.363                             : en:Chapter 16
  271. 01:41:49.228                             : en:Chapter 17
复制代码

雷神2:黑暗天下 Thor.The.Dark.World.2013.2160p.BluRay.x265.10bit.SDR.DTS-HD.MA.TrueHD.7.1.Atmos-SWTYBLZ 24.90GB-2.png 雷神2:黑暗天下 Thor.The.Dark.World.2013.2160p.BluRay.x265.10bit.SDR.DTS-HD.MA.TrueHD.7.1.Atmos-SWTYBLZ 24.90GB-3.png 雷神2:黑暗天下 Thor.The.Dark.World.2013.2160p.BluRay.x265.10bit.SDR.DTS-HD.MA.TrueHD.7.1.Atmos-SWTYBLZ 24.90GB-4.png 雷神2:黑暗天下 Thor.The.Dark.World.2013.2160p.BluRay.x265.10bit.SDR.DTS-HD.MA.TrueHD.7.1.Atmos-SWTYBLZ 24.90GB-5.png 雷神2:黑暗天下 Thor.The.Dark.World.2013.2160p.BluRay.x265.10bit.SDR.DTS-HD.MA.TrueHD.7.1.Atmos-SWTYBLZ 24.90GB-6.png 雷神2:黑暗天下 Thor.The.Dark.World.2013.2160p.BluRay.x265.10bit.SDR.DTS-HD.MA.TrueHD.7.1.Atmos-SWTYBLZ 24.90GB-7.png






本帖隐藏的下载地址需要VIP会员才可阅读,您需要升级才可阅读,点击这里升级VIP

VIP会员免费任意下载本站所有资源!---点击开通
回复

使用道具 举报

懒得打字嘛,点击右侧快捷回复 【右侧内容,后台自定义】
您需要登录后才可以回帖 登录 | 立即注册

本版积分规则

QQ|Archiver|手机版|小黑屋| 中国高清网 |网站地图

GMT+8, 2019-12-11 13:19 , Processed in 0.413372 second(s), 38 queries .

Powered by HDchina X3.4

Copyright 2017-2019©HDchina.All right reserved

返回顶部 联系我们