查看: 67|回复: 1

[REMUX.HEVC] 雷神 Thor.2011.2160p.BluRay.REMUX.HEVC.DTS-HD.MA.TrueHD.7.1.Atmos-FGT 58.95GB

[复制链接]

 成长值: 2270

级别:资源管理组

注册时间
2017-10-20
最后登录
2019-8-23
听众
1
收听
0
主题
81029
蓝光币
43238 枚
贡献
5356 点
发表于 2019-8-11 14:05:42 | 显示全部楼层 |阅读模式
雷神 Thor.2011.2160p.BluRay.REMUX.HEVC.DTS-HD.MA.TrueHD.7.1.Atmos-FGT 58.95GB-1.jpg

译  名 雷神 / The Mighty Thor / 托尔 / 雷神之锤 / 雷奇异侠(港) / 雷神归来 / 雷神托尔 / 雷神索尔(台)
片  名 Thor
年  代 2011
产  地 美国
类  别 行动 / 奇异 / 冒险
语  言 英语
上映日期 2011-05-06(美国) / 2011-05-08(中国大陆)
IMDb评分  7.0/10 from 691648 users
IMDb链接  http://www.imdb.com/title/tt0800369
豆瓣评分 7.0/10 from 241891 users
豆瓣链接 https://movie.douban.com/subject/1866471/
片  长 115分钟
导  演 肯尼思·布拉纳 Kenneth Branagh
编  剧 阿什利·米勒 Ashley Miller / 扎克·施坦茨 Zack Stentz / 唐·佩恩 Don Payne / J·迈克尔·斯特拉辛斯基 J. Michael Straczynski / 马克·波托塞维奇 Mark Protosevich / 斯坦·李 Stan Lee / 拉里·利伯 Larry Lieber / 杰克·科比 Jack Kirby
主  演 克里斯·海姆斯沃斯 Chris Hemsworth
       娜塔莉·波特曼 Natalie Portman
       汤姆·希德勒斯顿 Tom Hiddleston
       安东尼·霍普金斯 Anthony Hopkins
       斯特兰·斯卡斯加德 Stellan Skarsg?rd
       凯特·戴琳斯 Kat Dennings
       克拉克·格雷格 Clark Gregg
       科鲁姆·费奥瑞 Colm Feore
       伊德里斯·艾尔巴 Idris Elba
       雷·史蒂文森 Ray Stevenson
       浅野忠信 Tadanobu Asano
       乔希·达拉斯 Josh Dallas
       杰米·亚历山大 Jaimie Alexander
       蕾妮·罗素 Rene Russo
       艾德里安娜·巴拉扎 Adriana Barraza
       马克斯米利亚诺·赫尔南德斯 Maximiliano Hernández
       杰瑞米·雷纳 Jeremy Renner
       塞缪尔·杰克逊 Samuel L. Jackson
       达科塔·高尤 Dakota Goyo
       泰德·沃普莱斯 ted allpress
       斯坦·李 Stan Lee


标  签 美国 | 科幻 | 漫画改编 | 漫威 | 行动 | 神话 | 2011 | 奇异

简  介  

  勇敢善战雷神托尔(克里斯?海姆斯沃斯 Chris Hemsworth 饰),作为永久境界阿斯加德的王位继续人,受人敬佩。但是由于一次冒失的行动,几乎挑起一场陈腐的战争,是以被父亲天神奥丁(安东尼?霍普金斯 Anthony Hopkins 饰)放逐到人世。托尔在人世熟悉了 美丽的女科学家珍?福斯特(娜塔莉?波特曼 Natalie Portman 饰)和她的工作伙伴,在他们的帮助下,托尔找到了和自己一路被贬的雷神之锤,但此时的雷神之锤并不属于他。其间,托尔的弟弟洛基为了成为阿斯加德的王,居然结合寒冰伟人,诡计在永久境界掀起一场腥风血雨。为了保持永久之界的法式,托尔的四位朋友也来到人世,他们决议带托尔返回永久之境。此时,为了阻止雷神重归永久境界,洛基派出伟人杀死托尔。损失才能和法战的托尔为了庇护无辜的人类与自己的朋友,献出了自己的生命。托尔的死打破了天神的的咒语,托尔新生并重获雷神之力克服伟人。此时,天神生命危在旦夕,托尔必须与自己的朋友们重返永久之界,保护那边的法式……
  本片改编自传奇漫画家同伴斯坦?李(Stan Lee)和杰克?科比(Jack Kirby)于1962年推出《雷神》连载漫画。

获奖情况  

  第21届MTV电影奖(2012)
  MTV电影奖 最好豪杰形象(提名) 克里斯·海姆斯沃斯

  第13届美国青少年挑选奖(2011)
  Choice Movie Breakout: Male(提名) 克里斯·海姆斯沃斯
  1. Video
  2. ID                                       : 1
  3. Format                                   : HEVC
  4. Format/Info                              : High Efficiency Video Coding
  5. Format profile                           : Main <a href="/cdn-cgi/l/email-protection" class="__cf_email__" data-cfemail="f4c5c4b4b8c1dac5">[email protected]</a>@High
  6. HDR format                               : SMPTE ST 2086, HDR10 compatible
  7. Codec ID                                 : V_MPEGH/ISO/HEVC
  8. Duration                                 : 1 h 54 min
  9. Bit rate                                 : 54.8 Mb/s
  10. Width                                    : 3 840 pixels
  11. Height                                   : 2 160 pixels
  12. Display aspect ratio                     : 16:9
  13. Frame rate mode                          : Constant
  14. Frame rate                               : 23.976 (24000/1001) FPS
  15. Color space                              : YUV
  16. Chroma subsampling                       : 4:2:0 (Type 2)
  17. Bit depth                                : 10 bits
  18. Bits/(Pixel*Frame)                       : 0.276
  19. Stream size                              : 44.0 GiB (75%)
  20. Title                                    : Thor.2011.2160p.BluRay.REMUX.HEVC.DTS-HD.MA.TrueHD.7.1.Atmos-FGT
  21. Language                                 : English
  22. Default                                  : No
  23. Forced                                   : No
  24. Color range                              : Limited
  25. Color primaries                          : BT.2020
  26. Transfer characteristics                 : PQ
  27. Matrix coefficients                      : BT.2020 non-constant
  28. Mastering display color primaries        : Display P3
  29. Mastering display luminance              : min: 0.0050 cd/m2, max: 4000 cd/m2
  30. Maximum Content Light Level              : 566 cd/m2
  31. Maximum Frame-Average Light Level        : 561 cd/m2

  32. Audio #1
  33. ID                                       : 2
  34. Format                                   : MLP FBA 16-ch
  35. Format/Info                              : Meridian Lossless Packing FBA with 16-channel presentation
  36. Commercial name                          : Dolby TrueHD with Dolby Atmos
  37. Codec ID                                 : A_TRUEHD
  38. Duration                                 : 1 h 54 min
  39. Bit rate mode                            : Variable
  40. Bit rate                                 : 4 938 kb/s
  41. Maximum bit rate                         : 8 058 kb/s
  42. Channel(s)                               : 8 channels
  43. Channel layout                           : L R C LFE Ls Rs Lb Rb
  44. Sampling rate                            : 48.0 kHz
  45. Frame rate                               : 1 200.000 FPS (40 SPF)
  46. Compression mode                         : Lossless
  47. Stream size                              : 3.96 GiB (7%)
  48. Title                                    : Thor.2011.2160p.BluRay.REMUX.HEVC.DTS-HD.MA.TrueHD.7.1.Atmos-FGT
  49. Language                                 : English
  50. Default                                  : Yes
  51. Forced                                   : No
  52. Number of dynamic objects                : 13
  53. Bed channel count                        : 1 channel
  54. Bed channel configuration                : LFE

  55. Audio #2
  56. ID                                       : 3
  57. Format                                   : DTS XLL
  58. Format/Info                              : Digital Theater Systems
  59. Commercial name                          : DTS-HD Master Audio
  60. Codec ID                                 : A_DTS
  61. Duration                                 : 1 h 54 min
  62. Bit rate mode                            : Variable
  63. Bit rate                                 : 3 964 kb/s
  64. Channel(s)                               : 8 channels
  65. Channel layout                           : C L R LFE Lb Rb Lss Rss
  66. Sampling rate                            : 48.0 kHz
  67. Frame rate                               : 93.750 FPS (512 SPF)
  68. Bit depth                                : 24 bits
  69. Compression mode                         : Lossless
  70. Stream size                              : 3.18 GiB (5%)
  71. Title                                    : Thor.2011.2160p.BluRay.REMUX.HEVC.DTS-HD.MA.TrueHD.7.1.Atmos-FGT
  72. Language                                 : English
  73. Default                                  : No
  74. Forced                                   : No

  75. Audio #3
  76. ID                                       : 4
  77. Format                                   : AC-3
  78. Format/Info                              : Audio Coding 3
  79. Commercial name                          : Dolby Digital
  80. Codec ID                                 : A_AC3
  81. Duration                                 : 1 h 54 min
  82. Bit rate mode                            : Constant
  83. Bit rate                                 : 640 kb/s
  84. Channel(s)                               : 6 channels
  85. Channel layout                           : L R C LFE Ls Rs
  86. Sampling rate                            : 48.0 kHz
  87. Frame rate                               : 31.250 FPS (1536 SPF)
  88. Bit depth                                : 16 bits
  89. Compression mode                         : Lossy
  90. Stream size                              : 526 MiB (1%)
  91. Title                                    : Thor.2011.2160p.BluRay.REMUX.HEVC.DTS-HD.MA.TrueHD.7.1.Atmos-FGT
  92. Language                                 : English
  93. Service kind                             : Complete Main
  94. Default                                  : No
  95. Forced                                   : No

  96. Audio #4
  97. ID                                       : 5
  98. Format                                   : AC-3
  99. Format/Info                              : Audio Coding 3
  100. Commercial name                          : Dolby Digital
  101. Codec ID                                 : A_AC3
  102. Duration                                 : 1 h 54 min
  103. Bit rate mode                            : Constant
  104. Bit rate                                 : 320 kb/s
  105. Channel(s)                               : 2 channels
  106. Channel layout                           : L R
  107. Sampling rate                            : 48.0 kHz
  108. Frame rate                               : 31.250 FPS (1536 SPF)
  109. Bit depth                                : 16 bits
  110. Compression mode                         : Lossy
  111. Stream size                              : 263 MiB (0%)
  112. Title                                    : Thor.2011.2160p.BluRay.REMUX.HEVC.DTS-HD.MA.TrueHD.7.1.Atmos-FGT
  113. Language                                 : English
  114. Service kind                             : Complete Main
  115. Default                                  : No
  116. Forced                                   : No

  117. Audio #5
  118. ID                                       : 6
  119. Format                                   : AC-3
  120. Format/Info                              : Audio Coding 3
  121. Commercial name                          : Dolby Digital
  122. Codec ID                                 : A_AC3
  123. Duration                                 : 1 h 54 min
  124. Bit rate mode                            : Constant
  125. Bit rate                                 : 640 kb/s
  126. Channel(s)                               : 6 channels
  127. Channel layout                           : L R C LFE Ls Rs
  128. Sampling rate                            : 48.0 kHz
  129. Frame rate                               : 31.250 FPS (1536 SPF)
  130. Bit depth                                : 16 bits
  131. Compression mode                         : Lossy
  132. Stream size                              : 526 MiB (1%)
  133. Title                                    : Thor.2011.2160p.BluRay.REMUX.HEVC.DTS-HD.MA.TrueHD.7.1.Atmos-FGT
  134. Language                                 : French
  135. Service kind                             : Complete Main
  136. Default                                  : No
  137. Forced                                   : No

  138. Audio #6
  139. ID                                       : 7
  140. Format                                   : E-AC-3
  141. Format/Info                              : Enhanced AC-3
  142. Commercial name                          : Dolby Digital Plus
  143. Format profile                           : Blu-ray Disc
  144. Codec ID                                 : A_EAC3
  145. Duration                                 : 1 h 54 min
  146. Bit rate mode                            : Constant
  147. Bit rate                                 : 1 024 kb/s
  148. Channel(s)                               : 8 channels
  149. Channel layout                           : L R C LFE Ls Rs Lb Rb
  150. Sampling rate                            : 48.0 kHz
  151. Frame rate                               : 31.250 FPS (1536 SPF)
  152. Compression mode                         : Lossy
  153. Stream size                              : 841 MiB (1%)
  154. Title                                    : Thor.2011.2160p.BluRay.REMUX.HEVC.DTS-HD.MA.TrueHD.7.1.Atmos-FGT
  155. Language                                 : French
  156. Service kind                             : Complete Main
  157. Default                                  : No
  158. Forced                                   : No

  159. Audio #7
  160. ID                                       : 8
  161. Format                                   : AC-3
  162. Format/Info                              : Audio Coding 3
  163. Commercial name                          : Dolby Digital
  164. Codec ID                                 : A_AC3
  165. Duration                                 : 1 h 54 min
  166. Bit rate mode                            : Constant
  167. Bit rate                                 : 576 kb/s
  168. Channel(s)                               : 6 channels
  169. Channel layout                           : L R C LFE Ls Rs
  170. Sampling rate                            : 48.0 kHz
  171. Frame rate                               : 31.250 FPS (1536 SPF)
  172. Bit depth                                : 16 bits
  173. Compression mode                         : Lossy
  174. Stream size                              : 473 MiB (1%)
  175. Title                                    : Thor.2011.2160p.BluRay.REMUX.HEVC.DTS-HD.MA.TrueHD.7.1.Atmos-FGT
  176. Language                                 : French
  177. Service kind                             : Complete Main
  178. Default                                  : No
  179. Forced                                   : No

  180. Audio #8
  181. ID                                       : 9
  182. Format                                   : E-AC-3
  183. Format/Info                              : Enhanced AC-3
  184. Commercial name                          : Dolby Digital Plus
  185. Format profile                           : Blu-ray Disc
  186. Codec ID                                 : A_EAC3
  187. Duration                                 : 1 h 54 min
  188. Bit rate mode                            : Constant
  189. Bit rate                                 : 1 024 kb/s
  190. Channel(s)                               : 8 channels
  191. Channel layout                           : L R C LFE Ls Rs Lb Rb
  192. Sampling rate                            : 48.0 kHz
  193. Frame rate                               : 31.250 FPS (1536 SPF)
  194. Compression mode                         : Lossy
  195. Stream size                              : 841 MiB (1%)
  196. Title                                    : Thor.2011.2160p.BluRay.REMUX.HEVC.DTS-HD.MA.TrueHD.7.1.Atmos-FGT
  197. Language                                 : Spanish
  198. Service kind                             : Complete Main
  199. Default                                  : No
  200. Forced                                   : No

  201. Audio #9
  202. ID                                       : 10
  203. Format                                   : AC-3
  204. Format/Info                              : Audio Coding 3
  205. Commercial name                          : Dolby Digital
  206. Codec ID                                 : A_AC3
  207. Duration                                 : 1 h 54 min
  208. Bit rate mode                            : Constant
  209. Bit rate                                 : 576 kb/s
  210. Channel(s)                               : 6 channels
  211. Channel layout                           : L R C LFE Ls Rs
  212. Sampling rate                            : 48.0 kHz
  213. Frame rate                               : 31.250 FPS (1536 SPF)
  214. Bit depth                                : 16 bits
  215. Compression mode                         : Lossy
  216. Stream size                              : 473 MiB (1%)
  217. Title                                    : Thor.2011.2160p.BluRay.REMUX.HEVC.DTS-HD.MA.TrueHD.7.1.Atmos-FGT
  218. Language                                 : Spanish
  219. Service kind                             : Complete Main
  220. Default                                  : No
  221. Forced                                   : No

  222. Audio #10
  223. ID                                       : 11
  224. Format                                   : E-AC-3
  225. Format/Info                              : Enhanced AC-3
  226. Commercial name                          : Dolby Digital Plus
  227. Format profile                           : Blu-ray Disc
  228. Codec ID                                 : A_EAC3
  229. Duration                                 : 1 h 54 min
  230. Bit rate mode                            : Constant
  231. Bit rate                                 : 1 024 kb/s
  232. Channel(s)                               : 8 channels
  233. Channel layout                           : L R C LFE Ls Rs Lb Rb
  234. Sampling rate                            : 48.0 kHz
  235. Frame rate                               : 31.250 FPS (1536 SPF)
  236. Compression mode                         : Lossy
  237. Stream size                              : 841 MiB (1%)
  238. Title                                    : Thor.2011.2160p.BluRay.REMUX.HEVC.DTS-HD.MA.TrueHD.7.1.Atmos-FGT
  239. Language                                 : German
  240. Service kind                             : Complete Main
  241. Default                                  : No
  242. Forced                                   : No

  243. Audio #11
  244. ID                                       : 12
  245. Format                                   : AC-3
  246. Format/Info                              : Audio Coding 3
  247. Commercial name                          : Dolby Digital
  248. Codec ID                                 : A_AC3
  249. Duration                                 : 1 h 54 min
  250. Bit rate mode                            : Constant
  251. Bit rate                                 : 576 kb/s
  252. Channel(s)                               : 6 channels
  253. Channel layout                           : L R C LFE Ls Rs
  254. Sampling rate                            : 48.0 kHz
  255. Frame rate                               : 31.250 FPS (1536 SPF)
  256. Bit depth                                : 16 bits
  257. Compression mode                         : Lossy
  258. Stream size                              : 473 MiB (1%)
  259. Title                                    : Thor.2011.2160p.BluRay.REMUX.HEVC.DTS-HD.MA.TrueHD.7.1.Atmos-FGT
  260. Language                                 : German
  261. Service kind                             : Complete Main
  262. Default                                  : No
  263. Forced                                   : No

  264. Audio #12
  265. ID                                       : 13
  266. Format                                   : E-AC-3
  267. Format/Info                              : Enhanced AC-3
  268. Commercial name                          : Dolby Digital Plus
  269. Format profile                           : Blu-ray Disc
  270. Codec ID                                 : A_EAC3
  271. Duration                                 : 1 h 54 min
  272. Bit rate mode                            : Constant
  273. Bit rate                                 : 1 024 kb/s
  274. Channel(s)                               : 8 channels
  275. Channel layout                           : L R C LFE Ls Rs Lb Rb
  276. Sampling rate                            : 48.0 kHz
  277. Frame rate                               : 31.250 FPS (1536 SPF)
  278. Compression mode                         : Lossy
  279. Stream size                              : 841 MiB (1%)
  280. Title                                    : Thor.2011.2160p.BluRay.REMUX.HEVC.DTS-HD.MA.TrueHD.7.1.Atmos-FGT
  281. Language                                 : Italian
  282. Service kind                             : Complete Main
  283. Default                                  : No
  284. Forced                                   : No

  285. Audio #13
  286. ID                                       : 14
  287. Format                                   : AC-3
  288. Format/Info                              : Audio Coding 3
  289. Commercial name                          : Dolby Digital
  290. Codec ID                                 : A_AC3
  291. Duration                                 : 1 h 54 min
  292. Bit rate mode                            : Constant
  293. Bit rate                                 : 576 kb/s
  294. Channel(s)                               : 6 channels
  295. Channel layout                           : L R C LFE Ls Rs
  296. Sampling rate                            : 48.0 kHz
  297. Frame rate                               : 31.250 FPS (1536 SPF)
  298. Bit depth                                : 16 bits
  299. Compression mode                         : Lossy
  300. Stream size                              : 473 MiB (1%)
  301. Title                                    : Thor.2011.2160p.BluRay.REMUX.HEVC.DTS-HD.MA.TrueHD.7.1.Atmos-FGT
  302. Language                                 : Italian
  303. Service kind                             : Complete Main
  304. Default                                  : No
  305. Forced                                   : No

  306. Audio #14
  307. ID                                       : 15
  308. Format                                   : E-AC-3
  309. Format/Info                              : Enhanced AC-3
  310. Commercial name                          : Dolby Digital Plus
  311. Format profile                           : Blu-ray Disc
  312. Codec ID                                 : A_EAC3
  313. Duration                                 : 1 h 54 min
  314. Bit rate mode                            : Constant
  315. Bit rate                                 : 1 024 kb/s
  316. Channel(s)                               : 8 channels
  317. Channel layout                           : L R C LFE Ls Rs Lb Rb
  318. Sampling rate                            : 48.0 kHz
  319. Frame rate                               : 31.250 FPS (1536 SPF)
  320. Compression mode                         : Lossy
  321. Stream size                              : 841 MiB (1%)
  322. Title                                    : Thor.2011.2160p.BluRay.REMUX.HEVC.DTS-HD.MA.TrueHD.7.1.Atmos-FGT
  323. Language                                 : Japanese
  324. Service kind                             : Complete Main
  325. Default                                  : No
  326. Forced                                   : No

  327. Audio #15
  328. ID                                       : 16
  329. Format                                   : AC-3
  330. Format/Info                              : Audio Coding 3
  331. Commercial name                          : Dolby Digital
  332. Codec ID                                 : A_AC3
  333. Duration                                 : 1 h 54 min
  334. Bit rate mode                            : Constant
  335. Bit rate                                 : 576 kb/s
  336. Channel(s)                               : 6 channels
  337. Channel layout                           : L R C LFE Ls Rs
  338. Sampling rate                            : 48.0 kHz
  339. Frame rate                               : 31.250 FPS (1536 SPF)
  340. Bit depth                                : 16 bits
  341. Compression mode                         : Lossy
  342. Stream size                              : 473 MiB (1%)
  343. Title                                    : Thor.2011.2160p.BluRay.REMUX.HEVC.DTS-HD.MA.TrueHD.7.1.Atmos-FGT
  344. Language                                 : Japanese
  345. Service kind                             : Complete Main
  346. Default                                  : No
  347. Forced                                   : No

  348. Text #1
  349. ID                                       : 17
  350. Format                                   : UTF-8
  351. Codec ID                                 : S_TEXT/UTF8
  352. Codec ID/Info                            : UTF-8 Plain Text
  353. Duration                                 : 1 h 53 min
  354. Bit rate                                 : 39 b/s
  355. Count of elements                        : 1095
  356. Stream size                              : 33.1 KiB (0%)
  357. Title                                    : English-SRT
  358. Language                                 : English
  359. Default                                  : Yes
  360. Forced                                   : No

  361. Text #2
  362. ID                                       : 18
  363. Format                                   : PGS
  364. Muxing mode                              : zlib
  365. Codec ID                                 : S_HDMV/PGS
  366. Codec ID/Info                            : Picture based subtitle format used on BDs/HD-DVDs
  367. Duration                                 : 1 h 53 min
  368. Bit rate                                 : 32.3 kb/s
  369. Count of elements                        : 2416
  370. Stream size                              : 26.3 MiB (0%)
  371. Title                                    : English-PGS
  372. Language                                 : English
  373. Default                                  : No
  374. Forced                                   : No

  375. Text #3
  376. ID                                       : 19
  377. Format                                   : PGS
  378. Muxing mode                              : zlib
  379. Codec ID                                 : S_HDMV/PGS
  380. Codec ID/Info                            : Picture based subtitle format used on BDs/HD-DVDs
  381. Duration                                 : 1 h 53 min
  382. Bit rate                                 : 27.0 kb/s
  383. Count of elements                        : 2214
  384. Stream size                              : 22.0 MiB (0%)
  385. Title                                    : French-PGS
  386. Language                                 : French
  387. Default                                  : No
  388. Forced                                   : No

  389. Text #4
  390. ID                                       : 20
  391. Format                                   : PGS
  392. Muxing mode                              : zlib
  393. Codec ID                                 : S_HDMV/PGS
  394. Codec ID/Info                            : Picture based subtitle format used on BDs/HD-DVDs
  395. Duration                                 : 1 h 53 min
  396. Bit rate                                 : 24.8 kb/s
  397. Count of elements                        : 2084
  398. Stream size                              : 20.2 MiB (0%)
  399. Title                                    : French-PGS
  400. Language                                 : French
  401. Default                                  : No
  402. Forced                                   : No

  403. Text #5
  404. ID                                       : 21
  405. Format                                   : PGS
  406. Muxing mode                              : zlib
  407. Codec ID                                 : S_HDMV/PGS
  408. Codec ID/Info                            : Picture based subtitle format used on BDs/HD-DVDs
  409. Duration                                 : 1 h 53 min
  410. Bit rate                                 : 27.4 kb/s
  411. Count of elements                        : 2048
  412. Stream size                              : 22.3 MiB (0%)
  413. Title                                    : Spanish-PGS
  414. Language                                 : Spanish
  415. Default                                  : No
  416. Forced                                   : No

  417. Text #6
  418. ID                                       : 22
  419. Format                                   : PGS
  420. Muxing mode                              : zlib
  421. Codec ID                                 : S_HDMV/PGS
  422. Codec ID/Info                            : Picture based subtitle format used on BDs/HD-DVDs
  423. Duration                                 : 1 h 53 min
  424. Bit rate                                 : 32.8 kb/s
  425. Count of elements                        : 2214
  426. Stream size                              : 26.5 MiB (0%)
  427. Title                                    : German-PGS
  428. Language                                 : German
  429. Default                                  : No
  430. Forced                                   : No

  431. Text #7
  432. ID                                       : 23
  433. Format                                   : PGS
  434. Muxing mode                              : zlib
  435. Codec ID                                 : S_HDMV/PGS
  436. Codec ID/Info                            : Picture based subtitle format used on BDs/HD-DVDs
  437. Duration                                 : 1 h 53 min
  438. Bit rate                                 : 28.4 kb/s
  439. Count of elements                        : 2094
  440. Stream size                              : 23.0 MiB (0%)
  441. Title                                    : Italian-PGS
  442. Language                                 : Italian
  443. Default                                  : No
  444. Forced                                   : No

  445. Text #8
  446. ID                                       : 24
  447. Format                                   : PGS
  448. Muxing mode                              : zlib
  449. Codec ID                                 : S_HDMV/PGS
  450. Codec ID/Info                            : Picture based subtitle format used on BDs/HD-DVDs
  451. Duration                                 : 1 h 53 min
  452. Bit rate                                 : 19.1 kb/s
  453. Count of elements                        : 2119
  454. Stream size                              : 15.5 MiB (0%)
  455. Title                                    : Japanese-PGS
  456. Language                                 : Japanese
  457. Default                                  : No
  458. Forced                                   : No

  459. Text #9
  460. ID                                       : 25
  461. Format                                   : PGS
  462. Muxing mode                              : zlib
  463. Codec ID                                 : S_HDMV/PGS
  464. Codec ID/Info                            : Picture based subtitle format used on BDs/HD-DVDs
  465. Duration                                 : 1 h 53 min
  466. Bit rate                                 : 24.9 kb/s
  467. Count of elements                        : 2108
  468. Stream size                              : 20.2 MiB (0%)
  469. Title                                    : Norwegian-PGS
  470. Language                                 : Norwegian
  471. Default                                  : No
  472. Forced                                   : No

  473. Text #10
  474. ID                                       : 26
  475. Format                                   : PGS
  476. Muxing mode                              : zlib
  477. Codec ID                                 : S_HDMV/PGS
  478. Codec ID/Info                            : Picture based subtitle format used on BDs/HD-DVDs
  479. Duration                                 : 1 h 53 min
  480. Bit rate                                 : 28.1 kb/s
  481. Count of elements                        : 2118
  482. Stream size                              : 22.7 MiB (0%)
  483. Title                                    : Swedish-PGS
  484. Language                                 : Swedish
  485. Default                                  : No
  486. Forced                                   : No

  487. Text #11
  488. ID                                       : 27
  489. Format                                   : PGS
  490. Muxing mode                              : zlib
  491. Codec ID                                 : S_HDMV/PGS
  492. Codec ID/Info                            : Picture based subtitle format used on BDs/HD-DVDs
  493. Duration                                 : 1 h 52 min
  494. Bit rate                                 : 155 b/s
  495. Count of elements                        : 10
  496. Stream size                              : 128 KiB (0%)
  497. Title                                    : French-FORCED-PGS
  498. Language                                 : French
  499. Default                                  : No
  500. Forced                                   : No

  501. Text #12
  502. ID                                       : 28
  503. Format                                   : PGS
  504. Muxing mode                              : zlib
  505. Codec ID                                 : S_HDMV/PGS
  506. Codec ID/Info                            : Picture based subtitle format used on BDs/HD-DVDs
  507. Duration                                 : 1 h 52 min
  508. Bit rate                                 : 233 b/s
  509. Count of elements                        : 18
  510. Stream size                              : 192 KiB (0%)
  511. Title                                    : French-FORCED-PGS
  512. Language                                 : French
  513. Default                                  : No
  514. Forced                                   : No

  515. Text #13
  516. ID                                       : 29
  517. Format                                   : PGS
  518. Muxing mode                              : zlib
  519. Codec ID                                 : S_HDMV/PGS
  520. Codec ID/Info                            : Picture based subtitle format used on BDs/HD-DVDs
  521. Duration                                 : 1 h 19 min
  522. Bit rate                                 : 111 b/s
  523. Count of elements                        : 6
  524. Stream size                              : 65.1 KiB (0%)
  525. Title                                    : Spanish-FORCED-PGS
  526. Language                                 : Spanish
  527. Default                                  : No
  528. Forced                                   : No

  529. Text #14
  530. ID                                       : 30
  531. Format                                   : PGS
  532. Muxing mode                              : zlib
  533. Codec ID                                 : S_HDMV/PGS
  534. Codec ID/Info                            : Picture based subtitle format used on BDs/HD-DVDs
  535. Duration                                 : 21 min 16 s
  536. Bit rate                                 : 909 b/s
  537. Count of elements                        : 10
  538. Stream size                              : 142 KiB (0%)
  539. Title                                    : German-FORCED-PGS
  540. Language                                 : German
  541. Default                                  : No
  542. Forced                                   : No

  543. Text #15
  544. ID                                       : 31
  545. Format                                   : PGS
  546. Muxing mode                              : zlib
  547. Codec ID                                 : S_HDMV/PGS
  548. Codec ID/Info                            : Picture based subtitle format used on BDs/HD-DVDs
  549. Duration                                 : 1 h 49 min
  550. Bit rate                                 : 257 b/s
  551. Count of elements                        : 16
  552. Stream size                              : 206 KiB (0%)
  553. Title                                    : Italian-FORCED-PGS
  554. Language                                 : Italian
  555. Default                                  : No
  556. Forced                                   : No

  557. Text #16
  558. ID                                       : 32
  559. Format                                   : PGS
  560. Muxing mode                              : zlib
  561. Codec ID                                 : S_HDMV/PGS
  562. Codec ID/Info                            : Picture based subtitle format used on BDs/HD-DVDs
  563. Duration                                 : 1 h 52 min
  564. Bit rate                                 : 308 b/s
  565. Count of elements                        : 30
  566. Stream size                              : 254 KiB (0%)
  567. Title                                    : Japanese-FORCED-PGS
  568. Language                                 : Japanese
  569. Default                                  : No
  570. Forced                                   : No

  571. Menu
  572. 00:00:00.000                             : en:Chapter 01
  573. 00:10:37.595                             : en:Chapter 02
  574. 00:17:32.885                             : en:Chapter 03
  575. 00:26:01.935                             : en:Chapter 04
  576. 00:32:27.403                             : en:Chapter 05
  577. 00:37:27.912                             : en:Chapter 06
  578. 00:42:13.364                             : en:Chapter 07
  579. 00:52:09.876                             : en:Chapter 08
  580. 01:01:24.305                             : en:Chapter 09
  581. 01:08:45.037                             : en:Chapter 10
  582. 01:15:38.575                             : en:Chapter 11
  583. 01:21:18.748                             : en:Chapter 12
  584. 01:30:34.720                             : en:Chapter 13
  585. 01:40:57.342                             : en:Chapter 14
  586. 01:45:13.056                             : en:Chapter 15
  587. 01:53:05.487                             : en:Chapter 16
复制代码

雷神 Thor.2011.2160p.BluRay.REMUX.HEVC.DTS-HD.MA.TrueHD.7.1.Atmos-FGT 58.95GB-2.png 雷神 Thor.2011.2160p.BluRay.REMUX.HEVC.DTS-HD.MA.TrueHD.7.1.Atmos-FGT 58.95GB-3.png 雷神 Thor.2011.2160p.BluRay.REMUX.HEVC.DTS-HD.MA.TrueHD.7.1.Atmos-FGT 58.95GB-4.png






本帖隐藏的下载地址需要VIP会员才可阅读,您需要升级才可阅读,点击这里升级VIP

回复

使用道具 举报

级别:群众演员 Lv.3

注册时间
2019-3-30
最后登录
2019-8-23
听众
14
收听
0
主题
0
蓝光币
199 枚
贡献
0 点
发表于 2019-8-11 20:18:25 | 显示全部楼层
这个好清晰啊
回复

使用道具 举报

懒得打字嘛,点击右侧快捷回复 【右侧内容,后台自定义】
您需要登录后才可以回帖 登录 | 立即注册

本版积分规则

QQ|Archiver|手机版|小黑屋| 中国高清网 |网站地图

GMT+8, 2019-8-24 13:07 , Processed in 0.636233 second(s), 39 queries .

Powered by HDchina X3.4

Copyright 2017-2019©HDchina.All right reserved

返回顶部 联系我们