查看: 217|回复: 2

[REMUX.HEVC] 雷神2:黑暗世界 Thor.The.Dark.World.2013.2160p.BluRay.REMUX.HEVC.DTS-HD.MA.TrueHD.7.1.Atmos-FGT 50.59GB

[复制链接]

 成长值: 3420

级别:资源管理组

注册时间
2017-10-20
最后登录
2019-12-11
听众
1
收听
0
主题
88410
蓝光币
70033 枚
贡献
12772 点
发表于 2019-8-11 14:04:33 | 显示全部楼层 |阅读模式
雷神2:黑暗天下 Thor.The.Dark.World.2013.2160p.BluRay.REMUX.HEVC.DTS-HD.MA.TrueHD.7.1.Atmos-FGT 50.59GB-1.jpg

译  名 雷神2:黑暗天下 / Marvel's Thor: The Dark World / Thor 2 / 雷神2:黑暗国家 / 雷奇异侠2:黑暗天下(港) / 雷神托尔2 / 雷神索尔2:黑暗天下(台)
片  名 Thor: The Dark World
年  代 2013
产  地 美国
类  别 行动 / 奇异 / 冒险
语  言 英语
上映日期 2013-11-08(中国大陆/美国)
IMDb评分  6.9/10 from 548286 users
IMDb链接  http://www.imdb.com/title/tt1981115
豆瓣评分 7.4/10 from 252390 users
豆瓣链接 https://movie.douban.com/subject/6560058/
片  长 112分钟
导  演 阿兰·泰勒 Alan Taylor
编  剧 克里斯托弗·约斯特 Christopher Yost / 克里斯托弗·马库斯 Christopher Markus / 斯蒂芬·麦克菲利 Stephen McFeely / 唐·佩恩 Don Payne / 罗伯特·罗达特 Robert Rodat / 斯坦·李 Stan Lee / 拉里·利伯 Larry Lieber / 杰克·科比 Jack Kirby / 沃尔特·西蒙森 Walter Simonson
主  演 克里斯·海姆斯沃斯 Chris Hemsworth
       娜塔莉·波特曼 Natalie Portman
       汤姆·希德勒斯顿 Tom Hiddleston
       安东尼·霍普金斯 Anthony Hopkins
       克里斯托弗·埃克莱斯顿 Christopher Eccleston
       杰米·亚历山大 Jaimie Alexander
       扎克瑞·莱维 Zachary Levi
       雷·史蒂文森 Ray Stevenson
       浅野忠信 Tadanobu Asano
       伊德里斯·艾尔巴 Idris Elba
       蕾妮·罗素 Rene Russo
       阿德沃尔·阿吉纽依-艾格拜吉 Adewale Akinnuoye-Agbaje
       凯特·戴琳斯 Kat Dennings
       斯特兰·斯卡斯加德 Stellan Skarsg?rd
       艾丽丝·克里奇 Alice Krige
       克里夫·罗素 Clive Russell
       乔纳森·霍华德 Jonathan Howard
       克里斯·奥多德 Chris O'Dowd
       妲露拉·莱莉 Talulah Riley
       奥菲利亚·拉维邦德 Ophelia Lovibond
       本尼西奥·德尔·托罗 Benicio Del Toro
       斯坦·李 Stan Lee


标  签 美国 | 科幻 | Marvel | 漫画改编 | 漫威 | 行动 | 超级豪杰 | 2013

简  介  

  纽约大战后,雷神索尔(克里斯·海姆斯沃斯 Chris Hemsworth 饰)将弟弟洛基(汤姆·希德勒斯顿 Tom Hiddleston 饰)带回仙宫软禁起来,此外帮助九大国家安定纷争,威名扶摇直上。虽然父王奥丁(安东尼·霍普金斯 Anthony Hopkins 饰)劝其尽早即位,但索尔记忆犹新地球的美丽女孩简·福斯特(娜塔丽·波特曼 Natalie Portman 饰)。与此同时,简在和黛西及其助手伊安观察某个地区时意外被奥秘物资入侵,却也是以重逢索尔,并随其返回仙宫。使人意想不到的是,藏在简体内的物资来自太古的黑暗精灵玛勒基斯(克里斯托弗·埃克莱斯顿 Christopher Eccleston 饰)。在“天体味聚”的时辰再次到来之际,玛勒基斯诡计摧毁九大国家,缔造一个全然黑暗的宇宙。
  藏匿简的仙宫遭到重创,而索尔和洛基这对朋友兄弟也不能不联手迎战宿命的强敌……

获奖情况  

  第23届MTV电影奖(2014)
  MTV电影奖 最好赤膊表演(提名) 克里斯·海姆斯沃斯
  MTV电影奖 最好豪杰形象(提名) 克里斯·海姆斯沃斯

  第16届美国青少年挑选奖(2014)
  最好科幻/奇异电影(提名)
  最好科幻/奇异电影男演员(提名) 克里斯·海姆斯沃斯
  最好科幻/奇异电影女演员(提名) 娜塔莉·波特曼

  第4届豆瓣电影鑫像奖(2014)
  鑫豆单元 最好科幻/行动片(提名)
  豆渣单元 最渣女演员(外语)(提名) 娜塔莉·波特曼
  1. Video
  2. ID                                       : 1
  3. Format                                   : HEVC
  4. Format/Info                              : High Efficiency Video Coding
  5. Format profile                           : Main <a href="/cdn-cgi/l/email-protection" class="__cf_email__" data-cfemail="370607777b021906">[email protected]</a>@High
  6. HDR format                               : SMPTE ST 2086, HDR10 compatible
  7. Codec ID                                 : V_MPEGH/ISO/HEVC
  8. Duration                                 : 1 h 52 min
  9. Bit rate                                 : 46.1 Mb/s
  10. Width                                    : 3 840 pixels
  11. Height                                   : 2 160 pixels
  12. Display aspect ratio                     : 16:9
  13. Frame rate mode                          : Constant
  14. Frame rate                               : 23.976 (24000/1001) FPS
  15. Color space                              : YUV
  16. Chroma subsampling                       : 4:2:0 (Type 2)
  17. Bit depth                                : 10 bits
  18. Bits/(Pixel*Frame)                       : 0.232
  19. Stream size                              : 36.1 GiB (71%)
  20. Title                                    : Thor.The.Dark.World.2013.2160p.BluRay.REMUX.HEVC.DTS-HD.MA.TrueHD.7.1.Atmos-FGT
  21. Language                                 : English
  22. Default                                  : No
  23. Forced                                   : No
  24. Color range                              : Limited
  25. Color primaries                          : BT.2020
  26. Transfer characteristics                 : PQ
  27. Matrix coefficients                      : BT.2020 non-constant
  28. Mastering display color primaries        : Display P3
  29. Mastering display luminance              : min: 0.0050 cd/m2, max: 4000 cd/m2
  30. Maximum Content Light Level              : 600 cd/m2
  31. Maximum Frame-Average Light Level        : 600 cd/m2

  32. Audio #1
  33. ID                                       : 2
  34. Format                                   : MLP FBA 16-ch
  35. Format/Info                              : Meridian Lossless Packing FBA with 16-channel presentation
  36. Commercial name                          : Dolby TrueHD with Dolby Atmos
  37. Codec ID                                 : A_TRUEHD
  38. Duration                                 : 1 h 52 min
  39. Bit rate mode                            : Variable
  40. Bit rate                                 : 4 579 kb/s
  41. Maximum bit rate                         : 8 301 kb/s
  42. Channel(s)                               : 8 channels
  43. Channel layout                           : L R C LFE Ls Rs Lb Rb
  44. Sampling rate                            : 48.0 kHz
  45. Frame rate                               : 1 200.000 FPS (40 SPF)
  46. Compression mode                         : Lossless
  47. Stream size                              : 3.58 GiB (7%)
  48. Title                                    : Thor.The.Dark.World.2013.2160p.BluRay.REMUX.HEVC.DTS-HD.MA.TrueHD.7.1.Atmos-FGT
  49. Language                                 : English
  50. Default                                  : Yes
  51. Forced                                   : No
  52. Number of dynamic objects                : 13
  53. Bed channel count                        : 1 channel
  54. Bed channel configuration                : LFE

  55. Audio #2
  56. ID                                       : 3
  57. Format                                   : DTS XLL
  58. Format/Info                              : Digital Theater Systems
  59. Commercial name                          : DTS-HD Master Audio
  60. Codec ID                                 : A_DTS
  61. Duration                                 : 1 h 52 min
  62. Bit rate mode                            : Variable
  63. Bit rate                                 : 4 185 kb/s
  64. Channel(s)                               : 8 channels
  65. Channel layout                           : C L R LFE Lb Rb Lss Rss
  66. Sampling rate                            : 48.0 kHz
  67. Frame rate                               : 93.750 FPS (512 SPF)
  68. Bit depth                                : 24 bits
  69. Compression mode                         : Lossless
  70. Stream size                              : 3.28 GiB (6%)
  71. Title                                    : Thor.The.Dark.World.2013.2160p.BluRay.REMUX.HEVC.DTS-HD.MA.TrueHD.7.1.Atmos-FGT
  72. Language                                 : English
  73. Default                                  : No
  74. Forced                                   : No

  75. Audio #3
  76. ID                                       : 4
  77. Format                                   : AC-3
  78. Format/Info                              : Audio Coding 3
  79. Commercial name                          : Dolby Digital
  80. Codec ID                                 : A_AC3
  81. Duration                                 : 1 h 52 min
  82. Bit rate mode                            : Constant
  83. Bit rate                                 : 640 kb/s
  84. Channel(s)                               : 6 channels
  85. Channel layout                           : L R C LFE Ls Rs
  86. Sampling rate                            : 48.0 kHz
  87. Frame rate                               : 31.250 FPS (1536 SPF)
  88. Bit depth                                : 16 bits
  89. Compression mode                         : Lossy
  90. Stream size                              : 513 MiB (1%)
  91. Title                                    : Thor.The.Dark.World.2013.2160p.BluRay.REMUX.HEVC.DTS-HD.MA.TrueHD.7.1.Atmos-FGT
  92. Language                                 : English
  93. Service kind                             : Complete Main
  94. Default                                  : No
  95. Forced                                   : No

  96. Audio #4
  97. ID                                       : 5
  98. Format                                   : AC-3
  99. Format/Info                              : Audio Coding 3
  100. Commercial name                          : Dolby Digital
  101. Codec ID                                 : A_AC3
  102. Duration                                 : 1 h 52 min
  103. Bit rate mode                            : Constant
  104. Bit rate                                 : 320 kb/s
  105. Channel(s)                               : 2 channels
  106. Channel layout                           : L R
  107. Sampling rate                            : 48.0 kHz
  108. Frame rate                               : 31.250 FPS (1536 SPF)
  109. Bit depth                                : 16 bits
  110. Compression mode                         : Lossy
  111. Stream size                              : 256 MiB (0%)
  112. Title                                    : Thor.The.Dark.World.2013.2160p.BluRay.REMUX.HEVC.DTS-HD.MA.TrueHD.7.1.Atmos-FGT
  113. Language                                 : English
  114. Service kind                             : Complete Main
  115. Default                                  : No
  116. Forced                                   : No

  117. Audio #5
  118. ID                                       : 6
  119. Format                                   : AC-3
  120. Format/Info                              : Audio Coding 3
  121. Commercial name                          : Dolby Digital
  122. Codec ID                                 : A_AC3
  123. Duration                                 : 1 h 52 min
  124. Bit rate mode                            : Constant
  125. Bit rate                                 : 640 kb/s
  126. Channel(s)                               : 6 channels
  127. Channel layout                           : L R C LFE Ls Rs
  128. Sampling rate                            : 48.0 kHz
  129. Frame rate                               : 31.250 FPS (1536 SPF)
  130. Bit depth                                : 16 bits
  131. Compression mode                         : Lossy
  132. Stream size                              : 513 MiB (1%)
  133. Title                                    : Thor.The.Dark.World.2013.2160p.BluRay.REMUX.HEVC.DTS-HD.MA.TrueHD.7.1.Atmos-FGT
  134. Language                                 : French
  135. Service kind                             : Complete Main
  136. Default                                  : No
  137. Forced                                   : No

  138. Audio #6
  139. ID                                       : 7
  140. Format                                   : E-AC-3
  141. Format/Info                              : Enhanced AC-3
  142. Commercial name                          : Dolby Digital Plus
  143. Format profile                           : Blu-ray Disc
  144. Codec ID                                 : A_EAC3
  145. Duration                                 : 1 h 52 min
  146. Bit rate mode                            : Constant
  147. Bit rate                                 : 1 024 kb/s
  148. Channel(s)                               : 8 channels
  149. Channel layout                           : L R C LFE Ls Rs Lb Rb
  150. Sampling rate                            : 48.0 kHz
  151. Frame rate                               : 31.250 FPS (1536 SPF)
  152. Compression mode                         : Lossy
  153. Stream size                              : 821 MiB (2%)
  154. Title                                    : Thor.The.Dark.World.2013.2160p.BluRay.REMUX.HEVC.DTS-HD.MA.TrueHD.7.1.Atmos-FGT
  155. Language                                 : French
  156. Service kind                             : Complete Main
  157. Default                                  : No
  158. Forced                                   : No

  159. Audio #7
  160. ID                                       : 8
  161. Format                                   : AC-3
  162. Format/Info                              : Audio Coding 3
  163. Commercial name                          : Dolby Digital
  164. Codec ID                                 : A_AC3
  165. Duration                                 : 1 h 52 min
  166. Bit rate mode                            : Constant
  167. Bit rate                                 : 576 kb/s
  168. Channel(s)                               : 6 channels
  169. Channel layout                           : L R C LFE Ls Rs
  170. Sampling rate                            : 48.0 kHz
  171. Frame rate                               : 31.250 FPS (1536 SPF)
  172. Bit depth                                : 16 bits
  173. Compression mode                         : Lossy
  174. Stream size                              : 462 MiB (1%)
  175. Title                                    : Thor.The.Dark.World.2013.2160p.BluRay.REMUX.HEVC.DTS-HD.MA.TrueHD.7.1.Atmos-FGT
  176. Language                                 : French
  177. Service kind                             : Complete Main
  178. Default                                  : No
  179. Forced                                   : No

  180. Audio #8
  181. ID                                       : 9
  182. Format                                   : E-AC-3
  183. Format/Info                              : Enhanced AC-3
  184. Commercial name                          : Dolby Digital Plus
  185. Format profile                           : Blu-ray Disc
  186. Codec ID                                 : A_EAC3
  187. Duration                                 : 1 h 52 min
  188. Bit rate mode                            : Constant
  189. Bit rate                                 : 1 024 kb/s
  190. Channel(s)                               : 8 channels
  191. Channel layout                           : L R C LFE Ls Rs Lb Rb
  192. Sampling rate                            : 48.0 kHz
  193. Frame rate                               : 31.250 FPS (1536 SPF)
  194. Compression mode                         : Lossy
  195. Stream size                              : 821 MiB (2%)
  196. Title                                    : Thor.The.Dark.World.2013.2160p.BluRay.REMUX.HEVC.DTS-HD.MA.TrueHD.7.1.Atmos-FGT
  197. Language                                 : Spanish
  198. Service kind                             : Complete Main
  199. Default                                  : No
  200. Forced                                   : No

  201. Audio #9
  202. ID                                       : 10
  203. Format                                   : AC-3
  204. Format/Info                              : Audio Coding 3
  205. Commercial name                          : Dolby Digital
  206. Codec ID                                 : A_AC3
  207. Duration                                 : 1 h 52 min
  208. Bit rate mode                            : Constant
  209. Bit rate                                 : 576 kb/s
  210. Channel(s)                               : 6 channels
  211. Channel layout                           : L R C LFE Ls Rs
  212. Sampling rate                            : 48.0 kHz
  213. Frame rate                               : 31.250 FPS (1536 SPF)
  214. Bit depth                                : 16 bits
  215. Compression mode                         : Lossy
  216. Stream size                              : 462 MiB (1%)
  217. Title                                    : Thor.The.Dark.World.2013.2160p.BluRay.REMUX.HEVC.DTS-HD.MA.TrueHD.7.1.Atmos-FGT
  218. Language                                 : Spanish
  219. Service kind                             : Complete Main
  220. Default                                  : No
  221. Forced                                   : No

  222. Audio #10
  223. ID                                       : 11
  224. Format                                   : E-AC-3
  225. Format/Info                              : Enhanced AC-3
  226. Commercial name                          : Dolby Digital Plus
  227. Format profile                           : Blu-ray Disc
  228. Codec ID                                 : A_EAC3
  229. Duration                                 : 1 h 52 min
  230. Bit rate mode                            : Constant
  231. Bit rate                                 : 1 024 kb/s
  232. Channel(s)                               : 8 channels
  233. Channel layout                           : L R C LFE Ls Rs Lb Rb
  234. Sampling rate                            : 48.0 kHz
  235. Frame rate                               : 31.250 FPS (1536 SPF)
  236. Compression mode                         : Lossy
  237. Stream size                              : 821 MiB (2%)
  238. Title                                    : Thor.The.Dark.World.2013.2160p.BluRay.REMUX.HEVC.DTS-HD.MA.TrueHD.7.1.Atmos-FGT
  239. Language                                 : German
  240. Service kind                             : Complete Main
  241. Default                                  : No
  242. Forced                                   : No

  243. Audio #11
  244. ID                                       : 12
  245. Format                                   : AC-3
  246. Format/Info                              : Audio Coding 3
  247. Commercial name                          : Dolby Digital
  248. Codec ID                                 : A_AC3
  249. Duration                                 : 1 h 52 min
  250. Bit rate mode                            : Constant
  251. Bit rate                                 : 576 kb/s
  252. Channel(s)                               : 6 channels
  253. Channel layout                           : L R C LFE Ls Rs
  254. Sampling rate                            : 48.0 kHz
  255. Frame rate                               : 31.250 FPS (1536 SPF)
  256. Bit depth                                : 16 bits
  257. Compression mode                         : Lossy
  258. Stream size                              : 462 MiB (1%)
  259. Title                                    : Thor.The.Dark.World.2013.2160p.BluRay.REMUX.HEVC.DTS-HD.MA.TrueHD.7.1.Atmos-FGT
  260. Language                                 : German
  261. Service kind                             : Complete Main
  262. Default                                  : No
  263. Forced                                   : No

  264. Audio #12
  265. ID                                       : 13
  266. Format                                   : E-AC-3
  267. Format/Info                              : Enhanced AC-3
  268. Commercial name                          : Dolby Digital Plus
  269. Format profile                           : Blu-ray Disc
  270. Codec ID                                 : A_EAC3
  271. Duration                                 : 1 h 52 min
  272. Bit rate mode                            : Constant
  273. Bit rate                                 : 1 024 kb/s
  274. Channel(s)                               : 8 channels
  275. Channel layout                           : L R C LFE Ls Rs Lb Rb
  276. Sampling rate                            : 48.0 kHz
  277. Frame rate                               : 31.250 FPS (1536 SPF)
  278. Compression mode                         : Lossy
  279. Stream size                              : 821 MiB (2%)
  280. Title                                    : Thor.The.Dark.World.2013.2160p.BluRay.REMUX.HEVC.DTS-HD.MA.TrueHD.7.1.Atmos-FGT
  281. Language                                 : Italian
  282. Service kind                             : Complete Main
  283. Default                                  : No
  284. Forced                                   : No

  285. Audio #13
  286. ID                                       : 14
  287. Format                                   : AC-3
  288. Format/Info                              : Audio Coding 3
  289. Commercial name                          : Dolby Digital
  290. Codec ID                                 : A_AC3
  291. Duration                                 : 1 h 52 min
  292. Bit rate mode                            : Constant
  293. Bit rate                                 : 576 kb/s
  294. Channel(s)                               : 6 channels
  295. Channel layout                           : L R C LFE Ls Rs
  296. Sampling rate                            : 48.0 kHz
  297. Frame rate                               : 31.250 FPS (1536 SPF)
  298. Bit depth                                : 16 bits
  299. Compression mode                         : Lossy
  300. Stream size                              : 462 MiB (1%)
  301. Title                                    : Thor.The.Dark.World.2013.2160p.BluRay.REMUX.HEVC.DTS-HD.MA.TrueHD.7.1.Atmos-FGT
  302. Language                                 : Italian
  303. Service kind                             : Complete Main
  304. Default                                  : No
  305. Forced                                   : No

  306. Audio #14
  307. ID                                       : 15
  308. Format                                   : E-AC-3
  309. Format/Info                              : Enhanced AC-3
  310. Commercial name                          : Dolby Digital Plus
  311. Format profile                           : Blu-ray Disc
  312. Codec ID                                 : A_EAC3
  313. Duration                                 : 1 h 52 min
  314. Bit rate mode                            : Constant
  315. Bit rate                                 : 1 024 kb/s
  316. Channel(s)                               : 8 channels
  317. Channel layout                           : L R C LFE Ls Rs Lb Rb
  318. Sampling rate                            : 48.0 kHz
  319. Frame rate                               : 31.250 FPS (1536 SPF)
  320. Compression mode                         : Lossy
  321. Stream size                              : 821 MiB (2%)
  322. Title                                    : Thor.The.Dark.World.2013.2160p.BluRay.REMUX.HEVC.DTS-HD.MA.TrueHD.7.1.Atmos-FGT
  323. Language                                 : Japanese
  324. Service kind                             : Complete Main
  325. Default                                  : No
  326. Forced                                   : No

  327. Audio #15
  328. ID                                       : 16
  329. Format                                   : AC-3
  330. Format/Info                              : Audio Coding 3
  331. Commercial name                          : Dolby Digital
  332. Codec ID                                 : A_AC3
  333. Duration                                 : 1 h 52 min
  334. Bit rate mode                            : Constant
  335. Bit rate                                 : 576 kb/s
  336. Channel(s)                               : 6 channels
  337. Channel layout                           : L R C LFE Ls Rs
  338. Sampling rate                            : 48.0 kHz
  339. Frame rate                               : 31.250 FPS (1536 SPF)
  340. Bit depth                                : 16 bits
  341. Compression mode                         : Lossy
  342. Stream size                              : 462 MiB (1%)
  343. Title                                    : Thor.The.Dark.World.2013.2160p.BluRay.REMUX.HEVC.DTS-HD.MA.TrueHD.7.1.Atmos-FGT
  344. Language                                 : Japanese
  345. Service kind                             : Complete Main
  346. Default                                  : No
  347. Forced                                   : No

  348. Text #1
  349. ID                                       : 17
  350. Format                                   : UTF-8
  351. Codec ID                                 : S_TEXT/UTF8
  352. Codec ID/Info                            : UTF-8 Plain Text
  353. Duration                                 : 1 h 13 min
  354. Bit rate                                 : 1 b/s
  355. Count of elements                        : 30
  356. Stream size                              : 995 Bytes (0%)
  357. Title                                    : English-FORCED-SRT
  358. Language                                 : English
  359. Default                                  : Yes
  360. Forced                                   : Yes

  361. Text #2
  362. ID                                       : 18
  363. Format                                   : UTF-8
  364. Codec ID                                 : S_TEXT/UTF8
  365. Codec ID/Info                            : UTF-8 Plain Text
  366. Duration                                 : 1 h 45 min
  367. Bit rate                                 : 41 b/s
  368. Count of elements                        : 1103
  369. Stream size                              : 31.6 KiB (0%)
  370. Title                                    : English-SRT
  371. Language                                 : English
  372. Default                                  : No
  373. Forced                                   : No

  374. Text #3
  375. ID                                       : 19
  376. Format                                   : PGS
  377. Muxing mode                              : zlib
  378. Codec ID                                 : S_HDMV/PGS
  379. Codec ID/Info                            : Picture based subtitle format used on BDs/HD-DVDs
  380. Duration                                 : 1 h 51 min
  381. Bit rate                                 : 34.1 kb/s
  382. Count of elements                        : 2757
  383. Stream size                              : 27.1 MiB (0%)
  384. Title                                    : English-PGS
  385. Language                                 : English
  386. Default                                  : No
  387. Forced                                   : No

  388. Text #4
  389. ID                                       : 20
  390. Format                                   : PGS
  391. Muxing mode                              : zlib
  392. Codec ID                                 : S_HDMV/PGS
  393. Codec ID/Info                            : Picture based subtitle format used on BDs/HD-DVDs
  394. Duration                                 : 1 h 51 min
  395. Bit rate                                 : 28.8 kb/s
  396. Count of elements                        : 2222
  397. Stream size                              : 23.0 MiB (0%)
  398. Title                                    : French-PGS
  399. Language                                 : French
  400. Default                                  : No
  401. Forced                                   : No

  402. Text #5
  403. ID                                       : 21
  404. Format                                   : PGS
  405. Muxing mode                              : zlib
  406. Codec ID                                 : S_HDMV/PGS
  407. Codec ID/Info                            : Picture based subtitle format used on BDs/HD-DVDs
  408. Duration                                 : 1 h 51 min
  409. Bit rate                                 : 23.9 kb/s
  410. Count of elements                        : 2124
  411. Stream size                              : 19.1 MiB (0%)
  412. Title                                    : French-PGS
  413. Language                                 : French
  414. Default                                  : No
  415. Forced                                   : No

  416. Text #6
  417. ID                                       : 22
  418. Format                                   : PGS
  419. Muxing mode                              : zlib
  420. Codec ID                                 : S_HDMV/PGS
  421. Codec ID/Info                            : Picture based subtitle format used on BDs/HD-DVDs
  422. Duration                                 : 1 h 51 min
  423. Bit rate                                 : 28.5 kb/s
  424. Count of elements                        : 2164
  425. Stream size                              : 22.7 MiB (0%)
  426. Title                                    : Spanish-PGS
  427. Language                                 : Spanish
  428. Default                                  : No
  429. Forced                                   : No

  430. Text #7
  431. ID                                       : 23
  432. Format                                   : PGS
  433. Muxing mode                              : zlib
  434. Codec ID                                 : S_HDMV/PGS
  435. Codec ID/Info                            : Picture based subtitle format used on BDs/HD-DVDs
  436. Duration                                 : 1 h 45 min
  437. Bit rate                                 : 27.6 kb/s
  438. Count of elements                        : 2020
  439. Stream size                              : 20.7 MiB (0%)
  440. Title                                    : German-PGS
  441. Language                                 : German
  442. Default                                  : No
  443. Forced                                   : No

  444. Text #8
  445. ID                                       : 24
  446. Format                                   : PGS
  447. Muxing mode                              : zlib
  448. Codec ID                                 : S_HDMV/PGS
  449. Codec ID/Info                            : Picture based subtitle format used on BDs/HD-DVDs
  450. Duration                                 : 1 h 51 min
  451. Bit rate                                 : 29.2 kb/s
  452. Count of elements                        : 2164
  453. Stream size                              : 23.3 MiB (0%)
  454. Title                                    : Italian-PGS
  455. Language                                 : Italian
  456. Default                                  : No
  457. Forced                                   : No

  458. Text #9
  459. ID                                       : 25
  460. Format                                   : PGS
  461. Muxing mode                              : zlib
  462. Codec ID                                 : S_HDMV/PGS
  463. Codec ID/Info                            : Picture based subtitle format used on BDs/HD-DVDs
  464. Duration                                 : 1 h 51 min
  465. Bit rate                                 : 15.9 kb/s
  466. Count of elements                        : 1934
  467. Stream size                              : 12.6 MiB (0%)
  468. Title                                    : Japanese-PGS
  469. Language                                 : Japanese
  470. Default                                  : No
  471. Forced                                   : No

  472. Text #10
  473. ID                                       : 26
  474. Format                                   : PGS
  475. Muxing mode                              : zlib
  476. Codec ID                                 : S_HDMV/PGS
  477. Codec ID/Info                            : Picture based subtitle format used on BDs/HD-DVDs
  478. Duration                                 : 1 h 51 min
  479. Bit rate                                 : 26.7 kb/s
  480. Count of elements                        : 2156
  481. Stream size                              : 21.3 MiB (0%)
  482. Title                                    : Norwegian-PGS
  483. Language                                 : Norwegian
  484. Default                                  : No
  485. Forced                                   : No

  486. Text #11
  487. ID                                       : 27
  488. Format                                   : PGS
  489. Muxing mode                              : zlib
  490. Codec ID                                 : S_HDMV/PGS
  491. Codec ID/Info                            : Picture based subtitle format used on BDs/HD-DVDs
  492. Duration                                 : 1 h 51 min
  493. Bit rate                                 : 24.2 kb/s
  494. Count of elements                        : 1412
  495. Stream size                              : 19.3 MiB (0%)
  496. Title                                    : Swedish-PGS
  497. Language                                 : Swedish
  498. Default                                  : No
  499. Forced                                   : No

  500. Text #12
  501. ID                                       : 28
  502. Format                                   : PGS
  503. Muxing mode                              : zlib
  504. Codec ID                                 : S_HDMV/PGS
  505. Codec ID/Info                            : Picture based subtitle format used on BDs/HD-DVDs
  506. Duration                                 : 1 h 13 min
  507. Bit rate                                 : 562 b/s
  508. Count of elements                        : 56
  509. Stream size                              : 305 KiB (0%)
  510. Title                                    : English-FORCED-PGS
  511. Language                                 : English
  512. Default                                  : No
  513. Forced                                   : No

  514. Text #13
  515. ID                                       : 29
  516. Format                                   : PGS
  517. Muxing mode                              : zlib
  518. Codec ID                                 : S_HDMV/PGS
  519. Codec ID/Info                            : Picture based subtitle format used on BDs/HD-DVDs
  520. Duration                                 : 1 h 50 min
  521. Bit rate                                 : 663 b/s
  522. Count of elements                        : 74
  523. Stream size                              : 538 KiB (0%)
  524. Title                                    : French-FORCED-PGS
  525. Language                                 : French
  526. Default                                  : No
  527. Forced                                   : No

  528. Text #14
  529. ID                                       : 30
  530. Format                                   : PGS
  531. Muxing mode                              : zlib
  532. Codec ID                                 : S_HDMV/PGS
  533. Codec ID/Info                            : Picture based subtitle format used on BDs/HD-DVDs
  534. Duration                                 : 1 h 50 min
  535. Bit rate                                 : 461 b/s
  536. Count of elements                        : 64
  537. Stream size                              : 375 KiB (0%)
  538. Title                                    : French-FORCED-PGS
  539. Language                                 : French
  540. Default                                  : No
  541. Forced                                   : No

  542. Text #15
  543. ID                                       : 31
  544. Format                                   : PGS
  545. Muxing mode                              : zlib
  546. Codec ID                                 : S_HDMV/PGS
  547. Codec ID/Info                            : Picture based subtitle format used on BDs/HD-DVDs
  548. Duration                                 : 1 h 50 min
  549. Bit rate                                 : 488 b/s
  550. Count of elements                        : 64
  551. Stream size                              : 396 KiB (0%)
  552. Title                                    : Spanish-FORCED-PGS
  553. Language                                 : Spanish
  554. Default                                  : No
  555. Forced                                   : No

  556. Text #16
  557. ID                                       : 32
  558. Format                                   : PGS
  559. Muxing mode                              : zlib
  560. Codec ID                                 : S_HDMV/PGS
  561. Codec ID/Info                            : Picture based subtitle format used on BDs/HD-DVDs
  562. Duration                                 : 1 h 42 min
  563. Bit rate                                 : 482 b/s
  564. Count of elements                        : 60
  565. Stream size                              : 363 KiB (0%)
  566. Title                                    : German-FORCED-PGS
  567. Language                                 : German
  568. Default                                  : No
  569. Forced                                   : No

  570. Text #17
  571. ID                                       : 33
  572. Format                                   : PGS
  573. Muxing mode                              : zlib
  574. Codec ID                                 : S_HDMV/PGS
  575. Codec ID/Info                            : Picture based subtitle format used on BDs/HD-DVDs
  576. Duration                                 : 1 h 13 min
  577. Bit rate                                 : 637 b/s
  578. Count of elements                        : 58
  579. Stream size                              : 345 KiB (0%)
  580. Title                                    : Italian-FORCED-PGS
  581. Language                                 : Italian
  582. Default                                  : No
  583. Forced                                   : No

  584. Text #18
  585. ID                                       : 34
  586. Format                                   : PGS
  587. Muxing mode                              : zlib
  588. Codec ID                                 : S_HDMV/PGS
  589. Codec ID/Info                            : Picture based subtitle format used on BDs/HD-DVDs
  590. Duration                                 : 1 h 50 min
  591. Bit rate                                 : 711 b/s
  592. Count of elements                        : 72
  593. Stream size                              : 577 KiB (0%)
  594. Title                                    : Japanese-FORCED-PGS
  595. Language                                 : Japanese
  596. Default                                  : No
  597. Forced                                   : No

  598. Menu
  599. 00:00:00.000                             : en:Chapter 01
  600. 00:06:13.664                             : en:Chapter 02
  601. 00:13:05.201                             : en:Chapter 03
  602. 00:18:40.994                             : en:Chapter 04
  603. 00:24:56.703                             : en:Chapter 05
  604. 00:29:07.495                             : en:Chapter 06
  605. 00:41:33.365                             : en:Chapter 07
  606. 00:49:40.227                             : en:Chapter 08
  607. 00:55:56.144                             : en:Chapter 09
  608. 01:00:08.855                             : en:Chapter 10
  609. 01:08:12.671                             : en:Chapter 11
  610. 01:12:39.897                             : en:Chapter 12
  611. 01:21:34.180                             : en:Chapter 13
  612. 01:26:22.093                             : en:Chapter 14
  613. 01:33:58.799                             : en:Chapter 15
  614. 01:38:31.363                             : en:Chapter 16
  615. 01:41:49.228                             : en:Chapter 17
复制代码

雷神2:黑暗天下 Thor.The.Dark.World.2013.2160p.BluRay.REMUX.HEVC.DTS-HD.MA.TrueHD.7.1.Atmos-FGT 50.59GB-2.png 雷神2:黑暗天下 Thor.The.Dark.World.2013.2160p.BluRay.REMUX.HEVC.DTS-HD.MA.TrueHD.7.1.Atmos-FGT 50.59GB-3.png 雷神2:黑暗天下 Thor.The.Dark.World.2013.2160p.BluRay.REMUX.HEVC.DTS-HD.MA.TrueHD.7.1.Atmos-FGT 50.59GB-4.png






本帖隐藏的下载地址需要VIP会员才可阅读,您需要升级才可阅读,点击这里升级VIP

VIP会员免费任意下载本站所有资源!---点击开通
回复

使用道具 举报

级别:专业龙套 Lv.4

注册时间
2019-3-30
最后登录
2019-12-9
听众
15
收听
0
主题
0
蓝光币
409 枚
贡献
0 点
发表于 2019-8-11 20:16:45 | 显示全部楼层
这个绝对高清
VIP会员免费任意下载本站所有资源!---点击开通
回复

使用道具 举报

 成长值: 2485

级别:尊贵的会员

注册时间
2019-6-11
最后登录
2019-12-11
听众
12
收听
0
主题
0
蓝光币
0 枚
贡献
0 点
发表于 2019-8-12 00:30:38 | 显示全部楼层

楼主太厉害了!楼主,电影应该很好看我觉得中国高清电影网真是个好地方!
VIP会员免费任意下载本站所有资源!---点击开通
回复

使用道具 举报

懒得打字嘛,点击右侧快捷回复 【右侧内容,后台自定义】
您需要登录后才可以回帖 登录 | 立即注册

本版积分规则

QQ|Archiver|手机版|小黑屋| 中国高清网 |网站地图

GMT+8, 2019-12-11 13:20 , Processed in 0.306509 second(s), 38 queries .

Powered by HDchina X3.4

Copyright 2017-2019©HDchina.All right reserved

返回顶部 联系我们