查看: 55|回复: 1

[悬疑片] 索朗芝怎么了? What.Have.You.Done.To.Solange.1975.1080p.BluRay.x264-RRH 7.65GB

[复制链接]

 成长值: 2270

级别:资源管理组

注册时间
2017-10-20
最后登录
2019-8-23
听众
1
收听
0
主题
81029
蓝光币
43234 枚
贡献
5356 点
发表于 2019-8-11 11:19:36 | 显示全部楼层 |阅读模式
索朗芝怎样了? What.Have.You.Done.To.Solange.1975.1080p.BluRay.x264-RRH 7.65GB-1.jpg

译  名 索朗芝怎样了? / What Have You Done to Solange?
片  名 Cosa avete fatto a Solange?
年  代 1972
产  地 意大利 / 西德
类  别 悬疑 / 惊悚 / 可骇
语  言 英语 / 意大利语
上映日期 1972-03-09
IMDb评分  7.0/10 from 3847 users
IMDb链接  http://www.imdb.com/title/tt0068416
豆瓣评分 6.8/10 from 201 users
豆瓣链接 https://movie.douban.com/subject/2345021/
片  长 103分钟
导  演 Massimo Dallamano
编  剧 Bruno Di Geronimo / 马斯默·达拉马诺 Massimo Dallamano
主  演 Fabio Testi
       Karin Baal


标  签 意大利 | 悬疑 | 可骇 | 惊悚 | Giallo | 1970s | 意大利电影 | 1972

简  介  

  安瑞克(Fabio Testi 饰)是在圣玛丽女子学院就职的一位教员,虽然已经成家,但风骚成性的安瑞克照旧和一位名叫伊丽莎白(克里斯蒂娜·伽尔博 Cristina Galbó 饰)的门生发生了不正当的关系。
  某日,伊丽莎白在意外当中目击了一桩手段极为凶残的谋杀案,不幸的是,凶手发现了作为唯一目击证人的伊丽莎白。偶合的是,这桩谋杀案的受害者居然也是圣玛丽女子学院的门生,这也就意味着,刻毒的凶手就隐藏在伊丽莎白的身旁。果不其然,为了杀人灭口,伊丽莎白成为了凶手的下一个方针,而随着师生恋丑闻的曝光,安瑞克成为了警方重点思疑的工具。为了洗清委屈,安瑞克决议自己观察事务的真相。
  1. Video
  2. ID                                       : 1
  3. Format                                   : AVC
  4. Format/Info                              : Advanced Video Codec
  5. Format profile                           : <a href="/cdn-cgi/l/email-protection" class="__cf_email__" data-cfemail="541c3d333c1418607a65">[email protected]</a>
  6. Format settings, CABAC                   : Yes
  7. Format settings, ReFrames                : 5 frames
  8. Codec ID                                 : V_MPEG4/ISO/AVC
  9. Duration                                 : 1h 43mn
  10. Bit rate                                 : 9 317 Kbps
  11. Width                                    : 1 920 pixels
  12. Height                                   : 816 pixels
  13. Display aspect ratio                     : 2.35:1
  14. Frame rate mode                          : Constant
  15. Frame rate                               : 23.976 (24000/1001) fps
  16. Color space                              : YUV
  17. Chroma subsampling                       : 4:2:0
  18. Bit depth                                : 8 bits
  19. Scan type                                : Progressive
  20. Bits/(Pixel*Frame)                       : 0.248
  21. Stream size                              : 6.73 GiB (88%)
  22. Writing library                          : x264 core 148 r2665 a01e339
  23. Encoding settings                        : cabac=1 / ref=5 / deblock=1:0:0 / analyse=0x3:0x113 / me=umh / subme=8 / psy=1 / psy_rd=1.00:0.00 / mixed_ref=1 / me_range=16 / chroma_me=1 / trellis=1 / 8x8dct=1 / cqm=0 / deadzone=21,11 / fast_pskip=1 / chroma_qp_offset=-2 / threads=12 / lookahead_threads=2 / sliced_threads=0 / nr=0 / decimate=1 / interlaced=0 / bluray_compat=0 / constrained_intra=0 / bframes=3 / b_pyramid=2 / b_adapt=2 / b_bias=0 / direct=3 / weightb=1 / open_gop=0 / weightp=2 / keyint=240 / keyint_min=23 / scenecut=40 / intra_refresh=0 / rc_lookahead=50 / rc=2pass / mbtree=1 / bitrate=9317 / ratetol=1.0 / qcomp=0.60 / qpmin=0 / qpmax=69 / qpstep=4 / cplxblur=20.0 / qblur=0.5 / vbv_maxrate=62500 / vbv_bufsize=78125 / nal_hrd=none / filler=0 / ip_ratio=1.40 / aq=1:1.00
  24. Default                                  : Yes
  25. Forced                                   : No

  26. Audio #1
  27. ID                                       : 2
  28. Format                                   : AC-3
  29. Format/Info                              : Audio Coding 3
  30. Mode extension                           : CM (complete main)
  31. Format settings, Endianness              : Big
  32. Codec ID                                 : A_AC3
  33. Duration                                 : 1h 43mn
  34. Bit rate mode                            : Constant
  35. Bit rate                                 : 640 Kbps
  36. Channel(s)                               : 1 channel
  37. Channel positions                        : Front: C
  38. Sampling rate                            : 48.0 KHz
  39. Frame rate                               : 31.250 fps (1536 spf)
  40. Compression mode                         : Lossy
  41. Stream size                              : 473 MiB (6%)
  42. Language                                 : English
  43. Default                                  : Yes
  44. Forced                                   : No

  45. Audio #2
  46. ID                                       : 3
  47. Format                                   : AC-3
  48. Format/Info                              : Audio Coding 3
  49. Mode extension                           : CM (complete main)
  50. Format settings, Endianness              : Big
  51. Codec ID                                 : A_AC3
  52. Duration                                 : 1h 43mn
  53. Bit rate mode                            : Constant
  54. Bit rate                                 : 640 Kbps
  55. Channel(s)                               : 1 channel
  56. Channel positions                        : Front: C
  57. Sampling rate                            : 48.0 KHz
  58. Frame rate                               : 31.250 fps (1536 spf)
  59. Compression mode                         : Lossy
  60. Stream size                              : 473 MiB (6%)
  61. Language                                 : Italian
  62. Default                                  : No
  63. Forced                                   : No

  64. Text
  65. ID                                       : 4
  66. Format                                   : UTF-8
  67. Codec ID                                 : S_TEXT/UTF8
  68. Codec ID/Info                            : UTF-8 Plain Text
  69. Duration                                 : 1h 43mn
  70. Bit rate                                 : 55 bps
  71. Count of elements                        : 1344
  72. Stream size                              : 42.2 KiB (0%)
  73. Language                                 : English
  74. Default                                  : No
  75. Forced                                   : No
复制代码

索朗芝怎样了? What.Have.You.Done.To.Solange.1975.1080p.BluRay.x264-RRH 7.65GB-2.png






回复

使用道具 举报

级别:专业龙套 Lv.4

注册时间
2019-1-22
最后登录
2019-8-20
听众
12
收听
0
主题
0
蓝光币
192 枚
贡献
0 点
发表于 2019-8-13 21:59:55 | 显示全部楼层
楼主发贴辛苦了,谢谢楼主分享!我觉得中国高清电影网是注册对了!
回复

使用道具 举报

懒得打字嘛,点击右侧快捷回复 【右侧内容,后台自定义】
您需要登录后才可以回帖 登录 | 立即注册

本版积分规则

QQ|Archiver|手机版|小黑屋| 中国高清网 |网站地图

GMT+8, 2019-8-24 12:35 , Processed in 0.447643 second(s), 39 queries .

Powered by HDchina X3.4

Copyright 2017-2019©HDchina.All right reserved

返回顶部 联系我们