查看: 75|回复: 0

[8bit.SDR] 地狱男爵:血皇后崛起 Hellboy.2019.2160p.BluRay.x264.8bit.SDR.DTS-HD.MA.TrueHD.7.1.Atmos-SWTYBLZ 35.80GB

[复制链接]

 成长值: 2200

级别:资源管理组

注册时间
2017-10-20
最后登录
2019-8-17
听众
1
收听
0
主题
80689
蓝光币
41955 枚
贡献
5016 点
发表于 7 天前 | 显示全部楼层 |阅读模式
天堂男爵:血皇后突起 Hellboy.2019.2160p.BluRay.x264.8bit.SDR.DTS-HD.MA.TrueHD.7.1.Atmos-SWTYBLZ 35.80GB-1.png

译  名 天堂男爵:血皇后突起 / Hellboy - Call of Darkness / Hellboy: Rise of the Blood Queen / 天堂怪客:血后的突起(台)
片  名 Hellboy
年  代 2019
产  地 美国
类  别 行动 / 奇异 / 冒险
语  言 英语
上映日期 2019-04-12(美国)
IMDb评分  5.3/10 from 22655 users
IMDb链接  http://www.imdb.com/title/tt2274648
豆瓣评分 6.1/10 from 4880 users
豆瓣链接 https://movie.douban.com/subject/24750460/
片  长 120分钟
导  演 尼尔·马歇尔 Neil Marshall
编  剧 安德鲁·考斯比 Andrew Cosby / 迈克·米格诺拉 Mike Mignola
主  演 大卫·哈伯 David Harbour
      米拉·乔沃维奇 Milla Jovovich
      金大贤 Daniel Dae Kim
      伊恩·麦柯肖恩 Ian McShane
      阿利斯泰·皮垂 Alistair Petrie
      萨莎·莱恩 Sasha Lane
      托马斯·哈登·丘奇 Thomas Haden Church
      佩内洛普·米契尔 Penelope Mitchell
      苏菲·奥康内多 Sophie Okonedo
      布莱恩·格里森 Brian Gleeson
      克里斯蒂娜·克莱伯 Kristina Klebe
      阿什丽·艾德纳 Ashley Edner
      道格拉斯·泰特 Douglas Tait
      贝恩·科拉科 Bern Colla?o
      阿塔纳斯·斯雷布雷夫 Atanas Srebrev
      凡妮莎·艾科尔兹 Vanessa Eichholz
      莱拉·莫尔斯 Laila Morse


标  签 奇异 | 美国 | 漫画改编 | 2019 | 天堂男爵 | 行动 | 科幻 | 漫画豪杰

简  介  

  天堂男爵是二战时代被纳粹呼唤到人世的恶魔之子,在被布鲁姆教授收养长大后逐步学会了融入人类天下,成为了一位超自然气力观察员,但是一路关于末世的预言,令他堕入重重危机。与此同时,史上最强大的邪恶女巫血皇后正诡计打破封印重返人世,并让瘟疫囊括地球。天堂男爵与通灵少女爱丽丝以及上校本·戴米奥,是以配合踏上了阻止血皇后的征程。

  1. Video
  2. ID                                       : 1
  3. Format                                   : AVC
  4. Format/Info                              : Advanced Video Codec
  5. Format profile                           : <a href="/cdn-cgi/l/email-protection" class="__cf_email__" data-cfemail="763e1f111e363a435847">[email protected]</a>
  6. Format settings                          : CABAC / 5 Ref Frames
  7. Format settings, CABAC                   : Yes
  8. Format settings, Reference frames        : 5 frames
  9. Codec ID                                 : V_MPEG4/ISO/AVC
  10. Duration                                 : 2 h 1 min
  11. Bit rate                                 : 32.0 Mb/s
  12. Width                                    : 3 840 pixels
  13. Height                                   : 1 606 pixels
  14. Display aspect ratio                     : 2.40:1
  15. Frame rate mode                          : Constant
  16. Frame rate                               : 23.976 (24000/1001) FPS
  17. Color space                              : YUV
  18. Chroma subsampling                       : 4:2:0
  19. Bit depth                                : 8 bits
  20. Scan type                                : Progressive
  21. Bits/(Pixel*Frame)                       : 0.216
  22. Stream size                              : 27.0 GiB (76%)
  23. Title                                    : Hellboy.2019.2160p.BluRay.x264.8bit.SDR.DTS-HD.MA.TrueHD.7.1.Atmos-SWTYBLZ
  24. Writing library                          : x264 core 157 r2935 545de2f
  25. Encoding settings                        : cabac=1 / ref=5 / deblock=1:-1:-1 / analyse=0x3:0x113 / me=umh / subme=10 / psy=1 / psy_rd=1.00:0.15 / mixed_ref=1 / me_range=48 / chroma_me=1 / trellis=2 / 8x8dct=1 / cqm=0 / deadzone=21,11 / fast_pskip=1 / chroma_qp_offset=-3 / threads=48 / lookahead_threads=4 / sliced_threads=0 / nr=0 / decimate=0 / interlaced=0 / bluray_compat=0 / constrained_intra=0 / bframes=3 / b_pyramid=2 / b_adapt=2 / b_bias=0 / direct=3 / weightb=1 / open_gop=0 / weightp=2 / keyint=250 / keyint_min=23 / scenecut=40 / intra_refresh=0 / rc_lookahead=50 / rc=crf / mbtree=1 / crf=18.0 / qcomp=0.60 / qpmin=0 / qpmax=69 / qpstep=4 / ip_ratio=1.40 / aq=1:1.00
  26. Default                                  : Yes
  27. Forced                                   : No

  28. Audio #1
  29. ID                                       : 2
  30. Format                                   : MLP FBA 16-ch
  31. Format/Info                              : Meridian Lossless Packing FBA with 16-channel presentation
  32. Commercial name                          : Dolby TrueHD with Dolby Atmos
  33. Codec ID                                 : A_TRUEHD
  34. Duration                                 : 2 h 1 min
  35. Bit rate mode                            : Variable
  36. Bit rate                                 : 5 255 kb/s
  37. Maximum bit rate                         : 9 408 kb/s
  38. Channel(s)                               : 8 channels
  39. Channel layout                           : L R C LFE Ls Rs Lb Rb
  40. Sampling rate                            : 48.0 kHz
  41. Frame rate                               : 1 200.000 FPS (40 SPF)
  42. Compression mode                         : Lossless
  43. Stream size                              : 4.44 GiB (12%)
  44. Title                                    : Hellboy.2019.2160p.BluRay.x264.8bit.SDR.DTS-HD.MA.TrueHD.7.1.Atmos-SWTYBLZ
  45. Language                                 : English
  46. Default                                  : Yes
  47. Forced                                   : No
  48. Number of dynamic objects                : 15
  49. Bed channel count                        : 1 channel
  50. Bed channel configuration                : LFE

  51. Audio #2
  52. ID                                       : 3
  53. Format                                   : DTS XLL
  54. Format/Info                              : Digital Theater Systems
  55. Commercial name                          : DTS-HD Master Audio
  56. Codec ID                                 : A_DTS
  57. Duration                                 : 2 h 1 min
  58. Bit rate mode                            : Variable
  59. Bit rate                                 : 4 387 kb/s
  60. Channel(s)                               : 8 channels
  61. Channel layout                           : C L R LFE Lb Rb Lss Rss
  62. Sampling rate                            : 48.0 kHz
  63. Frame rate                               : 93.750 FPS (512 SPF)
  64. Bit depth                                : 24 bits
  65. Compression mode                         : Lossless
  66. Stream size                              : 3.71 GiB (10%)
  67. Title                                    : Hellboy.2019.2160p.BluRay.x264.8bit.SDR.DTS-HD.MA.TrueHD.7.1.Atmos-SWTYBLZ
  68. Default                                  : No
  69. Forced                                   : No

  70. Audio #3
  71. ID                                       : 4
  72. Format                                   : AC-3
  73. Format/Info                              : Audio Coding 3
  74. Commercial name                          : Dolby Digital
  75. Codec ID                                 : A_AC3
  76. Duration                                 : 2 h 1 min
  77. Bit rate mode                            : Constant
  78. Bit rate                                 : 448 kb/s
  79. Channel(s)                               : 6 channels
  80. Channel layout                           : L R C LFE Ls Rs
  81. Sampling rate                            : 48.0 kHz
  82. Frame rate                               : 31.250 FPS (1536 SPF)
  83. Bit depth                                : 16 bits
  84. Compression mode                         : Lossy
  85. Stream size                              : 388 MiB (1%)
  86. Title                                    : Hellboy.2019.2160p.BluRay.x264.8bit.SDR.DTS-HD.MA.TrueHD.7.1.Atmos-SWTYBLZ
  87. Language                                 : English
  88. Service kind                             : Complete Main
  89. Default                                  : No
  90. Forced                                   : No

  91. Text #1
  92. ID                                       : 5
  93. Format                                   : UTF-8
  94. Codec ID                                 : S_TEXT/UTF8
  95. Codec ID/Info                            : UTF-8 Plain Text
  96. Duration                                 : 2 h 0 min
  97. Bit rate                                 : 52 b/s
  98. Count of elements                        : 1379
  99. Stream size                              : 46.0 KiB (0%)
  100. Title                                    : English-SRT
  101. Language                                 : English
  102. Default                                  : Yes
  103. Forced                                   : No

  104. Text #2
  105. ID                                       : 6
  106. Format                                   : UTF-8
  107. Codec ID                                 : S_TEXT/UTF8
  108. Codec ID/Info                            : UTF-8 Plain Text
  109. Duration                                 : 2 h 0 min
  110. Bit rate                                 : 61 b/s
  111. Count of elements                        : 1732
  112. Stream size                              : 54.0 KiB (0%)
  113. Title                                    : English-SDH-SRT
  114. Language                                 : English
  115. Default                                  : No
  116. Forced                                   : No

  117. Text #3
  118. ID                                       : 7
  119. Format                                   : PGS
  120. Muxing mode                              : zlib
  121. Codec ID                                 : S_HDMV/PGS
  122. Codec ID/Info                            : Picture based subtitle format used on BDs/HD-DVDs
  123. Duration                                 : 2 h 0 min
  124. Bit rate                                 : 36.1 kb/s
  125. Count of elements                        : 2726
  126. Stream size                              : 31.1 MiB (0%)
  127. Title                                    : English-PGS
  128. Language                                 : English
  129. Default                                  : No
  130. Forced                                   : No

  131. Text #4
  132. ID                                       : 8
  133. Format                                   : PGS
  134. Muxing mode                              : zlib
  135. Codec ID                                 : S_HDMV/PGS
  136. Codec ID/Info                            : Picture based subtitle format used on BDs/HD-DVDs
  137. Duration                                 : 2 h 0 min
  138. Bit rate                                 : 43.2 kb/s
  139. Count of elements                        : 3464
  140. Stream size                              : 37.2 MiB (0%)
  141. Title                                    : English-SDH-PGS
  142. Language                                 : English
  143. Default                                  : No
  144. Forced                                   : No

  145. Text #5
  146. ID                                       : 9
  147. Format                                   : PGS
  148. Muxing mode                              : zlib
  149. Codec ID                                 : S_HDMV/PGS
  150. Codec ID/Info                            : Picture based subtitle format used on BDs/HD-DVDs
  151. Duration                                 : 2 h 0 min
  152. Bit rate                                 : 41.5 kb/s
  153. Count of elements                        : 3772
  154. Stream size                              : 35.9 MiB (0%)
  155. Title                                    : French-PGS
  156. Language                                 : French
  157. Default                                  : No
  158. Forced                                   : No

  159. Text #6
  160. ID                                       : 10
  161. Format                                   : PGS
  162. Muxing mode                              : zlib
  163. Codec ID                                 : S_HDMV/PGS
  164. Codec ID/Info                            : Picture based subtitle format used on BDs/HD-DVDs
  165. Duration                                 : 2 h 0 min
  166. Bit rate                                 : 34.1 kb/s
  167. Count of elements                        : 2600
  168. Stream size                              : 29.4 MiB (0%)
  169. Title                                    : Spanish-PGS
  170. Language                                 : Spanish
  171. Default                                  : No
  172. Forced                                   : No

  173. Menu
  174. 00:00:00.000                             : en:Chapter 01
  175. 00:08:54.284                             : en:Chapter 02
  176. 00:14:41.714                             : en:Chapter 03
  177. 00:22:34.853                             : en:Chapter 04
  178. 00:30:12.602                             : en:Chapter 05
  179. 00:35:48.730                             : en:Chapter 06
  180. 00:43:50.461                             : en:Chapter 07
  181. 00:53:17.611                             : en:Chapter 08
  182. 01:01:09.791                             : en:Chapter 09
  183. 01:09:24.786                             : en:Chapter 10
  184. 01:17:32.606                             : en:Chapter 11
  185. 01:26:07.579                             : en:Chapter 12
  186. 01:28:37.896                             : en:Chapter 13
  187. 01:37:58.456                             : en:Chapter 14
  188. 01:45:49.969                             : en:Chapter 15
  189. 01:51:06.660                             : en:Chapter 16
复制代码

天堂男爵:血皇后突起 Hellboy.2019.2160p.BluRay.x264.8bit.SDR.DTS-HD.MA.TrueHD.7.1.Atmos-SWTYBLZ 35.80GB-2.png 天堂男爵:血皇后突起 Hellboy.2019.2160p.BluRay.x264.8bit.SDR.DTS-HD.MA.TrueHD.7.1.Atmos-SWTYBLZ 35.80GB-3.png 天堂男爵:血皇后突起 Hellboy.2019.2160p.BluRay.x264.8bit.SDR.DTS-HD.MA.TrueHD.7.1.Atmos-SWTYBLZ 35.80GB-4.png 天堂男爵:血皇后突起 Hellboy.2019.2160p.BluRay.x264.8bit.SDR.DTS-HD.MA.TrueHD.7.1.Atmos-SWTYBLZ 35.80GB-5.png 天堂男爵:血皇后突起 Hellboy.2019.2160p.BluRay.x264.8bit.SDR.DTS-HD.MA.TrueHD.7.1.Atmos-SWTYBLZ 35.80GB-6.png 天堂男爵:血皇后突起 Hellboy.2019.2160p.BluRay.x264.8bit.SDR.DTS-HD.MA.TrueHD.7.1.Atmos-SWTYBLZ 35.80GB-7.png 天堂男爵:血皇后突起 Hellboy.2019.2160p.BluRay.x264.8bit.SDR.DTS-HD.MA.TrueHD.7.1.Atmos-SWTYBLZ 35.80GB-8.png






本帖隐藏的下载地址需要VIP会员才可阅读,您需要升级才可阅读,点击这里升级VIP

回复

使用道具 举报

懒得打字嘛,点击右侧快捷回复 【右侧内容,后台自定义】
您需要登录后才可以回帖 登录 | 立即注册

本版积分规则

QQ|Archiver|手机版|小黑屋| 中国高清网 |网站地图

GMT+8, 2019-8-17 21:18 , Processed in 0.444705 second(s), 40 queries .

Powered by HDchina X3.4

Copyright 2017-2019©HDchina.All right reserved

返回顶部 联系我们