查看: 37|回复: 1

[剧情片] 搭车 Hitch.Hike.1977.RERiP.1080p.BluRay.x264-RRH 6.55GB

[复制链接]

 成长值: 2270

级别:资源管理组

注册时间
2017-10-20
最后登录
2019-8-23
听众
1
收听
0
主题
81029
蓝光币
43236 枚
贡献
5356 点
发表于 2019-8-10 22:59:38 | 显示全部楼层 |阅读模式
搭车 Hitch.Hike.1977.RERiP.1080p.BluRay.x264-RRH 6.55GB-1.jpg

译  名 搭车 / Hitch Hike / The Naked Prey / 凶恶旅程
片  名 Autostop rosso sangue
年  代 1977
产  地 意大利
类  别 剧情 / 惊悚 / 可骇 / 犯罪 / 冒险
语  言 意大利语 / 英语
上映日期 1977-11-25
IMDb评分  6.9/10 from 2222 users
IMDb链接  http://www.imdb.com/title/tt0077188
豆瓣评分 7.3/10 from 109 users
豆瓣链接 https://movie.douban.com/subject/2237257/
片  长 104 分钟
导  演 Pasquale Festa Campanile
编  剧 Aldo Crudo / Pasquale Festa Campanile / Ottavio Jemma / Peter Kane
主  演 Franco Nero
       Corinne Clery
       David Hess


标  签 意大利 | 情色 | 公路片 | 犯罪 | 1977 | 行动 | Cult | 意大利电影

简  介  

  Intense, off-beat Italian thriller is an underexposed classic.
  Fueding married couple, traveling across the country, make the mistake of picking up a hitch hiker who turns out to be a violent bank robber. But that's only the beginning of the story.
  Skillfully well done thriller is gripping in it's wildly turning plot. The cinematography is stylishly good, with some beautiful country side filming locations. The music, though seemingly out of place at times, is great too. In addition there is a decent amount of violence and some nudity.
  The real highlights of this film though are it's three stars, who seem to be in a show-stealing competition all through out the film. Franco Nero does a convincingly good performance as the alcoholic reporter, who has grown tired of his wife. Corinne Clery is fetching and talented as Nero's equally weary wife. The terrific David Hess makes for another great villain, also having played a crazed criminal in both Craven's Last House on the Left (1972) and another Italian exploitation film House on the Edge of the Park (1979).
  imdb comment
  1. Video
  2. ID                                       : 1
  3. Format                                   : AVC
  4. Format/Info                              : Advanced Video Codec
  5. Format profile                           : <a href="/cdn-cgi/l/email-protection" class="__cf_email__" data-cfemail="f0b8999798b0bcc4dec1">[email protected]</a>
  6. Format settings, CABAC                   : Yes
  7. Format settings, ReFrames                : 4 frames
  8. Codec ID                                 : V_MPEG4/ISO/AVC
  9. Duration                                 : 1h 43mn
  10. Bit rate                                 : 8 015 Kbps
  11. Width                                    : 1 920 pixels
  12. Height                                   : 1 024 pixels
  13. Display aspect ratio                     : 1.85:1
  14. Frame rate mode                          : Constant
  15. Frame rate                               : 23.976 (24000/1001) fps
  16. Color space                              : YUV
  17. Chroma subsampling                       : 4:2:0
  18. Bit depth                                : 8 bits
  19. Scan type                                : Progressive
  20. Bits/(Pixel*Frame)                       : 0.170
  21. Stream size                              : 5.81 GiB (89%)
  22. Writing library                          : x264 core 148 r2665 a01e339
  23. Encoding settings                        : cabac=1 / ref=4 / deblock=1:0:0 / analyse=0x3:0x113 / me=umh / subme=8 / psy=1 / psy_rd=1.00:0.00 / mixed_ref=1 / me_range=16 / chroma_me=1 / trellis=1 / 8x8dct=1 / cqm=0 / deadzone=21,11 / fast_pskip=1 / chroma_qp_offset=-2 / threads=12 / lookahead_threads=2 / sliced_threads=0 / nr=0 / decimate=1 / interlaced=0 / bluray_compat=0 / constrained_intra=0 / bframes=3 / b_pyramid=2 / b_adapt=2 / b_bias=0 / direct=3 / weightb=1 / open_gop=0 / weightp=2 / keyint=240 / keyint_min=23 / scenecut=40 / intra_refresh=0 / rc_lookahead=50 / rc=2pass / mbtree=1 / bitrate=8015 / ratetol=1.0 / qcomp=0.60 / qpmin=0 / qpmax=69 / qpstep=4 / cplxblur=20.0 / qblur=0.5 / vbv_maxrate=62500 / vbv_bufsize=78125 / nal_hrd=none / filler=0 / ip_ratio=1.40 / aq=1:1.00
  24. Default                                  : Yes
  25. Forced                                   : No

  26. Audio #1
  27. ID                                       : 2
  28. Format                                   : FLAC
  29. Format/Info                              : Free Lossless Audio Codec
  30. Codec ID                                 : A_FLAC
  31. Duration                                 : 1h 43mn
  32. Bit rate mode                            : Variable
  33. Bit rate                                 : 502 Kbps
  34. Channel(s)                               : 2 channels
  35. Channel positions                        : Front: L R
  36. Sampling rate                            : 48.0 KHz
  37. Frame rate                               : 11.719 fps (4096 spf)
  38. Bit depth                                : 16 bits
  39. Stream size                              : 373 MiB (6%)
  40. Writing library                          : libFLAC 1.2.1 (UTC 2007-09-17)
  41. Language                                 : Italian
  42. Default                                  : Yes
  43. Forced                                   : No

  44. Audio #2
  45. ID                                       : 3
  46. Format                                   : FLAC
  47. Format/Info                              : Free Lossless Audio Codec
  48. Codec ID                                 : A_FLAC
  49. Duration                                 : 1h 43mn
  50. Bit rate mode                            : Variable
  51. Bit rate                                 : 523 Kbps
  52. Channel(s)                               : 2 channels
  53. Channel positions                        : Front: L R
  54. Sampling rate                            : 48.0 KHz
  55. Frame rate                               : 11.719 fps (4096 spf)
  56. Bit depth                                : 16 bits
  57. Stream size                              : 388 MiB (6%)
  58. Writing library                          : libFLAC 1.2.1 (UTC 2007-09-17)
  59. Language                                 : English
  60. Default                                  : No
  61. Forced                                   : No

  62. Text
  63. ID                                       : 4
  64. Format                                   : UTF-8
  65. Codec ID                                 : S_TEXT/UTF8
  66. Codec ID/Info                            : UTF-8 Plain Text
  67. Duration                                 : 1h 37mn
  68. Bit rate                                 : 38 bps
  69. Count of elements                        : 778
  70. Stream size                              : 27.8 KiB (0%)
  71. Language                                 : English
  72. Default                                  : Yes
  73. Forced                                   : No

  74. Menu
  75. 00:00:00.000                             : en:00:00:00.000
  76. 00:11:49.417                             : en:00:11:49.417
  77. 00:25:23.772                             : en:00:25:23.772
  78. 00:42:02.812                             : en:00:42:02.812
  79. 00:56:24.798                             : en:00:56:24.798
  80. 01:11:11.267                             : en:01:11:11.267
  81. 01:21:04.777                             : en:01:21:04.777
  82. 01:31:23.978                             : en:01:31:23.978
复制代码

搭车 Hitch.Hike.1977.RERiP.1080p.BluRay.x264-RRH 6.55GB-2.png





回复

使用道具 举报

级别:专业龙套 Lv.4

注册时间
2019-1-22
最后登录
2019-8-20
听众
12
收听
0
主题
0
蓝光币
192 枚
贡献
0 点
发表于 2019-8-13 21:35:38 | 显示全部楼层
楼主发贴辛苦了,谢谢楼主分享!我觉得中国高清电影网是注册对了!
回复

使用道具 举报

懒得打字嘛,点击右侧快捷回复 【右侧内容,后台自定义】
您需要登录后才可以回帖 登录 | 立即注册

本版积分规则

QQ|Archiver|手机版|小黑屋| 中国高清网 |网站地图

GMT+8, 2019-8-24 13:06 , Processed in 0.414480 second(s), 39 queries .

Powered by HDchina X3.4

Copyright 2017-2019©HDchina.All right reserved

返回顶部 联系我们