查看: 545|回复: 4

[10bit.SDR] 钢铁侠3/钢铁人3 Iron.Man.3.2013.2160p.US.BluRay.x265.10bit.SDR.DTS-HD.MA.TrueHD.7.1.Atmos-SWTYBLZ 27.41GB

[复制链接]

 成长值: 7345

级别:资源管理组

注册时间
2017-10-20
最后登录
2020-9-30
听众
1
收听
0
主题
103318
蓝光币
199955 枚
贡献
21715 点
发表于 2019-8-10 14:48:34 | 显示全部楼层 |阅读模式
钢铁侠3/钢铁人3 Iron.Man.3.2013.2160p.US.BluRay.x265.10bit.SDR.DTS-HD.MA.TrueHD.7.1.Atmos-SWTYBLZ 27.41GB-1.jpg

译  名 钢铁侠3 / 钢铁人3(台) / 铁人3 / 铁甲奇侠3(港)
片  名 Iron Man 3
年  代 2013
产  地 美国 / 中国大陆
类  别 行动 / 科幻
语  言 英语 / 汉语普通话
上映日期 2013-04-18(伦敦首映) / 2013-05-01(中国大陆) / 2013-05-03(美国)
IMDb评分  7.2/10 from 700775 users
IMDb链接  http://www.imdb.com/title/tt1300854
豆瓣评分 7.8/10 from 331644 users
豆瓣链接 https://movie.douban.com/subject/3231742/
片  长 134分钟(中国大陆)
导  演 沙恩·布莱克 Shane Black
编  剧 沙恩·布莱克 Shane Black / 德鲁·皮尔斯 Drew Pearce / 斯坦·李 Stan Lee / 唐·赫克 Don Heck / 拉里·利伯 Larry Lieber / 杰克·科比 Jack Kirby
主  演 小罗伯特·唐尼 Robert Downey Jr.
       盖·皮尔斯 Guy Pearce
       格温妮斯·帕特洛 Gwyneth Paltrow
       本·金斯利 Ben Kingsley
       唐·钱德尔 Don Cheadle
       保罗·贝坦尼 Paul Bettany
       丽贝卡·豪尔 Rebecca Hall
       乔恩·费儒 Jon Favreau
       威廉姆·赛德勒 William Sadler
       詹姆斯·戴尔 James Badge Dale
       伊芳·齐玛 Yvonne Zima
       泰·辛普金斯 Ty Simpkins
       阿什利·汉弥尔顿 Ashley Hamilton
       王学圻 Xueqi Wang
       范冰冰 Bingbing Fan


标  签 科幻 | 钢铁侠 | 美国 | 超级豪杰 | 行动 | MARVEL | 2013 | 漫画改编

简  介  

  自纽约事务以来,托尼·斯塔克(小罗伯特·唐尼 Robert Downey Jr. 饰)为史无前例的焦虑症所困扰。他疯狂投入钢铁侠升级版的研发,为此夜以继日,甚至疏忽了女友佩珀·波茨(格温妮斯·帕特洛 Gwyneth Paltrow 饰)的感受。与此同时,污名昭著的可骇头子曼达林(本·金斯利 Ben Kingsley 饰)制造了连续串的爆炸攻击事务,托尼昔时最虔诚的保镳即在比来的一次攻击中身负重伤。未过量久,托尼、佩珀以及曾与他有过一面之缘的女动物学家玛雅(丽贝卡·豪尔 Rebecca Hall 饰)在家中遭到狠恶的炮火攻击,几近丧命,而这一切似乎都与22年前那名偶然相逢的科学家阿尔德里奇·基连(盖·皮尔斯 Guy Pearce 饰)及其终极生物的研讨有关。
  即使有紧密先辈的铠甲护身,也没法排解发自心底的焦虑。被击碎一切的托尼,若何穿越来自天堂的熊熊猛火……

获奖情况  

  第86届奥斯卡金像奖(2014)
  最好视觉结果(提名) 盖伊·威廉斯 / 克里斯托弗·汤森 / Erik Nash / 丹尼尔·萨迪克

  第23届MTV电影奖(2014)
  MTV电影奖 最好客串表演(提名) 琼·里弗斯
  MTV电影奖 最好豪杰形象(提名) 小罗伯特·唐尼

  第61届美国音效剪辑协会奖(2014)
  金卷轴奖 最好电影音效剪辑(提名) John T. Cucci / Charlie Campagna / 丹·奥康奈尔 / Tim Walston / Alan Rankin / Karen Vassar / 安德鲁·克里斯托法罗 / Ann Scibelli / Shannon Mills / 马克·P·施特金格尔

  第12届美国视觉结果协会奖(2014)
  最好殊效电影视觉结果(提名) 布莱恩·吉尔 / 盖伊·威廉斯 / Mark G. Soper / 克里斯托弗·汤森
  最好真人电影CG布景(提名) John Stevenson-Galvin
  最好电影虚拟摄影(提名) Thelvin Cabezas
  最好电影视觉结果分解(提名) Justin van der Lek / Stefano Trivelli

  第50届美国声音结果协会奖(2014)
  真人电影最好音效(提名) Joel Iwataki / Mike Prestwood Smith / Michael Keller

  第19届美国批评家挑选电影奖(2014)
  最好行动片(提名)
  行动片最好男配角(提名) 小罗伯特·唐尼
  行动片最好女配角(提名) 格温妮斯·帕特洛
  最好视觉结果(提名)

  第17届好莱坞电影奖(2013)
  年度电影(提名) 沙恩·布莱克

  第15届美国青少年挑选奖(2013)
  最好行动片
  最好行动片男演员 小罗伯特·唐尼
  最好行动片女演员(提名) 格温妮斯·帕特洛
  最好科幻/奇异电影(提名)
  最好科幻/奇异电影男演员(提名) 小罗伯特·唐尼
  最好科幻/奇异电影女演员(提名) 格温妮斯·帕特洛
  最好电影反派(提名) 本·金斯利
  最好银幕拍档(提名) 小罗伯特·唐尼 / 唐·钱德尔

  第4届豆瓣电影鑫像奖(2014)
  鑫豆单元 最好科幻/行动片(提名)
  1. Video
  2. ID                                       : 1
  3. Format                                   : HEVC
  4. Format/Info                              : High Efficiency Video Coding
  5. Format profile                           : Main <a href="/cdn-cgi/l/email-protection" class="__cf_email__" data-cfemail="daebea9a96eff4eb">[email protected]</a>@High
  6. Codec ID                                 : V_MPEGH/ISO/HEVC
  7. Duration                                 : 2 h 10 min
  8. Bit rate                                 : 20.7 Mb/s
  9. Width                                    : 3 840 pixels
  10. Height                                   : 1 600 pixels
  11. Display aspect ratio                     : 2.40:1
  12. Frame rate mode                          : Constant
  13. Frame rate                               : 23.976 (24000/1001) FPS
  14. Color space                              : YUV
  15. Chroma subsampling                       : 4:2:0
  16. Bit depth                                : 10 bits
  17. Bits/(Pixel*Frame)                       : 0.141
  18. Stream size                              : 18.9 GiB (69%)
  19. Title                                    : Iron.Man.3.2013.2160p.US.BluRay.x265.10bit.SDR.DTS-HD.MA.TrueHD.7.1.Atmos-SWTYBLZ
  20. Writing library                          : x265 3.0ed72af837053:[Windows][GCC 8.2.0][64 bit] 10bit
  21. Encoding settings                        : cpuid=1111039 / frame-threads=16 / numa-pools=44,44 / wpp / no-pmode / no-pme / no-psnr / no-ssim / log-level=2 / input-csp=1 / input-res=3840x1600 / interlace=0 / total-frames=187783 / level-idc=51 / high-tier=1 / uhd-bd=0 / ref=3 / no-allow-non-conformance / repeat-headers / annexb / aud / hrd / info / hash=0 / no-temporal-layers / no-open-gop / min-keyint=1 / keyint=24 / gop-lookahead=0 / bframes=4 / b-adapt=2 / b-pyramid / bframe-bias=0 / rc-lookahead=25 / lookahead-slices=4 / scenecut=40 / radl=0 / no-splice / no-intra-refresh / ctu=64 / min-cu-size=8 / no-rect / no-amp / max-tu-size=32 / tu-inter-depth=1 / tu-intra-depth=1 / limit-tu=0 / rdoq-level=0 / dynamic-rd=0.00 / no-ssim-rd / signhide / no-tskip / nr-intra=0 / nr-inter=0 / no-constrained-intra / strong-intra-smoothing / max-merge=2 / limit-refs=3 / no-limit-modes / me=1 / subme=2 / merange=57 / temporal-mvp / weightp / no-weightb / no-analyze-src-pics / deblock=0:0 / no-sao / no-sao-non-deblock / rd=3 / no-early-skip / rskip / no-fast-intra / no-tskip-fast / no-cu-lossless / no-b-intra / no-splitrd-skip / rdpenalty=0 / psy-rd=2.00 / psy-rdoq=0.00 / no-rd-refine / no-lossless / cbqpoffs=0 / crqpoffs=0 / rc=crf / crf=13.0 / qcomp=0.60 / qpstep=4 / stats-write=0 / stats-read=0 / vbv-maxrate=160000 / vbv-bufsize=160000 / vbv-init=0.9 / crf-max=0.0 / crf-min=0.0 / ipratio=1.40 / pbratio=1.30 / aq-mode=1 / aq-strength=1.00 / cutree / zone-count=0 / no-strict-cbr / qg-size=32 / no-rc-grain / qpmax=69 / qpmin=0 / no-const-vbv / sar=1 / overscan=0 / videoformat=5 / range=0 / colorprim=2 / transfer=2 / colormatrix=2 / chromaloc=0 / display-window=0 / max-cll=0,0 / min-luma=0 / max-luma=1023 / log2-max-poc-lsb=8 / vui-timing-info / vui-hrd-info / slices=1 / opt-qp-pps / opt-ref-list-length-pps / no-multi-pass-opt-rps / scenecut-bias=0.05 / no-opt-cu-delta-qp / no-aq-motion / no-hdr / no-hdr-opt / no-dhdr10-opt / no-idr-recovery-sei / analysis-reuse-level=5 / scale-factor=0 / refine-intra=0 / refine-inter=0 / refine-mv=0 / refine-ctu-distortion=0 / no-limit-sao / ctu-info=0 / no-lowpass-dct / refine-analysis-type=0 / copy-pic=1 / max-ausize-factor=1.0 / no-dynamic-refine / no-single-sei / no-hevc-aq / qp-adaptation-range=1.00
  22. Default                                  : Yes
  23. Forced                                   : No

  24. Audio #1
  25. ID                                       : 2
  26. Format                                   : MLP FBA 16-ch
  27. Format/Info                              : Meridian Lossless Packing FBA with 16-channel presentation
  28. Commercial name                          : Dolby TrueHD with Dolby Atmos
  29. Codec ID                                 : A_TRUEHD
  30. Duration                                 : 2 h 10 min
  31. Bit rate mode                            : Variable
  32. Bit rate                                 : 4 826 kb/s
  33. Maximum bit rate                         : 7 887 kb/s
  34. Channel(s)                               : 8 channels
  35. Channel layout                           : L R C LFE Ls Rs Lb Rb
  36. Sampling rate                            : 48.0 kHz
  37. Frame rate                               : 1 200.000 FPS (40 SPF)
  38. Compression mode                         : Lossless
  39. Stream size                              : 4.40 GiB (16%)
  40. Title                                    : Iron.Man.3.2013.2160p.US.BluRay.x265.10bit.SDR.DTS-HD.MA.TrueHD.7.1.Atmos-SWTYBLZ
  41. Language                                 : English
  42. Default                                  : Yes
  43. Forced                                   : No
  44. Number of dynamic objects                : 13
  45. Bed channel count                        : 1 channel
  46. Bed channel configuration                : LFE

  47. Audio #2
  48. ID                                       : 3
  49. Format                                   : DTS XLL
  50. Format/Info                              : Digital Theater Systems
  51. Commercial name                          : DTS-HD Master Audio
  52. Codec ID                                 : A_DTS
  53. Duration                                 : 2 h 10 min
  54. Bit rate mode                            : Variable
  55. Bit rate                                 : 3 597 kb/s
  56. Channel(s)                               : 8 channels
  57. Channel layout                           : C L R LFE Lb Rb Lss Rss
  58. Sampling rate                            : 48.0 kHz
  59. Frame rate                               : 93.750 FPS (512 SPF)
  60. Bit depth                                : 24 bits
  61. Compression mode                         : Lossless
  62. Stream size                              : 3.28 GiB (12%)
  63. Title                                    : Iron.Man.3.2013.2160p.US.BluRay.x265.10bit.SDR.DTS-HD.MA.TrueHD.7.1.Atmos-SWTYBLZ
  64. Language                                 : English
  65. Default                                  : No
  66. Forced                                   : No

  67. Audio #3
  68. ID                                       : 4
  69. Format                                   : AC-3
  70. Format/Info                              : Audio Coding 3
  71. Commercial name                          : Dolby Digital
  72. Codec ID                                 : A_AC3
  73. Duration                                 : 2 h 10 min
  74. Bit rate mode                            : Constant
  75. Bit rate                                 : 640 kb/s
  76. Channel(s)                               : 6 channels
  77. Channel layout                           : L R C LFE Ls Rs
  78. Sampling rate                            : 48.0 kHz
  79. Frame rate                               : 31.250 FPS (1536 SPF)
  80. Bit depth                                : 16 bits
  81. Compression mode                         : Lossy
  82. Stream size                              : 597 MiB (2%)
  83. Title                                    : Iron.Man.3.2013.2160p.US.BluRay.x265.10bit.SDR.DTS-HD.MA.TrueHD.7.1.Atmos-SWTYBLZ
  84. Language                                 : English
  85. Service kind                             : Complete Main
  86. Default                                  : No
  87. Forced                                   : No

  88. Text #1
  89. ID                                       : 5
  90. Format                                   : UTF-8
  91. Codec ID                                 : S_TEXT/UTF8
  92. Codec ID/Info                            : UTF-8 Plain Text
  93. Duration                                 : 2 h 10 min
  94. Bit rate                                 : 58 b/s
  95. Count of elements                        : 1733
  96. Stream size                              : 56.0 KiB (0%)
  97. Title                                    : English-SRT
  98. Language                                 : English
  99. Default                                  : Yes
  100. Forced                                   : No

  101. Text #2
  102. ID                                       : 6
  103. Format                                   : PGS
  104. Muxing mode                              : zlib
  105. Codec ID                                 : S_HDMV/PGS
  106. Codec ID/Info                            : Picture based subtitle format used on BDs/HD-DVDs
  107. Duration                                 : 2 h 10 min
  108. Bit rate                                 : 36.1 kb/s
  109. Count of elements                        : 3480
  110. Stream size                              : 33.5 MiB (0%)
  111. Title                                    : English-PGS
  112. Language                                 : English
  113. Default                                  : No
  114. Forced                                   : No

  115. Text #3
  116. ID                                       : 7
  117. Format                                   : PGS
  118. Muxing mode                              : zlib
  119. Codec ID                                 : S_HDMV/PGS
  120. Codec ID/Info                            : Picture based subtitle format used on BDs/HD-DVDs
  121. Duration                                 : 2 h 10 min
  122. Bit rate                                 : 53.2 kb/s
  123. Count of elements                        : 4336
  124. Stream size                              : 49.4 MiB (0%)
  125. Title                                    : English-SDH-PGS
  126. Language                                 : English
  127. Default                                  : No
  128. Forced                                   : No

  129. Text #4
  130. ID                                       : 8
  131. Format                                   : PGS
  132. Muxing mode                              : zlib
  133. Codec ID                                 : S_HDMV/PGS
  134. Codec ID/Info                            : Picture based subtitle format used on BDs/HD-DVDs
  135. Duration                                 : 2 h 10 min
  136. Bit rate                                 : 42.6 kb/s
  137. Count of elements                        : 3544
  138. Stream size                              : 39.7 MiB (0%)
  139. Title                                    : French-PGS
  140. Language                                 : French
  141. Default                                  : No
  142. Forced                                   : No

  143. Text #5
  144. ID                                       : 9
  145. Format                                   : PGS
  146. Muxing mode                              : zlib
  147. Codec ID                                 : S_HDMV/PGS
  148. Codec ID/Info                            : Picture based subtitle format used on BDs/HD-DVDs
  149. Duration                                 : 2 h 10 min
  150. Bit rate                                 : 34.3 kb/s
  151. Count of elements                        : 3414
  152. Stream size                              : 31.9 MiB (0%)
  153. Title                                    : French-PGS
  154. Language                                 : French
  155. Default                                  : No
  156. Forced                                   : No

  157. Text #6
  158. ID                                       : 10
  159. Format                                   : PGS
  160. Muxing mode                              : zlib
  161. Codec ID                                 : S_HDMV/PGS
  162. Codec ID/Info                            : Picture based subtitle format used on BDs/HD-DVDs
  163. Duration                                 : 2 h 10 min
  164. Bit rate                                 : 41.5 kb/s
  165. Count of elements                        : 3448
  166. Stream size                              : 38.7 MiB (0%)
  167. Title                                    : Italian-PGS
  168. Language                                 : Italian
  169. Default                                  : No
  170. Forced                                   : No

  171. Text #7
  172. ID                                       : 11
  173. Format                                   : PGS
  174. Muxing mode                              : zlib
  175. Codec ID                                 : S_HDMV/PGS
  176. Codec ID/Info                            : Picture based subtitle format used on BDs/HD-DVDs
  177. Duration                                 : 2 h 10 min
  178. Bit rate                                 : 20.0 kb/s
  179. Count of elements                        : 2892
  180. Stream size                              : 18.7 MiB (0%)
  181. Title                                    : Japanese-PGS
  182. Language                                 : Japanese
  183. Default                                  : No
  184. Forced                                   : No

  185. Text #8
  186. ID                                       : 12
  187. Format                                   : PGS
  188. Muxing mode                              : zlib
  189. Codec ID                                 : S_HDMV/PGS
  190. Codec ID/Info                            : Picture based subtitle format used on BDs/HD-DVDs
  191. Duration                                 : 2 h 10 min
  192. Bit rate                                 : 38.9 kb/s
  193. Count of elements                        : 3454
  194. Stream size                              : 36.3 MiB (0%)
  195. Title                                    : Norwegian-PGS
  196. Language                                 : Norwegian
  197. Default                                  : No
  198. Forced                                   : No

  199. Text #9
  200. ID                                       : 13
  201. Format                                   : PGS
  202. Muxing mode                              : zlib
  203. Codec ID                                 : S_HDMV/PGS
  204. Codec ID/Info                            : Picture based subtitle format used on BDs/HD-DVDs
  205. Duration                                 : 2 h 10 min
  206. Bit rate                                 : 33.2 kb/s
  207. Count of elements                        : 3434
  208. Stream size                              : 30.9 MiB (0%)
  209. Title                                    : Spanish-PGS
  210. Language                                 : Spanish
  211. Default                                  : No
  212. Forced                                   : No

  213. Text #10
  214. ID                                       : 14
  215. Format                                   : PGS
  216. Muxing mode                              : zlib
  217. Codec ID                                 : S_HDMV/PGS
  218. Codec ID/Info                            : Picture based subtitle format used on BDs/HD-DVDs
  219. Duration                                 : 2 h 10 min
  220. Bit rate                                 : 30.9 kb/s
  221. Count of elements                        : 2098
  222. Stream size                              : 28.8 MiB (0%)
  223. Title                                    : Swedish-PGS
  224. Language                                 : Swedish
  225. Default                                  : No
  226. Forced                                   : No

  227. Menu
  228. 00:00:00.000                             : en:Chapter 01
  229. 00:04:52.751                             : en:Chapter 02
  230. 00:07:55.433                             : en:Chapter 03
  231. 00:12:12.440                             : en:Chapter 04
  232. 00:19:04.101                             : en:Chapter 05
  233. 00:23:47.885                             : en:Chapter 06
  234. 00:29:47.703                             : en:Chapter 07
  235. 00:39:46.384                             : en:Chapter 08
  236. 00:45:56.045                             : en:Chapter 09
  237. 00:59:19.639                             : en:Chapter 10
  238. 01:01:56.922                             : en:Chapter 11
  239. 01:09:24.452                             : en:Chapter 12
  240. 01:18:41.508                             : en:Chapter 13
  241. 01:23:52.945                             : en:Chapter 14
  242. 01:37:55.995                             : en:Chapter 15
  243. 01:56:18.305                             : en:Chapter 16
  244. 01:59:38.755                             : en:Chapter 17
复制代码

钢铁侠3/钢铁人3 Iron.Man.3.2013.2160p.US.BluRay.x265.10bit.SDR.DTS-HD.MA.TrueHD.7.1.Atmos-SWTYBLZ 27.41GB-2.png 钢铁侠3/钢铁人3 Iron.Man.3.2013.2160p.US.BluRay.x265.10bit.SDR.DTS-HD.MA.TrueHD.7.1.Atmos-SWTYBLZ 27.41GB-3.png 钢铁侠3/钢铁人3 Iron.Man.3.2013.2160p.US.BluRay.x265.10bit.SDR.DTS-HD.MA.TrueHD.7.1.Atmos-SWTYBLZ 27.41GB-4.png 钢铁侠3/钢铁人3 Iron.Man.3.2013.2160p.US.BluRay.x265.10bit.SDR.DTS-HD.MA.TrueHD.7.1.Atmos-SWTYBLZ 27.41GB-5.png 钢铁侠3/钢铁人3 Iron.Man.3.2013.2160p.US.BluRay.x265.10bit.SDR.DTS-HD.MA.TrueHD.7.1.Atmos-SWTYBLZ 27.41GB-6.png 钢铁侠3/钢铁人3 Iron.Man.3.2013.2160p.US.BluRay.x265.10bit.SDR.DTS-HD.MA.TrueHD.7.1.Atmos-SWTYBLZ 27.41GB-7.png







本帖隐藏的下载地址需要VIP会员才可阅读,您需要升级才可阅读,点击这里升级VIP

回复

使用道具 举报

级别:初级观众 Lv.1

注册时间
2020-3-26
最后登录
2020-3-26
听众
3
收听
0
主题
0
蓝光币
6 枚
贡献
0 点
QQ
发表于 2020-3-26 13:05:11 | 显示全部楼层

感谢楼主的无私分享!要想中国高清电影网好 就靠你我他
回复

使用道具 举报

级别:初级观众 Lv.1

注册时间
2020-4-22
最后登录
2020-4-22
听众
4
收听
0
主题
0
蓝光币
0 枚
贡献
0 点
QQ
发表于 2020-4-22 17:05:56 | 显示全部楼层

楼主太厉害了!楼主,电影应该很好看我觉得中国高清电影网真是个好地方!
回复

使用道具 举报

级别:群众演员 Lv.3

注册时间
2020-4-10
最后登录
2020-9-30
听众
5
收听
0
主题
0
蓝光币
126 枚
贡献
0 点
发表于 2020-4-24 21:44:55 | 显示全部楼层
楼主太厉害了!楼主,电影应该很好看我觉得中国高清电影网真是个好地方!
回复

使用道具 举报

已抛锚 成长值: 320

级别:初级观众 Lv.1

注册时间
2020-7-20
最后登录
2020-9-29
听众
4
收听
0
主题
0
蓝光币
29 枚
贡献
0 点
发表于 2020-7-24 00:33:00 | 显示全部楼层

楼主太厉害了!楼主,电影应该很好看我觉得中国高清电影网真是个好地方!
回复

使用道具 举报

懒得打字嘛,点击右侧快捷回复 【右侧内容,后台自定义】
您需要登录后才可以回帖 登录 | 立即注册

本版积分规则

Archiver|手机版|小黑屋| 中国高清网 ( ICP备17007870号-2 ) |网站地图 

GMT+8, 2020-10-1 02:56 , Processed in 0.215161 second(s), 40 queries .

Powered by HDchina X3.4

Copyright 2017-2019©HDchina.All right reserved

返回顶部 联系我们