查看: 162|回复: 2

[动画片] 蝙蝠侠:缄默 Batman.Hush.2019.720p.BluRay.x264-ROVERS 2.65GB

[复制链接]

 成长值: 4620

级别:资源管理组

注册时间
2017-10-20
最后登录
2020-3-28
听众
1
收听
0
主题
94092
蓝光币
122830 枚
贡献
18456 点
发表于 2019-7-29 17:39:46 | 显示全部楼层 |阅读模式
蝙蝠侠:沉默 Batman.Hush.2019.720p.BluRay.x264-ROVERS 2.65GB-1.png : `5 H  g" |2 }) s' h% D

4 k) I! k3 o* z) X译  名 蝙蝠侠:沉默  d- I( G) V4 E9 A; O6 p, j6 m
片  名 Batman: Hush. N" s# z# u1 h& l" F  w9 F
年  代 20194 Q) J) D8 c4 F3 |( Q; t  E5 U
产  地 美国
& E% x# J& ^- z类  别 动画
  X( q6 \& A9 a3 B3 U语  言 英语
  M) X$ R1 s( S4 [上映日期 2019-07-20(美国)2 h. f% R- |) ~% {; X
IMDb链接  http://www.imdb.com/title/tt8752440( e3 P# n0 G2 v) y+ `
豆瓣评分 0/10 from 0 users
1 t$ I0 }( g* k豆瓣链接 https://movie.douban.com/subject/30286712/  W7 r3 @* q4 k3 k
导  演 Justin Copeland+ y6 m# e" R# u4 U" s' R! J
编  剧 厄尼·阿特巴克 Ernie Altbacker / 杰夫·洛布 Jeph Loeb / 吉姆·李 Jim Lee
& g: P" s- `  L( v& V" ~% O主  演 杰森·奥玛拉 Jason O'Mara/ b; K- O2 S- ^
      佩顿·利斯特 Peyton List4 o) {) r% u8 z
      莫瑞·史特林 Maury Sterling) t  c% N  g* h5 t
      杰森·斯皮萨克 Jason Spisak
$ e/ M7 e8 G8 O0 f! ~" I      佩顿·李斯特 Peyton R. List0 q8 {2 ]. ?: i% j# v. ?1 ^
      丽贝卡·罗梅恩 Rebecca Romijn2 I- M( z7 M1 L4 {- W$ |, Z$ G8 ?& [
      詹妮弗·莫里森 Jennifer Morrison2 K5 H% H/ c& j6 L
      雷恩·威尔森 Rainn Wilson
; t% j7 ?# n; S' a) E      杰瑞·奥康奈尔 Jerry O'Connell- |$ A: F/ Y3 s: e* ~
      塔拉·斯特朗 Tara Strong+ x) K" y7 z$ c% J2 x& o
      凡妮莎·威廉斯 Vanessa Williams
7 i  l3 D: p1 L% V) g      吉奥弗瑞·阿伦德 Geoffrey Arend
3 Y) D% n4 Z7 z* w' ?      肖恩·马希尔 Sean Maher
& ~4 X' i" f$ U, }" Q      布鲁斯·托马斯 Bruce Thomas
- }; [( b  R7 O8 U' x( y" J6 ^      斯图尔特·艾伦 Stuart Allan
" t$ k& Z; \+ i, f! H( z0 M* r# h( _6 }9 Z  S8 a
5 q: U3 O$ _( n% g$ \- l
标  签 DC | 蝙蝠侠 | DC动漫 | 动画 | DC动画 | 2019 | 美国 | 待看, }$ K1 w. M" m8 c9 j2 Q. w9 C; M7 w

8 d4 J5 S; J$ U+ m- j8 S简  介  0 X1 _, w6 R" j1 Z* h" r; [* y
( X  C) }7 Z9 [5 e* Z6 p
  影片改编自同名漫画,原著漫画报告一个奥秘的跟踪者名叫“沉默”,他似乎筹算从远处暗杀蝙蝠侠。故事中有很多客串脚色,其中包括了大量的蝙蝠侠反派,还有多位蝙蝠家属的成员以及和蝙蝠侠的老战友,超人。它还摸索了蝙蝠侠和猫女之间的暗昧情愫。
  D0 r, m% v: B( ?; w0 ]/ j- C" r. c) k/ |  ^) S: y# Y2 g
  1. Video
    ; Y% U2 T7 ~5 Q! `# D7 s9 _1 p$ F
  2. ID                                       : 1
    : c$ g' L/ P0 K% p& |; Q0 z
  3. Format                                   : AVC
    # t. Z1 f0 J- [4 b
  4. Format/Info                              : Advanced Video Codec4 H* |% B9 F( p+ V1 x2 O' @3 o5 P7 p9 m
  5. Format profile                           : <a href="/cdn-cgi/l/email-protection" class="__cf_email__" data-cfemail="ace4c5cbc4ece098829d">[email protected]</a>  @. O# W3 Y  e/ b: J
  6. Format settings                          : CABAC / 9 Ref Frames
      B; L! E9 H2 _2 E  a/ W- n& a
  7. Format settings, CABAC                   : Yes
    8 }+ `( o0 p4 P; ~& U
  8. Format settings, Reference frames        : 9 frames
    5 n  ~9 X& ~6 P
  9. Codec ID                                 : V_MPEG4/ISO/AVC6 z$ t2 j4 Y% }1 _- `
  10. Duration                                 : 1 h 22 min
    : F- B+ D% d* [4 S
  11. Bit rate                                 : 3 105 kb/s
    : p: J3 T: _7 ]& s8 Q9 T- }
  12. Width                                    : 1 280 pixels$ }6 G; o3 J6 O. a, u% J
  13. Height                                   : 720 pixels9 T. i& \9 Q) l( l) B
  14. Display aspect ratio                     : 16:9. J# G; L% v  f% R  |9 t$ g( r
  15. Frame rate mode                          : Constant/ V2 Y$ M& j; Q8 U  s$ Z
  16. Frame rate                               : 23.976 (24000/1001) FPS
    ; ?8 t6 o/ R3 y, k/ }7 f& R+ W" W  d
  17. Color space                              : YUV4 |$ D8 q( @0 W3 m
  18. Chroma subsampling                       : 4:2:0! I  t, S+ T8 _1 m6 q
  19. Bit depth                                : 8 bits
    ( B) ?7 D# A. L3 n* C0 _
  20. Scan type                                : Progressive  M8 O* d% s: n& t' W" D
  21. Bits/(Pixel*Frame)                       : 0.141
    1 a4 J! @1 |; n9 R! K6 x
  22. Stream size                              : 1.78 GiB (67%)
    0 ]  c! G2 u  y* _) q8 H
  23. Writing library                          : x264 core 158 r2984 3759fcb
    ; S# J% F3 @9 [
  24. Encoding settings                        : cabac=1 / ref=9 / deblock=1:1:1 / analyse=0x3:0x113 / me=umh / subme=8 / psy=1 / psy_rd=0.40:0.00 / mixed_ref=1 / me_range=16 / chroma_me=1 / trellis=1 / 8x8dct=1 / cqm=0 / deadzone=21,11 / fast_pskip=1 / chroma_qp_offset=-2 / threads=22 / lookahead_threads=3 / sliced_threads=0 / nr=0 / decimate=1 / interlaced=0 / bluray_compat=0 / constrained_intra=0 / bframes=5 / b_pyramid=2 / b_adapt=1 / b_bias=0 / direct=3 / weightb=1 / open_gop=0 / weightp=2 / keyint=250 / keyint_min=23 / scenecut=40 / intra_refresh=0 / rc_lookahead=50 / rc=2pass / mbtree=1 / bitrate=3105 / ratetol=1.0 / qcomp=0.60 / qpmin=0 / qpmax=69 / qpstep=4 / cplxblur=20.0 / qblur=0.5 / ip_ratio=1.40 / aq=1:0.60
    5 h% ?6 {& z8 X0 U0 `
  25. Language                                 : English$ u: T. p0 D" C& O% m9 |- c
  26. Default                                  : Yes; R! L6 e- k& l% h2 y5 s
  27. Forced                                   : No, Y/ J2 }8 I) O" ~% |+ y  \" k4 q

  28. / m5 G( U* |) g5 K. R% X3 L
  29. Audio
    - U( I+ }8 @% g4 e: V7 P! T
  30. ID                                       : 2) Z1 T5 M" m* j! ?, u
  31. Format                                   : DTS/ b: E, S9 b9 K, N
  32. Format/Info                              : Digital Theater Systems
    2 S/ @5 n6 M) v- S8 P
  33. Codec ID                                 : A_DTS
    6 V3 M3 z8 F8 \
  34. Duration                                 : 1 h 22 min$ Z* s9 B. c- o& |* ]- e/ b9 C
  35. Bit rate mode                            : Constant
    . n8 Z: X- j8 l4 G
  36. Bit rate                                 : 1 509 kb/s, Y7 S& E) ^2 D+ o3 E4 Z
  37. Channel(s)                               : 6 channels: T/ e: ]. k4 n& n8 i
  38. Channel layout                           : C L R Ls Rs LFE" j: z* {3 `3 N% \" M( P; {9 n
  39. Sampling rate                            : 48.0 kHz' L/ S; o* k6 k+ _7 _1 O. }
  40. Frame rate                               : 93.750 FPS (512 SPF)( K# H: m/ {9 c" _0 c
  41. Bit depth                                : 24 bits
    ( ]1 |5 K+ L' w8 \+ M9 Z
  42. Compression mode                         : Lossy
    ; F5 m9 g* F! l, F1 F
  43. Stream size                              : 886 MiB (33%)4 _: z# R& a. M4 ~* z
  44. Language                                 : English
    : M' p8 H( [+ L% |4 x  @
  45. Default                                  : Yes9 R/ ?0 }! L. |: o" s" j* ]
  46. Forced                                   : No7 m2 F$ E6 ?7 E( Q" ~* ]9 p% j
  47. 1 f8 `* E+ A; n) K9 u
  48. Menu
    / B5 Y- B: r+ d: G6 w# v
  49. 00:00:00.000                             : en:00:00:00.0001 N3 l7 l; [4 N# _
  50. 00:10:00.016                             : en:00:10:00.0165 T: r+ O) J4 O! s* C
  51. 00:18:57.386                             : en:00:18:57.386' k# j' Y2 K* A5 b: P2 S( ~
  52. 00:28:54.232                             : en:00:28:54.232
    ; N8 p% w3 v0 G4 b5 l" g2 P
  53. 00:37:33.084                             : en:00:37:33.0844 g3 H8 Y4 N  u% o; M& I
  54. 00:44:44.557                             : en:00:44:44.557
    ! l2 a7 j6 T8 p
  55. 00:50:49.546                             : en:00:50:49.546
    8 X# ~$ y/ E2 m7 k) v+ e' Q7 @
  56. 00:59:13.008                             : en:00:59:13.008
    7 z9 [4 C( w. g4 v& ?
  57. 01:07:59.284                             : en:01:07:59.284
    7 O. _/ \0 Z5 f; e1 Z
  58. 01:16:19.116                             : en:01:16:19.116  {" f7 |$ w3 v1 X6 L& E) D
  59. 01:18:54.605                             : en:01:18:54.605
复制代码
! y3 M. T9 T- k0 f, b0 x
蝙蝠侠:沉默 Batman.Hush.2019.720p.BluRay.x264-ROVERS 2.65GB-2.png 3 q- [7 q1 u# ^" M4 _7 V. Y+ Y/ D
/ y1 I4 k! n) j9 K5 T
( l. ?0 W7 ~  h& p% b, m* |

  J- s4 t5 i+ g: D) y! T% q. g; {$ ]' d, c0 o

9 z3 y! w# v/ r& Z1 ?
" @! y+ ?( n8 @6 V/ w0 S6 S
回复

使用道具 举报

级别:一线明星 Lv.8

注册时间
2019-4-24
最后登录
2020-3-27
听众
14
收听
0
主题
0
蓝光币
414 枚
贡献
0 点
发表于 2019-7-29 20:15:59 | 显示全部楼层
谢谢楼主分享!
回复

使用道具 举报

级别:普通观众 Lv.2

注册时间
2019-8-4
最后登录
2020-3-26
听众
2
收听
0
主题
0
蓝光币
6 枚
贡献
0 点
发表于 前天 10:59 | 显示全部楼层
楼主发贴辛苦了,谢谢楼主分享!我觉得中国高清电影网是注册对了!
回复

使用道具 举报

懒得打字嘛,点击右侧快捷回复 【右侧内容,后台自定义】
您需要登录后才可以回帖 登录 | 立即注册

本版积分规则

Archiver|手机版|小黑屋| 中国高清网 ( ICP备17007870号-2 ) |网站地图

GMT+8, 2020-3-28 19:23 , Processed in 0.144003 second(s), 38 queries .

Powered by HDchina X3.4

Copyright 2017-2019©HDchina.All right reserved

返回顶部 联系我们