查看: 229|回复: 0

[2160p-WEB] 雷霆沙赞! Shazam.2019.INTERNAL.2160p.WEB.H265-DEFLATE 23.40GB

[复制链接]

 成长值: 2200

级别:资源管理组

注册时间
2017-10-20
最后登录
2019-8-17
听众
1
收听
0
主题
80689
蓝光币
41947 枚
贡献
5016 点
发表于 2019-7-9 17:57:31 | 显示全部楼层 |阅读模式
雷霆沙赞! Shazam.2019.INTERNAL.2160p.WEB.H265-DEFLATE 23.40GB-1.png

译  名 雷霆沙赞! / Billy Batson and the Legend of Shazam! / Franklin / 奇迹队长 / 沙赞 / 沙赞!(台) / 沙赞!神力集结(港) / 奇异上尉 / 雷霆沙赞
片  名 Shazam!
年  代 2019
产  地 美国
类  别 行动 / 奇异 / 冒险
语  言 英语
上映日期 2019-04-05(美国/中国大陆)
IMDb评分  7.5/10 from 100273 users
IMDb链接  http://www.imdb.com/title/tt0448115
豆瓣评分 6.6/10 from 110901 users
豆瓣链接 https://movie.douban.com/subject/2244426/
片  长 132分钟
导  演 大卫·F·桑德伯格 David F. Sandberg
编  剧 亨利·盖登 Henry Gayden / 达伦·莱姆克 Darren Lemke / 比尔·帕克 Bill Parker / C·C·贝克 C.C. Beck
主  演 扎克瑞·莱维 Zachary Levi
      马克·斯特朗 Mark Strong
      亚瑟·安其 Asher Angel
      杰克·迪伦·格雷泽 Jack Dylan Grazer
      杰曼·翰苏 Djimon Hounsou
      费滋·赫尔曼 Faithe Herman
      约文·阿曼德 Jovan Armand
      陈琦烨 Ian Chen
      格蕾丝·富尔顿 Grace Fulton
      亚当·布罗迪 Adam Brody
      梅根·古德 Meagan Good
      米歇尔·博斯 Michelle Borth
      罗斯·巴特勒 Ross Butler
      马尔塔·米兰斯 Marta Milans
      库珀·安德鲁斯 Cooper Andrews
      罗维娜·亚瓦里 Lovina Yavari
      埃文·马什 Evan Marsh
      娜塔莉亚姗福瑞 Natalia Safran
      D·J·科特罗纳 D.J. Cotrona
      艾娃·普雷斯顿 Ava Preston
      安迪·奥修 Andi Osho
      卡尔森·迈克马克 Carson MacCormac
      莎伊娜·瑞恩 Shayna Ryan
      莎拉·贝纳尼 Sarah Bennani
      安吉莉卡·利斯克 Angelica Lisk
      辛迪·戴 Cyndy Day
      洛塔·洛森 Lotta Losten
      西蒙·诺斯伍德 Simon Northwood
      戴维·科赫史姑娘 David Kohlsmith
      卢·卢·萨夫兰 Lou Lou Safran
      Adam Rodness
      杰夫·桑卡 Jeff Sanca
      阿里·巴德沙阿 Ali Badshah
      大卫·J·麦克尼尔 David J. MacNeil
      达娜·雷兹尼克 Dana Reznik
      迪索·拉莫斯 Diezel Ramos


标  签 DC | 超级豪杰 | 沙雕 | 美国 | 笑剧 | 漫画改编 | 2019 | 科幻

简  介  

  因儿时与母亲失散,少年比利(亚瑟·安其 Asher Angel 饰)辗转多个家庭,却固执地要回到妈妈身旁。当他再度居住一个由养子养女的大师庭时,却鬼使神差来到某个未知的范畴,而且成为陈腐巫师的继续人。当他喊出“沙赞”时,便会瞬间酿成具有强健成年人身材的超级豪杰雷霆沙赞(扎克瑞·莱维 Zachary Levi 饰)。比利兴奋不已,和新家的兄弟——得了腿部残疾的弗雷迪(杰克·迪伦·格雷泽 Jack Dylan Grazer 饰)配合分享这份欢畅,两人更将展现各类超才能的视频上传收集,流布四方。成果,包藏祸心的赛迪斯·希瓦纳博士(马克·斯特朗 Mark Strong 饰)找上门来。
希瓦纳童年时曾与沙赞身份失之交臂,一向不受父亲兄长待见的他将灵魂出售给七宗罪魔鬼,他更诡计摧毁阿谁让他求之不得又恨之入骨的雷霆沙赞……

  1. Video
  2. ID                                       : 1
  3. Format                                   : HEVC
  4. Format/Info                              : High Efficiency Video Coding
  5. Format profile                           : Main <a href="/cdn-cgi/l/email-protection" class="__cf_email__" data-cfemail="d5e4e59599e0">[email protected]</a>@High
  6. Codec ID                                 : V_MPEGH/ISO/HEVC
  7. Duration                                 : 2 h 11 min
  8. Bit rate                                 : 24.4 Mb/s
  9. Width                                    : 3 840 pixels
  10. Height                                   : 1 608 pixels
  11. Original height                          : 2 160 pixels
  12. Display aspect ratio                     : 16:9
  13. Frame rate mode                          : Constant
  14. Frame rate                               : 23.976 (24000/1001) FPS
  15. Color space                              : YUV
  16. Chroma subsampling                       : 4:2:0 (Type 2)
  17. Bit depth                                : 10 bits
  18. Bits/(Pixel*Frame)                       : 0.164
  19. Stream size                              : 22.4 GiB (96%)
  20. Language                                 : English
  21. Default                                  : Yes
  22. Forced                                   : No
  23. Color range                              : Limited
  24. Color primaries                          : BT.709
  25. Transfer characteristics                 : BT.709
  26. Matrix coefficients                      : BT.709

  27. Audio
  28. ID                                       : 2
  29. Format                                   : E-AC-3 JOC
  30. Format/Info                              : Enhanced AC-3 with Joint Object Coding
  31. Commercial name                          : Dolby Digital Plus with Dolby Atmos
  32. Codec ID                                 : A_EAC3
  33. Duration                                 : 2 h 11 min
  34. Bit rate mode                            : Constant
  35. Bit rate                                 : 576 kb/s
  36. Channel(s)                               : 6 channels
  37. Channel layout                           : L R C LFE Ls Rs
  38. Sampling rate                            : 48.0 kHz
  39. Frame rate                               : 31.250 FPS (1536 SPF)
  40. Compression mode                         : Lossy
  41. Stream size                              : 543 MiB (2%)
  42. Language                                 : English
  43. Service kind                             : Complete Main
  44. Default                                  : Yes
  45. Forced                                   : No
  46. Complexity index                         : 16
  47. Number of dynamic objects                : 15
  48. Bed channel count                        : 1 channel
  49. Bed channel configuration                : LFE

  50. Text #1
  51. ID                                       : 3
  52. Format                                   : UTF-8
  53. Codec ID                                 : S_TEXT/UTF8
  54. Codec ID/Info                            : UTF-8 Plain Text
  55. Title                                    : English
  56. Language                                 : English
  57. Default                                  : No
  58. Forced                                   : No

  59. Text #2
  60. ID                                       : 4
  61. Format                                   : UTF-8
  62. Codec ID                                 : S_TEXT/UTF8
  63. Codec ID/Info                            : UTF-8 Plain Text
  64. Title                                    : English (SDH)
  65. Language                                 : English
  66. Default                                  : No
  67. Forced                                   : No

  68. Text #3
  69. ID                                       : 5
  70. Format                                   : UTF-8
  71. Codec ID                                 : S_TEXT/UTF8
  72. Codec ID/Info                            : UTF-8 Plain Text
  73. Title                                    : Spanish
  74. Language                                 : Spanish
  75. Default                                  : No
  76. Forced                                   : No

  77. Menu
  78. 00:00:00.000                             : en:Chapter 1
  79. 00:08:18.000                             : en:Chapter 2
  80. 00:15:11.000                             : en:Chapter 3
  81. 00:25:22.000                             : en:Chapter 4
  82. 00:31:57.000                             : en:Chapter 5
  83. 00:39:00.000                             : en:Chapter 6
  84. 00:50:07.000                             : en:Chapter 7
  85. 01:01:28.000                             : en:Chapter 8
  86. 01:08:51.000                             : en:Chapter 9
  87. 01:16:39.000                             : en:Chapter 10
  88. 01:24:29.000                             : en:Chapter 11
  89. 01:34:00.000                             : en:Chapter 12
  90. 01:43:01.000                             : en:Chapter 13
  91. 01:52:53.000                             : en:Chapter 14
  92. 02:00:44.000                             : en:Chapter 15
复制代码

雷霆沙赞! Shazam.2019.INTERNAL.2160p.WEB.H265-DEFLATE 23.40GB-2.png 雷霆沙赞! Shazam.2019.INTERNAL.2160p.WEB.H265-DEFLATE 23.40GB-3.png 雷霆沙赞! Shazam.2019.INTERNAL.2160p.WEB.H265-DEFLATE 23.40GB-4.png






本帖隐藏的下载地址需要VIP会员才可阅读,您需要升级才可阅读,点击这里升级VIP

回复

使用道具 举报

懒得打字嘛,点击右侧快捷回复 【右侧内容,后台自定义】
您需要登录后才可以回帖 登录 | 立即注册

本版积分规则

QQ|Archiver|手机版|小黑屋| 中国高清网 |网站地图

GMT+8, 2019-8-17 20:35 , Processed in 0.423121 second(s), 39 queries .

Powered by HDchina X3.4

Copyright 2017-2019©HDchina.All right reserved

返回顶部 联系我们