查看: 139|回复: 0

[10bit.SDR] 雷霆沙赞! Shazam.2019.2160p.BluRay.x265.10bit.SDR.DTS-HD.MA.TrueHD.7.1.Atmos-SWTYBLZ 58.11GB

[复制链接]

 成长值: 2200

级别:资源管理组

注册时间
2017-10-20
最后登录
2019-8-17
听众
1
收听
0
主题
80689
蓝光币
41947 枚
贡献
5016 点
发表于 2019-7-9 17:45:32 | 显示全部楼层 |阅读模式
雷霆沙赞! Shazam.2019.2160p.BluRay.x265.10bit.SDR.DTS-HD.MA.TrueHD.7.1.Atmos-SWTYBLZ 58.11GB-1.png

译  名 雷霆沙赞! / Billy Batson and the Legend of Shazam! / Franklin / 奇迹队长 / 沙赞 / 沙赞!(台) / 沙赞!神力集结(港) / 奇异上尉 / 雷霆沙赞
片  名 Shazam!
年  代 2019
产  地 美国
类  别 行动 / 奇异 / 冒险
语  言 英语
上映日期 2019-04-05(美国/中国大陆)
IMDb评分  7.5/10 from 100273 users
IMDb链接  http://www.imdb.com/title/tt0448115
豆瓣评分 6.6/10 from 110901 users
豆瓣链接 https://movie.douban.com/subject/2244426/
片  长 132分钟
导  演 大卫·F·桑德伯格 David F. Sandberg
编  剧 亨利·盖登 Henry Gayden / 达伦·莱姆克 Darren Lemke / 比尔·帕克 Bill Parker / C·C·贝克 C.C. Beck
主  演 扎克瑞·莱维 Zachary Levi
      马克·斯特朗 Mark Strong
      亚瑟·安其 Asher Angel
      杰克·迪伦·格雷泽 Jack Dylan Grazer
      杰曼·翰苏 Djimon Hounsou
      费滋·赫尔曼 Faithe Herman
      约文·阿曼德 Jovan Armand
      陈琦烨 Ian Chen
      格蕾丝·富尔顿 Grace Fulton
      亚当·布罗迪 Adam Brody
      梅根·古德 Meagan Good
      米歇尔·博斯 Michelle Borth
      罗斯·巴特勒 Ross Butler
      马尔塔·米兰斯 Marta Milans
      库珀·安德鲁斯 Cooper Andrews
      罗维娜·亚瓦里 Lovina Yavari
      埃文·马什 Evan Marsh
      娜塔莉亚姗福瑞 Natalia Safran
      D·J·科特罗纳 D.J. Cotrona
      艾娃·普雷斯顿 Ava Preston
      安迪·奥修 Andi Osho
      卡尔森·迈克马克 Carson MacCormac
      莎伊娜·瑞恩 Shayna Ryan
      莎拉·贝纳尼 Sarah Bennani
      安吉莉卡·利斯克 Angelica Lisk
      辛迪·戴 Cyndy Day
      洛塔·洛森 Lotta Losten
      西蒙·诺斯伍德 Simon Northwood
      戴维·科赫史姑娘 David Kohlsmith
      卢·卢·萨夫兰 Lou Lou Safran
      Adam Rodness
      杰夫·桑卡 Jeff Sanca
      阿里·巴德沙阿 Ali Badshah
      大卫·J·麦克尼尔 David J. MacNeil
      达娜·雷兹尼克 Dana Reznik
      迪索·拉莫斯 Diezel Ramos


标  签 DC | 超级豪杰 | 沙雕 | 美国 | 笑剧 | 漫画改编 | 2019 | 科幻

简  介  

  因儿时与母亲失散,少年比利(亚瑟·安其 Asher Angel 饰)辗转多个家庭,却固执地要回到妈妈身旁。当他再度居住一个由养子养女的大师庭时,却鬼使神差来到某个未知的范畴,而且成为陈腐巫师的继续人。当他喊出“沙赞”时,便会瞬间酿成具有强健成年人身材的超级豪杰雷霆沙赞(扎克瑞·莱维 Zachary Levi 饰)。比利兴奋不已,和新家的兄弟——得了腿部残疾的弗雷迪(杰克·迪伦·格雷泽 Jack Dylan Grazer 饰)配合分享这份欢畅,两人更将展现各类超才能的视频上传收集,流布四方。成果,包藏祸心的赛迪斯·希瓦纳博士(马克·斯特朗 Mark Strong 饰)找上门来。
希瓦纳童年时曾与沙赞身份失之交臂,一向不受父亲兄长待见的他将灵魂出售给七宗罪魔鬼,他更诡计摧毁阿谁让他求之不得又恨之入骨的雷霆沙赞……

  1. Video
  2. ID                                       : 1
  3. Format                                   : HEVC
  4. Format/Info                              : High Efficiency Video Coding
  5. Format profile                           : Main <a href="/cdn-cgi/l/email-protection" class="__cf_email__" data-cfemail="daebea9a96eff4eb">[email protected]</a>@High
  6. Codec ID                                 : V_MPEGH/ISO/HEVC
  7. Duration                                 : 2 h 11 min
  8. Bit rate                                 : 54.4 Mb/s
  9. Width                                    : 3 840 pixels
  10. Height                                   : 1 608 pixels
  11. Display aspect ratio                     : 2.40:1
  12. Frame rate mode                          : Constant
  13. Frame rate                               : 23.976 (24000/1001) FPS
  14. Color space                              : YUV
  15. Chroma subsampling                       : 4:2:0
  16. Bit depth                                : 10 bits
  17. Bits/(Pixel*Frame)                       : 0.367
  18. Stream size                              : 50.0 GiB (86%)
  19. Title                                    : Shazam.2019.2160p.BluRay.x265.10bit.SDR.DTS-HD.MA.TrueHD.7.1.Atmos-SWTYBLZ
  20. Writing library                          : x265 3.0ed72af837053:[Windows][GCC 8.2.0][64 bit] 10bit
  21. Encoding settings                        : cpuid=1111039 / frame-threads=16 / numa-pools=44,44 / wpp / no-pmode / no-pme / no-psnr / no-ssim / log-level=2 / input-csp=1 / input-res=3840x1608 / interlace=0 / total-frames=189484 / level-idc=51 / high-tier=1 / uhd-bd=0 / ref=3 / no-allow-non-conformance / repeat-headers / annexb / aud / hrd / info / hash=0 / no-temporal-layers / no-open-gop / min-keyint=1 / keyint=24 / gop-lookahead=0 / bframes=4 / b-adapt=2 / b-pyramid / bframe-bias=0 / rc-lookahead=25 / lookahead-slices=4 / scenecut=40 / radl=0 / no-splice / no-intra-refresh / ctu=64 / min-cu-size=8 / no-rect / no-amp / max-tu-size=32 / tu-inter-depth=1 / tu-intra-depth=1 / limit-tu=0 / rdoq-level=0 / dynamic-rd=0.00 / no-ssim-rd / signhide / no-tskip / nr-intra=0 / nr-inter=0 / no-constrained-intra / strong-intra-smoothing / max-merge=2 / limit-refs=3 / no-limit-modes / me=1 / subme=2 / merange=57 / temporal-mvp / weightp / no-weightb / no-analyze-src-pics / deblock=0:0 / no-sao / no-sao-non-deblock / rd=3 / no-early-skip / rskip / no-fast-intra / no-tskip-fast / no-cu-lossless / no-b-intra / no-splitrd-skip / rdpenalty=0 / psy-rd=2.00 / psy-rdoq=0.00 / no-rd-refine / no-lossless / cbqpoffs=0 / crqpoffs=0 / rc=crf / crf=18.0 / qcomp=0.60 / qpstep=4 / stats-write=0 / stats-read=0 / vbv-maxrate=160000 / vbv-bufsize=160000 / vbv-init=0.9 / crf-max=0.0 / crf-min=0.0 / ipratio=1.40 / pbratio=1.30 / aq-mode=1 / aq-strength=1.00 / cutree / zone-count=0 / no-strict-cbr / qg-size=32 / no-rc-grain / qpmax=69 / qpmin=0 / no-const-vbv / sar=1 / overscan=0 / videoformat=5 / range=0 / colorprim=2 / transfer=2 / colormatrix=2 / chromaloc=0 / display-window=0 / max-cll=0,0 / min-luma=0 / max-luma=1023 / log2-max-poc-lsb=8 / vui-timing-info / vui-hrd-info / slices=1 / opt-qp-pps / opt-ref-list-length-pps / no-multi-pass-opt-rps / scenecut-bias=0.05 / no-opt-cu-delta-qp / no-aq-motion / no-hdr / no-hdr-opt / no-dhdr10-opt / no-idr-recovery-sei / analysis-reuse-level=5 / scale-factor=0 / refine-intra=0 / refine-inter=0 / refine-mv=0 / refine-ctu-distortion=0 / no-limit-sao / ctu-info=0 / no-lowpass-dct / refine-analysis-type=0 / copy-pic=1 / max-ausize-factor=1.0 / no-dynamic-refine / no-single-sei / no-hevc-aq / qp-adaptation-range=1.00
  22. Default                                  : Yes
  23. Forced                                   : No

  24. Audio #1
  25. ID                                       : 2
  26. Format                                   : MLP FBA 16-ch
  27. Format/Info                              : Meridian Lossless Packing FBA with 16-channel presentation
  28. Commercial name                          : Dolby TrueHD with Dolby Atmos
  29. Codec ID                                 : A_TRUEHD
  30. Duration                                 : 2 h 11 min
  31. Bit rate mode                            : Variable
  32. Bit rate                                 : 3 645 kb/s
  33. Maximum bit rate                         : 5 931 kb/s
  34. Channel(s)                               : 8 channels
  35. Channel layout                           : L R C LFE Ls Rs Lb Rb
  36. Sampling rate                            : 48.0 kHz
  37. Frame rate                               : 1 200.000 FPS (40 SPF)
  38. Compression mode                         : Lossless
  39. Stream size                              : 3.35 GiB (6%)
  40. Title                                    : Shazam.2019.2160p.BluRay.x265.10bit.SDR.DTS-HD.MA.TrueHD.7.1.Atmos-SWTYBLZ
  41. Language                                 : English
  42. Default                                  : Yes
  43. Forced                                   : No
  44. Number of dynamic objects                : 15
  45. Bed channel count                        : 1 channel
  46. Bed channel configuration                : LFE

  47. Audio #2
  48. ID                                       : 3
  49. Format                                   : DTS XLL
  50. Format/Info                              : Digital Theater Systems
  51. Commercial name                          : DTS-HD Master Audio
  52. Codec ID                                 : A_DTS
  53. Duration                                 : 2 h 11 min
  54. Bit rate mode                            : Variable
  55. Bit rate                                 : 4 217 kb/s
  56. Channel(s)                               : 8 channels
  57. Channel layout                           : C L R LFE Lb Rb Lss Rss
  58. Sampling rate                            : 48.0 kHz
  59. Frame rate                               : 93.750 FPS (512 SPF)
  60. Bit depth                                : 24 bits
  61. Compression mode                         : Lossless
  62. Stream size                              : 3.88 GiB (7%)
  63. Title                                    : Shazam.2019.2160p.BluRay.x265.10bit.SDR.DTS-HD.MA.TrueHD.7.1.Atmos-SWTYBLZ
  64. Language                                 : English
  65. Default                                  : No
  66. Forced                                   : No

  67. Audio #3
  68. ID                                       : 4
  69. Format                                   : AC-3
  70. Format/Info                              : Audio Coding 3
  71. Commercial name                          : Dolby Digital
  72. Codec ID                                 : A_AC3
  73. Duration                                 : 2 h 11 min
  74. Bit rate mode                            : Constant
  75. Bit rate                                 : 448 kb/s
  76. Channel(s)                               : 6 channels
  77. Channel layout                           : L R C LFE Ls Rs
  78. Sampling rate                            : 48.0 kHz
  79. Frame rate                               : 31.250 FPS (1536 SPF)
  80. Bit depth                                : 16 bits
  81. Compression mode                         : Lossy
  82. Stream size                              : 422 MiB (1%)
  83. Title                                    : Shazam.2019.2160p.BluRay.x265.10bit.SDR.DTS-HD.MA.TrueHD.7.1.Atmos-SWTYBLZ
  84. Language                                 : English
  85. Service kind                             : Complete Main
  86. Default                                  : No
  87. Forced                                   : No

  88. Text #1
  89. ID                                       : 5
  90. Format                                   : UTF-8
  91. Codec ID                                 : S_TEXT/UTF8
  92. Codec ID/Info                            : UTF-8 Plain Text
  93. Duration                                 : 2 h 10 min
  94. Bit rate                                 : 52 b/s
  95. Count of elements                        : 1755
  96. Stream size                              : 49.7 KiB (0%)
  97. Title                                    : English-SRT
  98. Language                                 : English
  99. Default                                  : Yes
  100. Forced                                   : No

  101. Text #2
  102. ID                                       : 6
  103. Format                                   : UTF-8
  104. Codec ID                                 : S_TEXT/UTF8
  105. Codec ID/Info                            : UTF-8 Plain Text
  106. Duration                                 : 2 h 10 min
  107. Bit rate                                 : 63 b/s
  108. Count of elements                        : 2182
  109. Stream size                              : 60.7 KiB (0%)
  110. Title                                    : English-SDH-SRT
  111. Language                                 : English
  112. Default                                  : No
  113. Forced                                   : No

  114. Text #3
  115. ID                                       : 7
  116. Format                                   : PGS
  117. Muxing mode                              : zlib
  118. Codec ID                                 : S_HDMV/PGS
  119. Codec ID/Info                            : Picture based subtitle format used on BDs/HD-DVDs
  120. Duration                                 : 2 h 11 min
  121. Bit rate                                 : 37.5 kb/s
  122. Count of elements                        : 4310
  123. Stream size                              : 35.3 MiB (0%)
  124. Title                                    : English-PGS
  125. Language                                 : English
  126. Default                                  : No
  127. Forced                                   : No

  128. Text #4
  129. ID                                       : 8
  130. Format                                   : PGS
  131. Muxing mode                              : zlib
  132. Codec ID                                 : S_HDMV/PGS
  133. Codec ID/Info                            : Picture based subtitle format used on BDs/HD-DVDs
  134. Duration                                 : 2 h 10 min
  135. Bit rate                                 : 23.4 kb/s
  136. Count of elements                        : 3148
  137. Stream size                              : 21.9 MiB (0%)
  138. Title                                    : French-PGS
  139. Language                                 : French
  140. Default                                  : No
  141. Forced                                   : No

  142. Text #5
  143. ID                                       : 9
  144. Format                                   : PGS
  145. Muxing mode                              : zlib
  146. Codec ID                                 : S_HDMV/PGS
  147. Codec ID/Info                            : Picture based subtitle format used on BDs/HD-DVDs
  148. Duration                                 : 2 h 11 min
  149. Bit rate                                 : 35.9 kb/s
  150. Count of elements                        : 4414
  151. Stream size                              : 33.8 MiB (0%)
  152. Title                                    : Italian-PGS
  153. Language                                 : Italian
  154. Default                                  : No
  155. Forced                                   : No

  156. Text #6
  157. ID                                       : 10
  158. Format                                   : PGS
  159. Muxing mode                              : zlib
  160. Codec ID                                 : S_HDMV/PGS
  161. Codec ID/Info                            : Picture based subtitle format used on BDs/HD-DVDs
  162. Duration                                 : 2 h 10 min
  163. Bit rate                                 : 27.0 kb/s
  164. Count of elements                        : 3160
  165. Stream size                              : 25.2 MiB (0%)
  166. Title                                    : Chinese-PGS
  167. Language                                 : Chinese
  168. Default                                  : No
  169. Forced                                   : No

  170. Text #7
  171. ID                                       : 11
  172. Format                                   : PGS
  173. Muxing mode                              : zlib
  174. Codec ID                                 : S_HDMV/PGS
  175. Codec ID/Info                            : Picture based subtitle format used on BDs/HD-DVDs
  176. Duration                                 : 2 h 10 min
  177. Bit rate                                 : 26.8 kb/s
  178. Count of elements                        : 3514
  179. Stream size                              : 25.0 MiB (0%)
  180. Title                                    : Chinese-PGS
  181. Language                                 : Chinese
  182. Default                                  : No
  183. Forced                                   : No

  184. Text #8
  185. ID                                       : 12
  186. Format                                   : PGS
  187. Muxing mode                              : zlib
  188. Codec ID                                 : S_HDMV/PGS
  189. Codec ID/Info                            : Picture based subtitle format used on BDs/HD-DVDs
  190. Duration                                 : 2 h 10 min
  191. Bit rate                                 : 17.1 kb/s
  192. Count of elements                        : 3502
  193. Stream size                              : 16.0 MiB (0%)
  194. Title                                    : Korean-PGS
  195. Language                                 : Korean
  196. Default                                  : No
  197. Forced                                   : No

  198. Text #9
  199. ID                                       : 13
  200. Format                                   : PGS
  201. Muxing mode                              : zlib
  202. Codec ID                                 : S_HDMV/PGS
  203. Codec ID/Info                            : Picture based subtitle format used on BDs/HD-DVDs
  204. Duration                                 : 2 h 10 min
  205. Bit rate                                 : 30.6 kb/s
  206. Count of elements                        : 3500
  207. Stream size                              : 28.6 MiB (0%)
  208. Title                                    : Spanish-PGS
  209. Language                                 : Spanish
  210. Default                                  : No
  211. Forced                                   : No

  212. Text #10
  213. ID                                       : 14
  214. Format                                   : PGS
  215. Muxing mode                              : zlib
  216. Codec ID                                 : S_HDMV/PGS
  217. Codec ID/Info                            : Picture based subtitle format used on BDs/HD-DVDs
  218. Duration                                 : 2 h 10 min
  219. Bit rate                                 : 17.1 kb/s
  220. Count of elements                        : 3514
  221. Stream size                              : 16.0 MiB (0%)
  222. Title                                    : Arabic-PGS
  223. Language                                 : Arabic
  224. Default                                  : No
  225. Forced                                   : No

  226. Text #11
  227. ID                                       : 15
  228. Format                                   : PGS
  229. Muxing mode                              : zlib
  230. Codec ID                                 : S_HDMV/PGS
  231. Codec ID/Info                            : Picture based subtitle format used on BDs/HD-DVDs
  232. Duration                                 : 2 h 10 min
  233. Bit rate                                 : 26.2 kb/s
  234. Count of elements                        : 2492
  235. Stream size                              : 24.6 MiB (0%)
  236. Title                                    : Danish-PGS
  237. Language                                 : Danish
  238. Default                                  : No
  239. Forced                                   : No

  240. Text #12
  241. ID                                       : 16
  242. Format                                   : PGS
  243. Muxing mode                              : zlib
  244. Codec ID                                 : S_HDMV/PGS
  245. Codec ID/Info                            : Picture based subtitle format used on BDs/HD-DVDs
  246. Duration                                 : 2 h 10 min
  247. Bit rate                                 : 25.2 kb/s
  248. Count of elements                        : 3498
  249. Stream size                              : 23.6 MiB (0%)
  250. Title                                    : Finnish-PGS
  251. Language                                 : Finnish
  252. Default                                  : No
  253. Forced                                   : No

  254. Text #13
  255. ID                                       : 17
  256. Format                                   : PGS
  257. Muxing mode                              : zlib
  258. Codec ID                                 : S_HDMV/PGS
  259. Codec ID/Info                            : Picture based subtitle format used on BDs/HD-DVDs
  260. Duration                                 : 2 h 10 min
  261. Bit rate                                 : 26.9 kb/s
  262. Count of elements                        : 3080
  263. Stream size                              : 25.2 MiB (0%)
  264. Title                                    : Norwegian-PGS
  265. Language                                 : Norwegian
  266. Default                                  : No
  267. Forced                                   : No

  268. Text #14
  269. ID                                       : 18
  270. Format                                   : PGS
  271. Muxing mode                              : zlib
  272. Codec ID                                 : S_HDMV/PGS
  273. Codec ID/Info                            : Picture based subtitle format used on BDs/HD-DVDs
  274. Duration                                 : 2 h 10 min
  275. Bit rate                                 : 27.6 kb/s
  276. Count of elements                        : 3448
  277. Stream size                              : 25.9 MiB (0%)
  278. Title                                    : Polish-PGS
  279. Language                                 : Polish
  280. Default                                  : No
  281. Forced                                   : No

  282. Text #15
  283. ID                                       : 19
  284. Format                                   : PGS
  285. Muxing mode                              : zlib
  286. Codec ID                                 : S_HDMV/PGS
  287. Codec ID/Info                            : Picture based subtitle format used on BDs/HD-DVDs
  288. Duration                                 : 2 h 10 min
  289. Bit rate                                 : 26.8 kb/s
  290. Count of elements                        : 3486
  291. Stream size                              : 25.1 MiB (0%)
  292. Title                                    : Swedish-PGS
  293. Language                                 : Swedish
  294. Default                                  : No
  295. Forced                                   : No

  296. Text #16
  297. ID                                       : 20
  298. Format                                   : PGS
  299. Muxing mode                              : zlib
  300. Codec ID                                 : S_HDMV/PGS
  301. Codec ID/Info                            : Picture based subtitle format used on BDs/HD-DVDs
  302. Duration                                 : 2 h 10 min
  303. Bit rate                                 : 30.2 kb/s
  304. Count of elements                        : 3508
  305. Stream size                              : 28.2 MiB (0%)
  306. Title                                    : Turkish-PGS
  307. Language                                 : Turkish
  308. Default                                  : No
  309. Forced                                   : No

  310. Menu
  311. 00:00:00.000                             : en:00:00:00.000
  312. 00:08:18.790                             : en:00:08:18.790
  313. 00:15:11.285                             : en:00:15:11.285
  314. 00:25:22.396                             : en:00:25:22.396
  315. 00:31:57.624                             : en:00:31:57.624
  316. 00:39:00.255                             : en:00:39:00.255
  317. 00:50:07.713                             : en:00:50:07.713
  318. 01:01:28.810                             : en:01:01:28.810
  319. 01:08:51.502                             : en:01:08:51.502
  320. 01:16:40.471                             : en:01:16:40.471
  321. 01:24:29.356                             : en:01:24:29.356
  322. 01:34:00.677                             : en:01:34:00.677
  323. 01:43:01.175                             : en:01:43:01.175
  324. 01:52:53.850                             : en:01:52:53.850
  325. 02:00:44.446                             : en:02:00:44.446
复制代码

雷霆沙赞! Shazam.2019.2160p.BluRay.x265.10bit.SDR.DTS-HD.MA.TrueHD.7.1.Atmos-SWTYBLZ 58.11GB-2.png 雷霆沙赞! Shazam.2019.2160p.BluRay.x265.10bit.SDR.DTS-HD.MA.TrueHD.7.1.Atmos-SWTYBLZ 58.11GB-3.png 雷霆沙赞! Shazam.2019.2160p.BluRay.x265.10bit.SDR.DTS-HD.MA.TrueHD.7.1.Atmos-SWTYBLZ 58.11GB-4.png 雷霆沙赞! Shazam.2019.2160p.BluRay.x265.10bit.SDR.DTS-HD.MA.TrueHD.7.1.Atmos-SWTYBLZ 58.11GB-5.png 雷霆沙赞! Shazam.2019.2160p.BluRay.x265.10bit.SDR.DTS-HD.MA.TrueHD.7.1.Atmos-SWTYBLZ 58.11GB-6.png 雷霆沙赞! Shazam.2019.2160p.BluRay.x265.10bit.SDR.DTS-HD.MA.TrueHD.7.1.Atmos-SWTYBLZ 58.11GB-7.png 雷霆沙赞! Shazam.2019.2160p.BluRay.x265.10bit.SDR.DTS-HD.MA.TrueHD.7.1.Atmos-SWTYBLZ 58.11GB-8.png






本帖隐藏的下载地址需要VIP会员才可阅读,您需要升级才可阅读,点击这里升级VIP

回复

使用道具 举报

懒得打字嘛,点击右侧快捷回复 【右侧内容,后台自定义】
您需要登录后才可以回帖 登录 | 立即注册

本版积分规则

QQ|Archiver|手机版|小黑屋| 中国高清网 |网站地图

GMT+8, 2019-8-17 20:35 , Processed in 0.492901 second(s), 39 queries .

Powered by HDchina X3.4

Copyright 2017-2019©HDchina.All right reserved

返回顶部 联系我们