查看: 72|回复: 0

[剧情片] 歼灭者 The.Annihilators.1985.1080p.BluRay.REMUX.AVC.LPCM.1.0-FGT 21.39GB

[复制链接]

 成长值: 2200

级别:资源管理组

注册时间
2017-10-20
最后登录
2019-8-17
听众
1
收听
0
主题
80689
蓝光币
41951 枚
贡献
5016 点
发表于 2019-7-9 17:44:32 | 显示全部楼层 |阅读模式
消灭者 The.Annihilators.1985.1080p.BluRay.REMUX.AVC.LPCM.1.0-FGT 21.39GB-1.png

译  名 消灭者
片  名 The Annihilators
年  代 1985
产  地 美国
类  别 剧情 / 行动 / 犯罪
语  言 英语
上映日期 1985-01
IMDb评分  4.8/10 from 352 users
IMDb链接  http://www.imdb.com/title/tt0088729
豆瓣评分 0/10 from 0 users
豆瓣链接 https://movie.douban.com/subject/4850395/
片  长 84 分钟
导  演 Charles E. Sellier Jr.
编  剧 Brian Russell
主  演 Jim Antonio
      Sid Conrad
      Gerrit Graham
      Lawrence Hilton-Jacobs
      Paul Koslo


标  签 BDISO | 1985

简  介  

  Upon his return from Vietnam, an ex-soldier finds his neighborhood has deteriorated badly, and is being terrorized by a vicious street gang. He calls some of his GI buddies, and together they hatch a plan to get rid of the gang.

  1. Video
  2. ID                                       : 1
  3. Format                                   : AVC
  4. Format/Info                              : Advanced Video Codec
  5. Format profile                           : <a href="/cdn-cgi/l/email-protection" class="__cf_email__" data-cfemail="8bc3e2ece3cbc7bfa5ba">[email protected]</a>
  6. Format settings                          : CABAC / 3 Ref Frames
  7. Format settings, CABAC                   : Yes
  8. Format settings, ReFrames                : 3 frames
  9. Codec ID                                 : V_MPEG4/ISO/AVC
  10. Duration                                 : 1 h 25 min
  11. Bit rate mode                            : Variable
  12. Bit rate                                 : 35.0 Mb/s
  13. Maximum bit rate                         : 36.0 Mb/s
  14. Width                                    : 1 920 pixels
  15. Height                                   : 1 080 pixels
  16. Display aspect ratio                     : 16:9
  17. Frame rate mode                          : Constant
  18. Frame rate                               : 23.976 (24000/1001) FPS
  19. Color space                              : YUV
  20. Chroma subsampling                       : 4:2:0
  21. Bit depth                                : 8 bits
  22. Scan type                                : Progressive
  23. Bits/(Pixel*Frame)                       : 0.704
  24. Stream size                              : 20.7 GiB (97%)
  25. Title                                    : The.Annihilators.1985.1080p.BluRay.REMUX.AVC.LPCM.1.0-FGT
  26. Writing library                          : x264 core 157 r2935 545de2f
  27. Encoding settings                        : cabac=1 / ref=4 / deblock=1:-1:-1 / analyse=0x3:0x133 / me=umh / subme=10 / psy=1 / psy_rd=1.00:0.15 / mixed_ref=1 / me_range=24 / chroma_me=1 / trellis=2 / 8x8dct=1 / cqm=0 / deadzone=21,11 / fast_pskip=1 / chroma_qp_offset=-6 / threads=12 / lookahead_threads=1 / sliced_threads=0 / slices=4 / nr=0 / decimate=1 / interlaced=0 / bluray_compat=1 / constrained_intra=0 / bframes=3 / b_pyramid=1 / b_adapt=2 / b_bias=0 / direct=3 / weightb=1 / open_gop=1 / weightp=1 / keyint=24 / keyint_min=1 / scenecut=40 / intra_refresh=0 / rc_lookahead=24 / rc=2pass / mbtree=1 / bitrate=35000 / ratetol=0.1 / qcomp=0.90 / qpmin=0 / qpmax=69 / qpstep=4 / cplxblur=20.0 / qblur=0.5 / vbv_maxrate=36000 / vbv_bufsize=30000 / nal_hrd=vbr / filler=0 / ip_ratio=1.40 / aq=1:1.20
  28. Language                                 : English
  29. Default                                  : No
  30. Forced                                   : No
  31. Color range                              : Limited
  32. Color primaries                          : BT.709
  33. Transfer characteristics                 : BT.709
  34. Matrix coefficients                      : BT.709

  35. Audio
  36. ID                                       : 2
  37. Format                                   : PCM
  38. Format settings                          : Little / Signed
  39. Codec ID                                 : A_PCM/INT/LIT
  40. Duration                                 : 1 h 25 min
  41. Bit rate mode                            : Constant
  42. Bit rate                                 : 1 152 kb/s
  43. Sampling rate                            : 48.0 kHz
  44. Frame rate                               : 30.000 FPS (1600 SPF)
  45. Bit depth                                : 24 bits
  46. Stream size                              : 701 MiB (3%)
  47. Title                                    : The.Annihilators.1985.1080p.BluRay.REMUX.AVC.LPCM.1.0-FGT
  48. Language                                 : English
  49. Default                                  : Yes
  50. Forced                                   : No

  51. Text
  52. ID                                       : 3
  53. Format                                   : PGS
  54. Muxing mode                              : zlib
  55. Codec ID                                 : S_HDMV/PGS
  56. Codec ID/Info                            : Picture based subtitle format used on BDs/HD-DVDs
  57. Duration                                 : 1 h 21 min
  58. Bit rate                                 : 22.0 kb/s
  59. Count of elements                        : 1436
  60. Stream size                              : 12.9 MiB (0%)
  61. Title                                    : English-PGS
  62. Language                                 : English
  63. Default                                  : Yes
  64. Forced                                   : No

  65. Menu
  66. 00:00:00.000                             : en:Chapter 01
  67. 00:08:07.487                             : en:Chapter 02
  68. 00:14:27.616                             : en:Chapter 03
  69. 00:21:45.470                             : en:Chapter 04
  70. 00:28:23.368                             : en:Chapter 05
  71. 00:35:32.046                             : en:Chapter 06
  72. 00:42:29.755                             : en:Chapter 07
  73. 00:51:57.155                             : en:Chapter 08
  74. 00:57:45.545                             : en:Chapter 09
  75. 01:04:53.222                             : en:Chapter 10
  76. 01:11:34.039                             : en:Chapter 11
  77. 01:16:56.111                             : en:Chapter 12
复制代码

消灭者 The.Annihilators.1985.1080p.BluRay.REMUX.AVC.LPCM.1.0-FGT 21.39GB-2.png 消灭者 The.Annihilators.1985.1080p.BluRay.REMUX.AVC.LPCM.1.0-FGT 21.39GB-3.png 消灭者 The.Annihilators.1985.1080p.BluRay.REMUX.AVC.LPCM.1.0-FGT 21.39GB-4.png






回复

使用道具 举报

懒得打字嘛,点击右侧快捷回复 【右侧内容,后台自定义】
您需要登录后才可以回帖 登录 | 立即注册

本版积分规则

QQ|Archiver|手机版|小黑屋| 中国高清网 |网站地图

GMT+8, 2019-8-17 21:00 , Processed in 0.446213 second(s), 39 queries .

Powered by HDchina X3.4

Copyright 2017-2019©HDchina.All right reserved

返回顶部 联系我们