查看: 119|回复: 1

[恐怖片] 宠物坟场/宠物公墓 Pet.Sematary.2019.1080p.BluRay.REMUX.AVC.DTS-HD.MA.TrueHD.7.1.Atmos-FGT 28.34GB

[复制链接]

 成长值: 2200

级别:资源管理组

注册时间
2017-10-20
最后登录
2019-8-17
听众
1
收听
0
主题
80689
蓝光币
41947 枚
贡献
5016 点
发表于 2019-7-9 17:43:20 | 显示全部楼层 |阅读模式
宠物墓地/宠物公墓 Pet.Sematary.2019.1080p.BluRay.REMUX.AVC.DTS-HD.MA.TrueHD.7.1.Atmos-FGT 28.34GB-1.png

译  名 宠物墓地 / 宠物公墓 / 新宠物墓地 / 禁入墓地(台) / 诡墓(港)
片  名 Pet Sematary
年  代 2019
产  地 美国
类  别 悬疑 / 惊悚 / 可骇
语  言 英语
上映日期 2019-03-17(西南偏南电影节) / 2019-04-05(美国)
IMDb评分  6.0/10 from 30914 users
IMDb链接  http://www.imdb.com/title/tt0837563
豆瓣评分 5.8/10 from 3336 users
豆瓣链接 https://movie.douban.com/subject/1904722/
片  长 101分钟
导  演 凯文·库尔施 Kevin Kolsch / 丹尼斯·维德迈尔 Dennis Widmyer
编  剧 斯蒂芬·金 Stephen King / 麦特?格林伯格 Matt Greenberg / 杰夫·布勒 Jeff Buhler
主  演 杰森·克拉克 Jason Clarke
      艾米·西米茨 Amy Seimetz
      约翰·利思戈 John Lithgow
      杰特·劳伦斯 Jeté Laurence
      雨果·拉瓦 Hugo Lavoie
      卢卡斯·拉瓦 Lucas Lavoie
      奥布萨·艾哈迈德 Obssa Ahmed
      阿丽莎·布鲁克·莱文 Alyssa Brooke Levine
      玛丽亚·埃雷拉 Maria Herrera
      弗兰克·萧宾 Frank Schorpion
      琳达·E·史姑娘 Linda E. Smith
      索尼娅·玛丽亚·基里拉 Sonia Maria Chirila
      娜奥米·弗伦内特 Naomi Frenette
      艾丽森·奥唐奈尔 Alison O'Donnell


标  签 可骇 | 斯蒂芬·金 | 惊悚 | 美国 | 2019 | 灵异 | 小说改编 | 翻拍

简  介  

  自1989年的[宠物墓地]后,派拉蒙欲再次将史蒂芬·金的小说《宠物墓地》搬上大银幕。今朝肯定凯文·库尔施、丹尼斯·维德迈尔([闪亮的眼睛])执导该片。曾担任[康斯坦丁]、[变形金刚]制片人的洛伦佐·迪·博纳文图拉任影片制片人。小说故事围绕一家人和诡异的宠物墓地展开。

  1. Video
  2. ID                                       : 1
  3. Format                                   : AVC
  4. Format/Info                              : Advanced Video Codec
  5. Format profile                           : <a href="/cdn-cgi/l/email-protection" class="__cf_email__" data-cfemail="4109282629010d756f70">[email protected]</a>
  6. Format settings                          : CABAC / 4 Ref Frames
  7. Format settings, CABAC                   : Yes
  8. Format settings, ReFrames                : 4 frames
  9. Codec ID                                 : V_MPEG4/ISO/AVC
  10. Duration                                 : 1 h 40 min
  11. Bit rate mode                            : Variable
  12. Bit rate                                 : 26.8 Mb/s
  13. Maximum bit rate                         : 29.0 Mb/s
  14. Width                                    : 1 920 pixels
  15. Height                                   : 1 080 pixels
  16. Display aspect ratio                     : 16:9
  17. Frame rate mode                          : Constant
  18. Frame rate                               : 23.976 (24000/1001) FPS
  19. Color space                              : YUV
  20. Chroma subsampling                       : 4:2:0
  21. Bit depth                                : 8 bits
  22. Scan type                                : Progressive
  23. Bits/(Pixel*Frame)                       : 0.539
  24. Stream size                              : 18.9 GiB (67%)
  25. Title                                    : Pet.Sematary.2019.1080p.BluRay.REMUX.AVC.DTS-HD.MA.TrueHD.7.1.Atmos-FGT
  26. Language                                 : English
  27. Default                                  : No
  28. Forced                                   : No

  29. Audio #1
  30. ID                                       : 2
  31. Format                                   : MLP FBA 16-ch
  32. Format/Info                              : Meridian Lossless Packing FBA with 16-channel presentation
  33. Commercial name                          : Dolby TrueHD with Dolby Atmos
  34. Codec ID                                 : A_TRUEHD
  35. Duration                                 : 1 h 40 min
  36. Bit rate mode                            : Variable
  37. Bit rate                                 : 3 588 kb/s
  38. Maximum bit rate                         : 7 608 kb/s
  39. Channel(s)                               : 8 channels
  40. Channel layout                           : L R C LFE Ls Rs Lb Rb
  41. Sampling rate                            : 48.0 kHz
  42. Frame rate                               : 1 200.000 FPS (40 SPF)
  43. Compression mode                         : Lossless
  44. Stream size                              : 2.53 GiB (9%)
  45. Title                                    : Pet.Sematary.2019.1080p.BluRay.REMUX.AVC.DTS-HD.MA.TrueHD.7.1.Atmos-FGT
  46. Language                                 : English
  47. Default                                  : Yes
  48. Forced                                   : No
  49. Number of dynamic objects                : 11
  50. Bed channel count                        : 1 channel
  51. Bed channel configuration                : LFE

  52. Audio #2
  53. ID                                       : 3
  54. Format                                   : DTS XLL
  55. Format/Info                              : Digital Theater Systems
  56. Commercial name                          : DTS-HD Master Audio
  57. Codec ID                                 : A_DTS
  58. Duration                                 : 1 h 40 min
  59. Bit rate mode                            : Variable
  60. Bit rate                                 : 3 929 kb/s
  61. Channel(s)                               : 8 channels
  62. Channel layout                           : C L R LFE Lb Rb Lss Rss
  63. Sampling rate                            : 48.0 kHz
  64. Frame rate                               : 93.750 FPS (512 SPF)
  65. Bit depth                                : 24 bits
  66. Compression mode                         : Lossless
  67. Stream size                              : 2.77 GiB (10%)
  68. Title                                    : Pet.Sematary.2019.1080p.BluRay.REMUX.AVC.DTS-HD.MA.TrueHD.7.1.Atmos-FGT
  69. Language                                 : English
  70. Default                                  : No
  71. Forced                                   : No

  72. Audio #3
  73. ID                                       : 4
  74. Format                                   : AC-3
  75. Format/Info                              : Audio Coding 3
  76. Commercial name                          : Dolby Digital
  77. Codec ID                                 : A_AC3
  78. Duration                                 : 1 h 40 min
  79. Bit rate mode                            : Constant
  80. Bit rate                                 : 640 kb/s
  81. Channel(s)                               : 6 channels
  82. Channel layout                           : L R C LFE Ls Rs
  83. Sampling rate                            : 48.0 kHz
  84. Frame rate                               : 31.250 FPS (1536 SPF)
  85. Bit depth                                : 16 bits
  86. Compression mode                         : Lossy
  87. Stream size                              : 462 MiB (2%)
  88. Title                                    : Pet.Sematary.2019.1080p.BluRay.REMUX.AVC.DTS-HD.MA.TrueHD.7.1.Atmos-FGT
  89. Language                                 : English
  90. Service kind                             : Complete Main
  91. Default                                  : No
  92. Forced                                   : No

  93. Audio #4
  94. ID                                       : 5
  95. Format                                   : AC-3
  96. Format/Info                              : Audio Coding 3
  97. Commercial name                          : Dolby Digital
  98. Codec ID                                 : A_AC3
  99. Duration                                 : 1 h 40 min
  100. Bit rate mode                            : Constant
  101. Bit rate                                 : 640 kb/s
  102. Channel(s)                               : 6 channels
  103. Channel layout                           : L R C LFE Ls Rs
  104. Sampling rate                            : 48.0 kHz
  105. Frame rate                               : 31.250 FPS (1536 SPF)
  106. Bit depth                                : 16 bits
  107. Compression mode                         : Lossy
  108. Stream size                              : 462 MiB (2%)
  109. Title                                    : Pet.Sematary.2019.1080p.BluRay.REMUX.AVC.DTS-HD.MA.TrueHD.7.1.Atmos-FGT
  110. Language                                 : English
  111. Service kind                             : Complete Main
  112. Default                                  : No
  113. Forced                                   : No

  114. Audio #5
  115. ID                                       : 6
  116. Format                                   : AC-3
  117. Format/Info                              : Audio Coding 3
  118. Commercial name                          : Dolby Digital
  119. Codec ID                                 : A_AC3
  120. Duration                                 : 1 h 40 min
  121. Bit rate mode                            : Constant
  122. Bit rate                                 : 640 kb/s
  123. Channel(s)                               : 6 channels
  124. Channel layout                           : L R C LFE Ls Rs
  125. Sampling rate                            : 48.0 kHz
  126. Frame rate                               : 31.250 FPS (1536 SPF)
  127. Bit depth                                : 16 bits
  128. Compression mode                         : Lossy
  129. Stream size                              : 462 MiB (2%)
  130. Title                                    : Pet.Sematary.2019.1080p.BluRay.REMUX.AVC.DTS-HD.MA.TrueHD.7.1.Atmos-FGT
  131. Language                                 : German
  132. Service kind                             : Complete Main
  133. Default                                  : No
  134. Forced                                   : No

  135. Audio #6
  136. ID                                       : 7
  137. Format                                   : AC-3
  138. Format/Info                              : Audio Coding 3
  139. Commercial name                          : Dolby Digital
  140. Codec ID                                 : A_AC3
  141. Duration                                 : 1 h 40 min
  142. Bit rate mode                            : Constant
  143. Bit rate                                 : 640 kb/s
  144. Channel(s)                               : 6 channels
  145. Channel layout                           : L R C LFE Ls Rs
  146. Sampling rate                            : 48.0 kHz
  147. Frame rate                               : 31.250 FPS (1536 SPF)
  148. Bit depth                                : 16 bits
  149. Compression mode                         : Lossy
  150. Stream size                              : 462 MiB (2%)
  151. Title                                    : Pet.Sematary.2019.1080p.BluRay.REMUX.AVC.DTS-HD.MA.TrueHD.7.1.Atmos-FGT
  152. Language                                 : Spanish
  153. Service kind                             : Complete Main
  154. Default                                  : No
  155. Forced                                   : No

  156. Audio #7
  157. ID                                       : 8
  158. Format                                   : AC-3
  159. Format/Info                              : Audio Coding 3
  160. Commercial name                          : Dolby Digital
  161. Codec ID                                 : A_AC3
  162. Duration                                 : 1 h 40 min
  163. Bit rate mode                            : Constant
  164. Bit rate                                 : 640 kb/s
  165. Channel(s)                               : 6 channels
  166. Channel layout                           : L R C LFE Ls Rs
  167. Sampling rate                            : 48.0 kHz
  168. Frame rate                               : 31.250 FPS (1536 SPF)
  169. Bit depth                                : 16 bits
  170. Compression mode                         : Lossy
  171. Stream size                              : 462 MiB (2%)
  172. Title                                    : Pet.Sematary.2019.1080p.BluRay.REMUX.AVC.DTS-HD.MA.TrueHD.7.1.Atmos-FGT
  173. Language                                 : Spanish
  174. Service kind                             : Complete Main
  175. Default                                  : No
  176. Forced                                   : No

  177. Audio #8
  178. ID                                       : 9
  179. Format                                   : AC-3
  180. Format/Info                              : Audio Coding 3
  181. Commercial name                          : Dolby Digital
  182. Codec ID                                 : A_AC3
  183. Duration                                 : 1 h 40 min
  184. Bit rate mode                            : Constant
  185. Bit rate                                 : 640 kb/s
  186. Channel(s)                               : 6 channels
  187. Channel layout                           : L R C LFE Ls Rs
  188. Sampling rate                            : 48.0 kHz
  189. Frame rate                               : 31.250 FPS (1536 SPF)
  190. Bit depth                                : 16 bits
  191. Compression mode                         : Lossy
  192. Stream size                              : 462 MiB (2%)
  193. Title                                    : Pet.Sematary.2019.1080p.BluRay.REMUX.AVC.DTS-HD.MA.TrueHD.7.1.Atmos-FGT
  194. Language                                 : French
  195. Service kind                             : Complete Main
  196. Default                                  : No
  197. Forced                                   : No

  198. Audio #9
  199. ID                                       : 10
  200. Format                                   : AC-3
  201. Format/Info                              : Audio Coding 3
  202. Commercial name                          : Dolby Digital
  203. Codec ID                                 : A_AC3
  204. Duration                                 : 1 h 40 min
  205. Bit rate mode                            : Constant
  206. Bit rate                                 : 640 kb/s
  207. Channel(s)                               : 6 channels
  208. Channel layout                           : L R C LFE Ls Rs
  209. Sampling rate                            : 48.0 kHz
  210. Frame rate                               : 31.250 FPS (1536 SPF)
  211. Bit depth                                : 16 bits
  212. Compression mode                         : Lossy
  213. Stream size                              : 462 MiB (2%)
  214. Title                                    : Pet.Sematary.2019.1080p.BluRay.REMUX.AVC.DTS-HD.MA.TrueHD.7.1.Atmos-FGT
  215. Language                                 : French
  216. Service kind                             : Complete Main
  217. Default                                  : No
  218. Forced                                   : No

  219. Audio #10
  220. ID                                       : 11
  221. Format                                   : AC-3
  222. Format/Info                              : Audio Coding 3
  223. Commercial name                          : Dolby Digital
  224. Codec ID                                 : A_AC3
  225. Duration                                 : 1 h 40 min
  226. Bit rate mode                            : Constant
  227. Bit rate                                 : 640 kb/s
  228. Channel(s)                               : 6 channels
  229. Channel layout                           : L R C LFE Ls Rs
  230. Sampling rate                            : 48.0 kHz
  231. Frame rate                               : 31.250 FPS (1536 SPF)
  232. Bit depth                                : 16 bits
  233. Compression mode                         : Lossy
  234. Stream size                              : 462 MiB (2%)
  235. Title                                    : Pet.Sematary.2019.1080p.BluRay.REMUX.AVC.DTS-HD.MA.TrueHD.7.1.Atmos-FGT
  236. Language                                 : Italian
  237. Service kind                             : Complete Main
  238. Default                                  : No
  239. Forced                                   : No

  240. Audio #11
  241. ID                                       : 12
  242. Format                                   : AC-3
  243. Format/Info                              : Audio Coding 3
  244. Commercial name                          : Dolby Digital
  245. Codec ID                                 : A_AC3
  246. Duration                                 : 1 h 40 min
  247. Bit rate mode                            : Constant
  248. Bit rate                                 : 640 kb/s
  249. Channel(s)                               : 6 channels
  250. Channel layout                           : L R C LFE Ls Rs
  251. Sampling rate                            : 48.0 kHz
  252. Frame rate                               : 31.250 FPS (1536 SPF)
  253. Bit depth                                : 16 bits
  254. Compression mode                         : Lossy
  255. Stream size                              : 462 MiB (2%)
  256. Title                                    : Pet.Sematary.2019.1080p.BluRay.REMUX.AVC.DTS-HD.MA.TrueHD.7.1.Atmos-FGT
  257. Language                                 : Portuguese
  258. Service kind                             : Complete Main
  259. Default                                  : No
  260. Forced                                   : No

  261. Text #1
  262. ID                                       : 13
  263. Format                                   : UTF-8
  264. Codec ID                                 : S_TEXT/UTF8
  265. Codec ID/Info                            : UTF-8 Plain Text
  266. Duration                                 : 1 h 34 min
  267. Bit rate                                 : 36 b/s
  268. Count of elements                        : 895
  269. Stream size                              : 25.2 KiB (0%)
  270. Title                                    : English-SRT
  271. Language                                 : English
  272. Default                                  : Yes
  273. Forced                                   : No

  274. Text #2
  275. ID                                       : 14
  276. Format                                   : PGS
  277. Muxing mode                              : zlib
  278. Codec ID                                 : S_HDMV/PGS
  279. Codec ID/Info                            : Picture based subtitle format used on BDs/HD-DVDs
  280. Duration                                 : 1 h 32 min
  281. Bit rate                                 : 22.9 kb/s
  282. Count of elements                        : 1712
  283. Stream size                              : 15.2 MiB (0%)
  284. Title                                    : English-PGS
  285. Language                                 : English
  286. Default                                  : No
  287. Forced                                   : No

  288. Text #3
  289. ID                                       : 15
  290. Format                                   : PGS
  291. Muxing mode                              : zlib
  292. Codec ID                                 : S_HDMV/PGS
  293. Codec ID/Info                            : Picture based subtitle format used on BDs/HD-DVDs
  294. Duration                                 : 1 h 36 min
  295. Bit rate                                 : 31.0 kb/s
  296. Count of elements                        : 2423
  297. Stream size                              : 21.4 MiB (0%)
  298. Title                                    : English-SDH-PGS
  299. Language                                 : English
  300. Default                                  : No
  301. Forced                                   : No

  302. Text #4
  303. ID                                       : 16
  304. Format                                   : PGS
  305. Muxing mode                              : zlib
  306. Codec ID                                 : S_HDMV/PGS
  307. Codec ID/Info                            : Picture based subtitle format used on BDs/HD-DVDs
  308. Duration                                 : 1 h 38 min
  309. Bit rate                                 : 18.8 kb/s
  310. Count of elements                        : 1400
  311. Stream size                              : 13.2 MiB (0%)
  312. Title                                    : Danish-PGS
  313. Language                                 : Danish
  314. Default                                  : No
  315. Forced                                   : No

  316. Text #5
  317. ID                                       : 17
  318. Format                                   : PGS
  319. Muxing mode                              : zlib
  320. Codec ID                                 : S_HDMV/PGS
  321. Codec ID/Info                            : Picture based subtitle format used on BDs/HD-DVDs
  322. Duration                                 : 1 h 39 min
  323. Bit rate                                 : 22.0 kb/s
  324. Count of elements                        : 1688
  325. Stream size                              : 15.7 MiB (0%)
  326. Title                                    : German-PGS
  327. Language                                 : German
  328. Default                                  : No
  329. Forced                                   : No

  330. Text #6
  331. ID                                       : 18
  332. Format                                   : PGS
  333. Muxing mode                              : zlib
  334. Codec ID                                 : S_HDMV/PGS
  335. Codec ID/Info                            : Picture based subtitle format used on BDs/HD-DVDs
  336. Duration                                 : 54 min 27 s
  337. Bit rate                                 : 242 b/s
  338. Count of elements                        : 12
  339. Stream size                              : 96.7 KiB (0%)
  340. Title                                    : German-FORCED-PGS
  341. Language                                 : German
  342. Default                                  : No
  343. Forced                                   : No

  344. Text #7
  345. ID                                       : 19
  346. Format                                   : PGS
  347. Muxing mode                              : zlib
  348. Codec ID                                 : S_HDMV/PGS
  349. Codec ID/Info                            : Picture based subtitle format used on BDs/HD-DVDs
  350. Duration                                 : 1 h 40 min
  351. Bit rate                                 : 19.7 kb/s
  352. Count of elements                        : 1676
  353. Stream size                              : 14.1 MiB (0%)
  354. Title                                    : Spanish-PGS
  355. Language                                 : Spanish
  356. Default                                  : No
  357. Forced                                   : No

  358. Text #8
  359. ID                                       : 20
  360. Format                                   : PGS
  361. Muxing mode                              : zlib
  362. Codec ID                                 : S_HDMV/PGS
  363. Codec ID/Info                            : Picture based subtitle format used on BDs/HD-DVDs
  364. Duration                                 : 54 min 30 s
  365. Bit rate                                 : 439 b/s
  366. Count of elements                        : 16
  367. Stream size                              : 175 KiB (0%)
  368. Title                                    : Spanish-FORCED-PGS
  369. Language                                 : Spanish
  370. Default                                  : No
  371. Forced                                   : No

  372. Text #9
  373. ID                                       : 21
  374. Format                                   : PGS
  375. Muxing mode                              : zlib
  376. Codec ID                                 : S_HDMV/PGS
  377. Codec ID/Info                            : Picture based subtitle format used on BDs/HD-DVDs
  378. Duration                                 : 1 h 40 min
  379. Bit rate                                 : 19.2 kb/s
  380. Count of elements                        : 1606
  381. Stream size                              : 13.7 MiB (0%)
  382. Title                                    : Spanish-PGS
  383. Language                                 : Spanish
  384. Default                                  : No
  385. Forced                                   : No

  386. Text #10
  387. ID                                       : 22
  388. Format                                   : PGS
  389. Muxing mode                              : zlib
  390. Codec ID                                 : S_HDMV/PGS
  391. Codec ID/Info                            : Picture based subtitle format used on BDs/HD-DVDs
  392. Duration                                 : 54 min 28 s
  393. Bit rate                                 : 275 b/s
  394. Count of elements                        : 12
  395. Stream size                              : 110 KiB (0%)
  396. Title                                    : Spanish-FORCED-PGS
  397. Language                                 : Spanish
  398. Default                                  : No
  399. Forced                                   : No

  400. Text #11
  401. ID                                       : 23
  402. Format                                   : PGS
  403. Muxing mode                              : zlib
  404. Codec ID                                 : S_HDMV/PGS
  405. Codec ID/Info                            : Picture based subtitle format used on BDs/HD-DVDs
  406. Duration                                 : 1 h 40 min
  407. Bit rate                                 : 17.8 kb/s
  408. Count of elements                        : 1698
  409. Stream size                              : 12.7 MiB (0%)
  410. Title                                    : French-PGS
  411. Language                                 : French
  412. Default                                  : No
  413. Forced                                   : No

  414. Text #12
  415. ID                                       : 24
  416. Format                                   : PGS
  417. Muxing mode                              : zlib
  418. Codec ID                                 : S_HDMV/PGS
  419. Codec ID/Info                            : Picture based subtitle format used on BDs/HD-DVDs
  420. Duration                                 : 54 min 28 s
  421. Bit rate                                 : 263 b/s
  422. Count of elements                        : 12
  423. Stream size                              : 105 KiB (0%)
  424. Title                                    : French-FORCED-PGS
  425. Language                                 : French
  426. Default                                  : No
  427. Forced                                   : No

  428. Text #13
  429. ID                                       : 25
  430. Format                                   : PGS
  431. Muxing mode                              : zlib
  432. Codec ID                                 : S_HDMV/PGS
  433. Codec ID/Info                            : Picture based subtitle format used on BDs/HD-DVDs
  434. Duration                                 : 1 h 40 min
  435. Bit rate                                 : 22.4 kb/s
  436. Count of elements                        : 1884
  437. Stream size                              : 16.0 MiB (0%)
  438. Title                                    : French-PGS
  439. Language                                 : French
  440. Default                                  : No
  441. Forced                                   : No

  442. Text #14
  443. ID                                       : 26
  444. Format                                   : PGS
  445. Muxing mode                              : zlib
  446. Codec ID                                 : S_HDMV/PGS
  447. Codec ID/Info                            : Picture based subtitle format used on BDs/HD-DVDs
  448. Duration                                 : 54 min 28 s
  449. Bit rate                                 : 235 b/s
  450. Count of elements                        : 10
  451. Stream size                              : 93.9 KiB (0%)
  452. Title                                    : French-FORCED-PGS
  453. Language                                 : French
  454. Default                                  : No
  455. Forced                                   : No

  456. Text #15
  457. ID                                       : 27
  458. Format                                   : PGS
  459. Muxing mode                              : zlib
  460. Codec ID                                 : S_HDMV/PGS
  461. Codec ID/Info                            : Picture based subtitle format used on BDs/HD-DVDs
  462. Duration                                 : 1 h 38 min
  463. Bit rate                                 : 20.0 kb/s
  464. Count of elements                        : 1588
  465. Stream size                              : 14.1 MiB (0%)
  466. Title                                    : Italian-PGS
  467. Language                                 : Italian
  468. Default                                  : No
  469. Forced                                   : No

  470. Text #16
  471. ID                                       : 28
  472. Format                                   : PGS
  473. Muxing mode                              : zlib
  474. Codec ID                                 : S_HDMV/PGS
  475. Codec ID/Info                            : Picture based subtitle format used on BDs/HD-DVDs
  476. Duration                                 : 52 min 20 s
  477. Bit rate                                 : 282 b/s
  478. Count of elements                        : 12
  479. Stream size                              : 108 KiB (0%)
  480. Title                                    : Italian-FORCED-PGS
  481. Language                                 : Italian
  482. Default                                  : No
  483. Forced                                   : No

  484. Text #17
  485. ID                                       : 29
  486. Format                                   : PGS
  487. Muxing mode                              : zlib
  488. Codec ID                                 : S_HDMV/PGS
  489. Codec ID/Info                            : Picture based subtitle format used on BDs/HD-DVDs
  490. Duration                                 : 1 h 38 min
  491. Bit rate                                 : 17.8 kb/s
  492. Count of elements                        : 1136
  493. Stream size                              : 12.5 MiB (0%)
  494. Title                                    : Dutch-PGS
  495. Language                                 : Dutch
  496. Default                                  : No
  497. Forced                                   : No

  498. Text #18
  499. ID                                       : 30
  500. Format                                   : PGS
  501. Muxing mode                              : zlib
  502. Codec ID                                 : S_HDMV/PGS
  503. Codec ID/Info                            : Picture based subtitle format used on BDs/HD-DVDs
  504. Duration                                 : 1 h 38 min
  505. Bit rate                                 : 17.9 kb/s
  506. Count of elements                        : 1644
  507. Stream size                              : 12.6 MiB (0%)
  508. Title                                    : Norwegian-PGS
  509. Language                                 : Norwegian
  510. Default                                  : No
  511. Forced                                   : No

  512. Text #19
  513. ID                                       : 31
  514. Format                                   : PGS
  515. Muxing mode                              : zlib
  516. Codec ID                                 : S_HDMV/PGS
  517. Codec ID/Info                            : Picture based subtitle format used on BDs/HD-DVDs
  518. Duration                                 : 1 h 40 min
  519. Bit rate                                 : 17.5 kb/s
  520. Count of elements                        : 1674
  521. Stream size                              : 12.5 MiB (0%)
  522. Title                                    : Portuguese-PGS
  523. Language                                 : Portuguese
  524. Default                                  : No
  525. Forced                                   : No

  526. Text #20
  527. ID                                       : 32
  528. Format                                   : PGS
  529. Muxing mode                              : zlib
  530. Codec ID                                 : S_HDMV/PGS
  531. Codec ID/Info                            : Picture based subtitle format used on BDs/HD-DVDs
  532. Duration                                 : 54 min 28 s
  533. Bit rate                                 : 336 b/s
  534. Count of elements                        : 14
  535. Stream size                              : 134 KiB (0%)
  536. Title                                    : Portuguese-FORCED-PGS
  537. Language                                 : Portuguese
  538. Default                                  : No
  539. Forced                                   : No

  540. Text #21
  541. ID                                       : 33
  542. Format                                   : PGS
  543. Muxing mode                              : zlib
  544. Codec ID                                 : S_HDMV/PGS
  545. Codec ID/Info                            : Picture based subtitle format used on BDs/HD-DVDs
  546. Duration                                 : 1 h 40 min
  547. Bit rate                                 : 19.7 kb/s
  548. Count of elements                        : 1730
  549. Stream size                              : 14.1 MiB (0%)
  550. Title                                    : Finnish-PGS
  551. Language                                 : Finnish
  552. Default                                  : No
  553. Forced                                   : No

  554. Text #22
  555. ID                                       : 34
  556. Format                                   : PGS
  557. Muxing mode                              : zlib
  558. Codec ID                                 : S_HDMV/PGS
  559. Codec ID/Info                            : Picture based subtitle format used on BDs/HD-DVDs
  560. Duration                                 : 1 h 40 min
  561. Bit rate                                 : 19.9 kb/s
  562. Count of elements                        : 1614
  563. Stream size                              : 14.2 MiB (0%)
  564. Title                                    : Swedish-PGS
  565. Language                                 : Swedish
  566. Default                                  : No
  567. Forced                                   : No

  568. Menu
  569. 00:00:00.000                             : en:Chapter 01
  570. 00:07:16.352                             : en:Chapter 02
  571. 00:12:14.024                             : en:Chapter 03
  572. 00:19:38.385                             : en:Chapter 04
  573. 00:25:30.070                             : en:Chapter 05
  574. 00:30:09.724                             : en:Chapter 06
  575. 00:35:18.324                             : en:Chapter 07
  576. 00:46:02.843                             : en:Chapter 08
  577. 00:50:44.791                             : en:Chapter 09
  578. 00:57:47.964                             : en:Chapter 10
  579. 01:06:57.722                             : en:Chapter 11
  580. 01:14:12.573                             : en:Chapter 12
  581. 01:22:52.008                             : en:Chapter 13
  582. 01:32:19.909                             : en:Chapter 14
  583. 01:36:40.961                             : en:Chapter 15
复制代码

宠物墓地/宠物公墓 Pet.Sematary.2019.1080p.BluRay.REMUX.AVC.DTS-HD.MA.TrueHD.7.1.Atmos-FGT 28.34GB-2.png 宠物墓地/宠物公墓 Pet.Sematary.2019.1080p.BluRay.REMUX.AVC.DTS-HD.MA.TrueHD.7.1.Atmos-FGT 28.34GB-3.png 宠物墓地/宠物公墓 Pet.Sematary.2019.1080p.BluRay.REMUX.AVC.DTS-HD.MA.TrueHD.7.1.Atmos-FGT 28.34GB-4.png






回复

使用道具 举报

级别:普通观众 Lv.2

注册时间
2019-6-14
最后登录
2019-8-15
听众
9
收听
0
主题
0
蓝光币
6 枚
贡献
0 点
发表于 2019-7-13 22:08:00 | 显示全部楼层
楼主发贴辛苦了,谢谢楼主分享!我觉得中国高清电影网是注册对了!
回复

使用道具 举报

懒得打字嘛,点击右侧快捷回复 【右侧内容,后台自定义】
您需要登录后才可以回帖 登录 | 立即注册

本版积分规则

QQ|Archiver|手机版|小黑屋| 中国高清网 |网站地图

GMT+8, 2019-8-17 20:34 , Processed in 0.647825 second(s), 39 queries .

Powered by HDchina X3.4

Copyright 2017-2019©HDchina.All right reserved

返回顶部 联系我们