查看: 42|回复: 0

[剧情片] 水獭塔卡 Tarka.the.Otter.1978.1080p.BluRay.REMUX.AVC.LPCM.2.0-FGT 16.96GB

[复制链接]

 成长值: 2200

级别:资源管理组

注册时间
2017-10-20
最后登录
2019-8-17
听众
1
收听
0
主题
80689
蓝光币
41951 枚
贡献
5016 点
发表于 2019-7-9 17:39:16 | 显示全部楼层 |阅读模式
水獭塔卡 Tarka.the.Otter.1978.1080p.BluRay.REMUX.AVC.LPCM.2.0-FGT 16.96GB-1.png

译  名 水獭塔卡
片  名 Tarka the Otter
年  代 1979
产  地 英国
类  别 剧情 / 家庭 / 冒险
语  言 英语
上映日期 1979
IMDb评分  6.8/10 from 371 users
IMDb链接  http://www.imdb.com/title/tt0079988
豆瓣评分 9.1/10 from 153 users
豆瓣链接 https://movie.douban.com/subject/2016065/
片  长 87分钟
导  演 David Cobham
编  剧 Gerald Durrell / David Cobham
主  演 Peter Ustinov
      Peter Bennett
      Edward Underdown


标  签 动物 | 记载片 | 英国 | 自然 | 水獭 | 动物电影 | 电影 | 英国电影

简  介  

  水獭塔卡诞生在安好的托特河桥洞下,那边有爱它的妈妈以及它的动物朋友们,更有对水獭布满无尽愿望,专门捕杀水獭的猎狗将局以及一大群以此为乐的人。塔卡诞生未几,它的父亲被这群人发现了行迹,一路追捕,好不轻易逃回了洞窟,可是母亲为了庇护小塔卡的平安,忍痛咬了父亲,把它赶出了洞窟……未几今后,与塔卡相依为命的母亲也被他们猎杀了,塔卡成了逆水流浪的孤儿,不能不起头了它的旅程。
塔卡一路流浪,作为单个的动物,保存是一件特别困难的工作,塔卡逃过了打鱼的渔网、杀野兔的猎枪……它在渐渐长大着,进修着自然保存的法例。未几,塔卡与一只雌水塔白迪相爱了,可是强健的情敌拆散了他们,塔卡与它打架,落败而逃,只得继续它孤独的旅途。饿极的塔卡为了寻食走进了人类居住的地方,被捕兽夹夹伤,侥幸逃走。塔卡一路向大海游去,游离了大河,途经了沼泽,而此时的它居然再一次碰到了白迪,它的丈夫几个小时前被捕杀了,白迪和塔卡终究可以在一路了,塔卡不再孤独,它们可以结伴而行了。
白迪是塔卡在水中的领导,在它的率领下,它们回到了塔卡诞生的那条小河,在那边,他们住进了塔卡已经的家,伴着潺潺的流水,与众多动物朋友一路,过起了安好的生活,未几今后,白迪顺遂生了一窝小水獭,它们生活的非常幸运欢畅。可是好景不长,新一年的捕猎季节到了,它们一家再次被那群捕杀水獭的人盯上,固然还有可怕的猎狗将局。塔卡为了庇护白迪和孩子,单独跑出了洞窟,拼命往远处逃,塔卡那末勇敢机智的与他们周旋,最初寡不敌众,在一处水域被前后堵住来路,将局向塔卡冲了曩昔,塔卡绝不逞强的迎战,它们在水中扭打着,终极,塔卡咬死了将局,自己也陪伴着生射中最初的三个水泡沉入了水底……

  1. Video
  2. ID                                       : 1
  3. Format                                   : AVC
  4. Format/Info                              : Advanced Video Codec
  5. Format profile                           : <a href="/cdn-cgi/l/email-protection" class="__cf_email__" data-cfemail="91d9f8f6f9d1dda5bfa0">[email protected]</a>
  6. Format settings                          : CABAC / 3 Ref Frames
  7. Format settings, CABAC                   : Yes
  8. Format settings, ReFrames                : 3 frames
  9. Codec ID                                 : V_MPEG4/ISO/AVC
  10. Duration                                 : 1 h 31 min
  11. Bit rate mode                            : Variable
  12. Bit rate                                 : 25.0 Mb/s
  13. Maximum bit rate                         : 33.0 Mb/s
  14. Width                                    : 1 920 pixels
  15. Height                                   : 1 080 pixels
  16. Display aspect ratio                     : 16:9
  17. Frame rate mode                          : Constant
  18. Frame rate                               : 24.000 FPS
  19. Standard                                 : NTSC
  20. Color space                              : YUV
  21. Chroma subsampling                       : 4:2:0
  22. Bit depth                                : 8 bits
  23. Scan type                                : Progressive
  24. Bits/(Pixel*Frame)                       : 0.502
  25. Stream size                              : 16.0 GiB (94%)
  26. Title                                    : Tarka.the.Otter.1978.1080p.BluRay.REMUX.AVC.LPCM.2.0-FGT
  27. Language                                 : English
  28. Default                                  : No
  29. Forced                                   : No
  30. Color range                              : Limited
  31. Color primaries                          : BT.709
  32. Transfer characteristics                 : BT.709
  33. Matrix coefficients                      : BT.709

  34. Audio
  35. ID                                       : 2
  36. Format                                   : PCM
  37. Format settings                          : Little / Signed
  38. Codec ID                                 : A_PCM/INT/LIT
  39. Duration                                 : 1 h 31 min
  40. Bit rate mode                            : Constant
  41. Bit rate                                 : 1 536 kb/s
  42. Channel(s)                               : 2 channels
  43. Sampling rate                            : 48.0 kHz
  44. Frame rate                               : 30.000 FPS (1600 SPF)
  45. Bit depth                                : 16 bits
  46. Stream size                              : 1 005 MiB (6%)
  47. Title                                    : Tarka.the.Otter.1978.1080p.BluRay.REMUX.AVC.LPCM.2.0-FGT
  48. Language                                 : English
  49. Default                                  : Yes
  50. Forced                                   : No

  51. Text
  52. ID                                       : 3
  53. Format                                   : PGS
  54. Muxing mode                              : zlib
  55. Codec ID                                 : S_HDMV/PGS
  56. Codec ID/Info                            : Picture based subtitle format used on BDs/HD-DVDs
  57. Duration                                 : 1 h 30 min
  58. Bit rate                                 : 20.6 kb/s
  59. Count of elements                        : 1422
  60. Stream size                              : 13.3 MiB (0%)
  61. Title                                    : English-PGS
  62. Language                                 : English
  63. Default                                  : Yes
  64. Forced                                   : No

  65. Menu
  66. 00:00:00.000                             : en:Chapter 01
  67. 00:08:25.708                             : en:Chapter 02
  68. 00:16:18.916                             : en:Chapter 03
  69. 00:23:25.791                             : en:Chapter 04
  70. 00:29:58.708                             : en:Chapter 05
  71. 00:38:24.708                             : en:Chapter 06
  72. 00:43:03.916                             : en:Chapter 07
  73. 00:48:39.500                             : en:Chapter 08
  74. 00:58:27.875                             : en:Chapter 09
  75. 01:07:02.541                             : en:Chapter 10
  76. 01:15:23.708                             : en:Chapter 11
  77. 01:22:41.666                             : en:Chapter 12
复制代码

水獭塔卡 Tarka.the.Otter.1978.1080p.BluRay.REMUX.AVC.LPCM.2.0-FGT 16.96GB-2.png 水獭塔卡 Tarka.the.Otter.1978.1080p.BluRay.REMUX.AVC.LPCM.2.0-FGT 16.96GB-3.png 水獭塔卡 Tarka.the.Otter.1978.1080p.BluRay.REMUX.AVC.LPCM.2.0-FGT 16.96GB-4.png






回复

使用道具 举报

懒得打字嘛,点击右侧快捷回复 【右侧内容,后台自定义】
您需要登录后才可以回帖 登录 | 立即注册

本版积分规则

QQ|Archiver|手机版|小黑屋| 中国高清网 |网站地图

GMT+8, 2019-8-17 20:43 , Processed in 0.477620 second(s), 39 queries .

Powered by HDchina X3.4

Copyright 2017-2019©HDchina.All right reserved

返回顶部 联系我们