查看: 163|回复: 0

[动作片] 金蝉脱壳3:恶魔车站 Escape.Plan.The.Extractors.2019.1080p.BluRay.REMUX.AVC.DTS-HD.MA.5.1-FGT 18.20GB

[复制链接]

 成长值: 2850

级别:资源管理组

注册时间
2017-10-20
最后登录
2019-10-17
听众
1
收听
0
主题
84967
蓝光币
55459 枚
贡献
9324 点
发表于 2019-7-9 17:37:25 | 显示全部楼层 |阅读模式
缓兵之计3:恶魔车站 Escape.Plan.The.Extractors.2019.1080p.BluRay.REMUX.AVC.DTS-HD.MA.5.1-FGT 18.20GB-1.png

译  名 缓兵之计3:恶魔车站 / Escape Plan 3: Devil's Station / 缓兵之计3
片  名 Escape Plan: The Extractors
年  代 2019
产  地 美国
类  别 行动
语  言 英语 / 汉语普通话
上映日期 2019-07-02(美国)
IMDb评分  4.4/10 from 2538 users
IMDb链接  http://www.imdb.com/title/tt6772804
豆瓣评分 4.0/10 from 2370 users
豆瓣链接 https://movie.douban.com/subject/27018354/
片  长 87分钟
导  演 约翰·赫兹菲尔德 John Herzfeld
编  剧 约翰·赫兹菲尔德 John Herzfeld / 迈尔斯·查普曼 Miles Chapman
主  演 西尔维斯特·史泰龙 Sylvester Stallone
      戴夫·巴蒂斯塔 Dave Bautista
      50分 50 Cent
      杰米·金 Jaime King
      张晋 Max Zhang
      戴文·萨瓦 Devon Sawa
      岑勇康 Harry Shum Jr.
      王盛德 Russell Wong
      丹尼尔·伯哈特 Daniel Bernhardt
      丽迪雅·赫尔 Lydia Hull
      玛莱斯·裘 Malese Jow
      杰夫·蔡斯 Jeff Chase
      罗伯·德·格鲁特 Rob de Groot
      谢伊·巴克纳 Shea Buckner
      海蒂·莱万多夫斯基 Heidi Lewandowski
      王丹妮 Danni Wang
      泰勒·乔恩·奥尔森 Tyler Jon Olson
      德方塔·弗里曼 Devonta Freeman
      大卫·诺 David No
      泰德·威廉姆斯 Ted Williams
      Holland Herzfeld
      Jen Sung Outerbridge
      Darko Ostojic
      John Catheline


标  签 行动 | 缓兵之计 | 烂片 | 美国 | 犯罪 | 张晋 | 史泰龙 | 2019

简  介  

  某香港科技富翁的女儿失落,Breslin发现罪犯是自己一个老对手的疯狂儿子,他还绑架了Breslin的爱人Abigail,并把她关在名为“恶魔车站”的庞大牢狱里。 Breslin将和自己的团队硬闯虎穴,试图劫狱。

  1. Video
  2. ID                                       : 1
  3. Format                                   : AVC
  4. Format/Info                              : Advanced Video Codec
  5. Format profile                           : <a href="/cdn-cgi/l/email-protection" class="__cf_email__" data-cfemail="b1f9d8d6d9f1fd859f80">[email protected]</a>
  6. Format settings                          : CABAC / 4 Ref Frames
  7. Format settings, CABAC                   : Yes
  8. Format settings, ReFrames                : 4 frames
  9. Codec ID                                 : V_MPEG4/ISO/AVC
  10. Duration                                 : 1 h 27 min
  11. Bit rate mode                            : Variable
  12. Bit rate                                 : 26.7 Mb/s
  13. Maximum bit rate                         : 37.0 Mb/s
  14. Width                                    : 1 920 pixels
  15. Height                                   : 1 080 pixels
  16. Display aspect ratio                     : 16:9
  17. Frame rate mode                          : Constant
  18. Frame rate                               : 23.976 (24000/1001) FPS
  19. Color space                              : YUV
  20. Chroma subsampling                       : 4:2:0
  21. Bit depth                                : 8 bits
  22. Scan type                                : Progressive
  23. Bits/(Pixel*Frame)                       : 0.536
  24. Stream size                              : 16.3 GiB (90%)
  25. Title                                    : Escape.Plan.The.Extractors.2019.1080p.BluRay.REMUX.AVC.DTS-HD.MA.5.1-FGT
  26. Language                                 : English
  27. Default                                  : No
  28. Forced                                   : No

  29. Audio #1
  30. ID                                       : 2
  31. Format                                   : DTS XLL
  32. Format/Info                              : Digital Theater Systems
  33. Commercial name                          : DTS-HD Master Audio
  34. Codec ID                                 : A_DTS
  35. Duration                                 : 1 h 27 min
  36. Bit rate mode                            : Variable
  37. Bit rate                                 : 2 863 kb/s
  38. Channel(s)                               : 6 channels
  39. Channel layout                           : C L R Ls Rs LFE
  40. Sampling rate                            : 48.0 kHz
  41. Frame rate                               : 93.750 FPS (512 SPF)
  42. Bit depth                                : 24 bits
  43. Compression mode                         : Lossless
  44. Stream size                              : 1.75 GiB (10%)
  45. Title                                    : Escape.Plan.The.Extractors.2019.1080p.BluRay.REMUX.AVC.DTS-HD.MA.5.1-FGT
  46. Language                                 : English
  47. Default                                  : Yes
  48. Forced                                   : No

  49. Audio #2
  50. ID                                       : 3
  51. Format                                   : AC-3
  52. Format/Info                              : Audio Coding 3
  53. Commercial name                          : Dolby Digital
  54. Codec ID                                 : A_AC3
  55. Duration                                 : 1 h 27 min
  56. Bit rate mode                            : Constant
  57. Bit rate                                 : 192 kb/s
  58. Channel(s)                               : 2 channels
  59. Channel layout                           : L R
  60. Sampling rate                            : 48.0 kHz
  61. Frame rate                               : 31.250 FPS (1536 SPF)
  62. Bit depth                                : 16 bits
  63. Compression mode                         : Lossy
  64. Stream size                              : 120 MiB (1%)
  65. Title                                    : Escape.Plan.The.Extractors.2019.1080p.BluRay.REMUX.AVC.DTS-HD.MA.5.1-FGT
  66. Language                                 : English
  67. Service kind                             : Complete Main
  68. Default                                  : No
  69. Forced                                   : No

  70. Text #1
  71. ID                                       : 4
  72. Format                                   : PGS
  73. Muxing mode                              : zlib
  74. Codec ID                                 : S_HDMV/PGS
  75. Codec ID/Info                            : Picture based subtitle format used on BDs/HD-DVDs
  76. Duration                                 : 1 h 20 min
  77. Bit rate                                 : 27.3 kb/s
  78. Count of elements                        : 1703
  79. Stream size                              : 15.7 MiB (0%)
  80. Title                                    : English-PGS
  81. Language                                 : English
  82. Default                                  : Yes
  83. Forced                                   : No

  84. Text #2
  85. ID                                       : 5
  86. Format                                   : PGS
  87. Muxing mode                              : zlib
  88. Codec ID                                 : S_HDMV/PGS
  89. Codec ID/Info                            : Picture based subtitle format used on BDs/HD-DVDs
  90. Duration                                 : 1 h 18 min
  91. Bit rate                                 : 20.1 kb/s
  92. Count of elements                        : 1295
  93. Stream size                              : 11.3 MiB (0%)
  94. Title                                    : Spanish-PGS
  95. Language                                 : Spanish
  96. Default                                  : No
  97. Forced                                   : No

  98. Text #3
  99. ID                                       : 6
  100. Format                                   : PGS
  101. Muxing mode                              : zlib
  102. Codec ID                                 : S_HDMV/PGS
  103. Codec ID/Info                            : Picture based subtitle format used on BDs/HD-DVDs
  104. Duration                                 : 1 h 13 min
  105. Bit rate                                 : 2 411 b/s
  106. Count of elements                        : 170
  107. Stream size                              : 1.27 MiB (0%)
  108. Title                                    : English-FORCED-PGS
  109. Language                                 : English
  110. Default                                  : No
  111. Forced                                   : No

  112. Text #4
  113. ID                                       : 7
  114. Format                                   : PGS
  115. Muxing mode                              : zlib
  116. Codec ID                                 : S_HDMV/PGS
  117. Codec ID/Info                            : Picture based subtitle format used on BDs/HD-DVDs
  118. Duration                                 : 1 h 13 min
  119. Bit rate                                 : 2 410 b/s
  120. Count of elements                        : 148
  121. Stream size                              : 1.27 MiB (0%)
  122. Title                                    : English-FORCED-PGS
  123. Language                                 : English
  124. Default                                  : No
  125. Forced                                   : No

  126. Menu
  127. 00:00:00.000                             : en:Chapter 01
  128. 00:04:06.246                             : en:Chapter 02
  129. 00:07:29.323                             : en:Chapter 03
  130. 00:12:32.668                             : en:Chapter 04
  131. 00:19:10.315                             : en:Chapter 05
  132. 00:23:18.313                             : en:Chapter 06
  133. 00:25:24.397                             : en:Chapter 07
  134. 00:31:18.459                             : en:Chapter 08
  135. 00:37:05.640                             : en:Chapter 09
  136. 00:44:02.848                             : en:Chapter 10
  137. 00:47:28.303                             : en:Chapter 11
  138. 00:52:20.095                             : en:Chapter 12
  139. 00:56:14.287                             : en:Chapter 13
  140. 01:03:40.650                             : en:Chapter 14
  141. 01:09:24.869                             : en:Chapter 15
  142. 01:16:48.020                             : en:Chapter 16
复制代码

缓兵之计3:恶魔车站 Escape.Plan.The.Extractors.2019.1080p.BluRay.REMUX.AVC.DTS-HD.MA.5.1-FGT 18.20GB-2.png 缓兵之计3:恶魔车站 Escape.Plan.The.Extractors.2019.1080p.BluRay.REMUX.AVC.DTS-HD.MA.5.1-FGT 18.20GB-3.png 缓兵之计3:恶魔车站 Escape.Plan.The.Extractors.2019.1080p.BluRay.REMUX.AVC.DTS-HD.MA.5.1-FGT 18.20GB-4.png






VIP会员免费任意下载本站所有资源!---点击开通
回复

使用道具 举报

懒得打字嘛,点击右侧快捷回复 【右侧内容,后台自定义】
您需要登录后才可以回帖 登录 | 立即注册

本版积分规则

QQ|Archiver|手机版|小黑屋| 中国高清网 |网站地图

GMT+8, 2019-10-17 20:59 , Processed in 0.304028 second(s), 39 queries .

Powered by HDchina X3.4

Copyright 2017-2019©HDchina.All right reserved

返回顶部 联系我们