查看: 56|回复: 0

[剧情片] 最佳敌人 The.Best.of.Enemies.2019.1080p.BluRay.REMUX.AVC.DTS-HD.MA.5.1-FGT 35.62GB

[复制链接]

 成长值: 2200

级别:资源管理组

注册时间
2017-10-20
最后登录
2019-8-17
听众
1
收听
0
主题
80689
蓝光币
41947 枚
贡献
5016 点
发表于 2019-7-9 17:35:55 | 显示全部楼层 |阅读模式
最好仇敌 The.Best.of.Enemies.2019.1080p.BluRay.REMUX.AVC.DTS-HD.MA.5.1-FGT 35.62GB-1.png

译  名 最好仇敌
片  名 The Best of Enemies
年  代 2019
产  地 美国
类  别 剧情 / 列传 / 历史
语  言 英语
上映日期 2019-04-05(美国)
IMDb评分  6.8/10 from 1167 users
IMDb链接  http://www.imdb.com/title/tt4807408
豆瓣评分 0/10 from 0 users
豆瓣链接 https://movie.douban.com/subject/26709197/
片  长 133分钟
导  演 罗宾·比斯尔 Robin Bissell
编  剧 罗宾·比斯尔 Robin Bissell / 奥莎·格雷·戴维森 Osha Gray Davidson
主  演 塔拉吉·P·汉森 Taraji P. Henson
      山姆·洛克威尔 Sam Rockwell
      巴布·塞赛 Babou Ceesay
      尼克·西塞 Nick Searcy
      韦斯·本特利 Wes Bentley
      安·海切 Anne Heche
      布鲁斯·麦克吉尔 Bruce McGill
      小约翰·加拉赫 John Gallagher Jr.
      尼古拉斯·罗根 Nicholas Logan


标  签 2019 | 美国 | 种族 | 剧情 | 列传 | 历史 | 人性 | 2018

简  介  

  STXfilms拿下塔拉吉·P·汉森和山姆洛·克威尔主演新片《最好仇敌》(The Best of Enemies)的北美刊行权,Babou Ceesay(《侠盗一号》)、安妮·海切(《危险机密》)、韦斯·本特利(《美国可骇故事》)、布鲁斯·麦克吉尔(《妙女神探》)、小约翰·加拉赫、尼克·西塞等参演。制片人罗宾·比塞尔(《饥饿游戏》《琼斯的自在国家》)首执导筒,并按照Osha Gray Davidson所著书籍改编剧本。
汉森饰演北卡罗来纳州达勒姆的民权活动家Ann Atwater,与3K党带领者C.P. Ellis(洛克威尔)停止了为时10年的斗争,直到1971年,两人赞成配合主持一个为期两周的社区会议,以应对法院号令的黉舍拔除种族隔离法令。这场会议改变了他们的生活。

  1. Video
  2. ID                                       : 1
  3. Format                                   : AVC
  4. Format/Info                              : Advanced Video Codec
  5. Format profile                           : <a href="/cdn-cgi/l/email-protection" class="__cf_email__" data-cfemail="b5fddcd2ddf5f9819b84">[email protected]</a>
  6. Format settings                          : CABAC / 4 Ref Frames
  7. Format settings, CABAC                   : Yes
  8. Format settings, ReFrames                : 4 frames
  9. Format settings, GOP                     : M=3, N=12
  10. Codec ID                                 : V_MPEG4/ISO/AVC
  11. Duration                                 : 2 h 13 min
  12. Bit rate mode                            : Variable
  13. Bit rate                                 : 34.7 Mb/s
  14. Maximum bit rate                         : 40.0 Mb/s
  15. Width                                    : 1 920 pixels
  16. Height                                   : 1 080 pixels
  17. Display aspect ratio                     : 16:9
  18. Frame rate mode                          : Constant
  19. Frame rate                               : 23.976 (24000/1001) FPS
  20. Color space                              : YUV
  21. Chroma subsampling                       : 4:2:0
  22. Bit depth                                : 8 bits
  23. Scan type                                : Progressive
  24. Bits/(Pixel*Frame)                       : 0.699
  25. Stream size                              : 32.5 GiB (91%)
  26. Title                                    : The.Best.of.Enemies.2019.1080p.BluRay.REMUX.AVC.DTS-HD.MA.5.1-FGT
  27. Language                                 : English
  28. Default                                  : No
  29. Forced                                   : No

  30. Audio #1
  31. ID                                       : 2
  32. Format                                   : DTS XLL
  33. Format/Info                              : Digital Theater Systems
  34. Commercial name                          : DTS-HD Master Audio
  35. Codec ID                                 : A_DTS
  36. Duration                                 : 2 h 13 min
  37. Bit rate mode                            : Variable
  38. Bit rate                                 : 3 163 kb/s
  39. Channel(s)                               : 6 channels
  40. Channel layout                           : C L R Ls Rs LFE
  41. Sampling rate                            : 48.0 kHz
  42. Frame rate                               : 93.750 FPS (512 SPF)
  43. Bit depth                                : 24 bits
  44. Compression mode                         : Lossless
  45. Stream size                              : 2.96 GiB (8%)
  46. Title                                    : The.Best.of.Enemies.2019.1080p.BluRay.REMUX.AVC.DTS-HD.MA.5.1-FGT
  47. Language                                 : English
  48. Default                                  : Yes
  49. Forced                                   : No

  50. Audio #2
  51. ID                                       : 3
  52. Format                                   : AC-3
  53. Format/Info                              : Audio Coding 3
  54. Commercial name                          : Dolby Digital
  55. Codec ID                                 : A_AC3
  56. Duration                                 : 2 h 13 min
  57. Bit rate mode                            : Constant
  58. Bit rate                                 : 192 kb/s
  59. Channel(s)                               : 2 channels
  60. Channel layout                           : L R
  61. Sampling rate                            : 48.0 kHz
  62. Frame rate                               : 31.250 FPS (1536 SPF)
  63. Bit depth                                : 16 bits
  64. Compression mode                         : Lossy
  65. Stream size                              : 184 MiB (1%)
  66. Title                                    : The.Best.of.Enemies.2019.1080p.BluRay.REMUX.AVC.DTS-HD.MA.5.1-FGT
  67. Language                                 : English
  68. Service kind                             : Complete Main
  69. Default                                  : No
  70. Forced                                   : No

  71. Text #1
  72. ID                                       : 4
  73. Format                                   : UTF-8
  74. Codec ID                                 : S_TEXT/UTF8
  75. Codec ID/Info                            : UTF-8 Plain Text
  76. Duration                                 : 2 h 5 min
  77. Bit rate                                 : 60 b/s
  78. Count of elements                        : 1579
  79. Stream size                              : 55.6 KiB (0%)
  80. Title                                    : English-SRT
  81. Language                                 : English
  82. Default                                  : Yes
  83. Forced                                   : No

  84. Text #2
  85. ID                                       : 5
  86. Format                                   : PGS
  87. Muxing mode                              : zlib
  88. Codec ID                                 : S_HDMV/PGS
  89. Codec ID/Info                            : Picture based subtitle format used on BDs/HD-DVDs
  90. Duration                                 : 2 h 6 min
  91. Bit rate                                 : 42.8 kb/s
  92. Count of elements                        : 3450
  93. Stream size                              : 38.6 MiB (0%)
  94. Title                                    : English-PGS
  95. Language                                 : English
  96. Default                                  : No
  97. Forced                                   : No

  98. Text #3
  99. ID                                       : 6
  100. Format                                   : PGS
  101. Muxing mode                              : zlib
  102. Codec ID                                 : S_HDMV/PGS
  103. Codec ID/Info                            : Picture based subtitle format used on BDs/HD-DVDs
  104. Duration                                 : 2 h 12 min
  105. Bit rate                                 : 30.9 kb/s
  106. Count of elements                        : 3143
  107. Stream size                              : 29.3 MiB (0%)
  108. Title                                    : Spanish-PGS
  109. Language                                 : Spanish
  110. Default                                  : No
  111. Forced                                   : No

  112. Menu
  113. 00:00:00.000                             : en:Chapter 01
  114. 00:04:28.393                             : en:Chapter 02
  115. 00:10:38.304                             : en:Chapter 03
  116. 00:15:57.915                             : en:Chapter 04
  117. 00:18:57.386                             : en:Chapter 05
  118. 00:25:12.219                             : en:Chapter 06
  119. 00:32:07.759                             : en:Chapter 07
  120. 00:40:08.989                             : en:Chapter 08
  121. 00:46:43.425                             : en:Chapter 09
  122. 00:52:23.723                             : en:Chapter 10
  123. 00:57:22.105                             : en:Chapter 11
  124. 01:03:12.997                             : en:Chapter 12
  125. 01:13:21.939                             : en:Chapter 13
  126. 01:22:00.290                             : en:Chapter 14
  127. 01:28:30.471                             : en:Chapter 15
  128. 01:35:46.657                             : en:Chapter 16
  129. 01:43:12.769                             : en:Chapter 17
  130. 01:51:25.720                             : en:Chapter 18
  131. 01:56:47.959                             : en:Chapter 19
  132. 02:04:38.596                             : en:Chapter 20
复制代码

最好仇敌 The.Best.of.Enemies.2019.1080p.BluRay.REMUX.AVC.DTS-HD.MA.5.1-FGT 35.62GB-2.png 最好仇敌 The.Best.of.Enemies.2019.1080p.BluRay.REMUX.AVC.DTS-HD.MA.5.1-FGT 35.62GB-3.png 最好仇敌 The.Best.of.Enemies.2019.1080p.BluRay.REMUX.AVC.DTS-HD.MA.5.1-FGT 35.62GB-4.png






回复

使用道具 举报

懒得打字嘛,点击右侧快捷回复 【右侧内容,后台自定义】
您需要登录后才可以回帖 登录 | 立即注册

本版积分规则

QQ|Archiver|手机版|小黑屋| 中国高清网 |网站地图

GMT+8, 2019-8-17 20:34 , Processed in 0.429138 second(s), 39 queries .

Powered by HDchina X3.4

Copyright 2017-2019©HDchina.All right reserved

返回顶部 联系我们