查看: 109|回复: 1

[剧情片] 蓝黑永久 Blue.Black.Permanent.1992.1080p.BluRay.REMUX.AVC.LPCM.2.0-FGT 18.11GB

[复制链接]

 成长值: 2200

级别:资源管理组

注册时间
2017-10-20
最后登录
2019-8-17
听众
1
收听
0
主题
80689
蓝光币
41947 枚
贡献
5016 点
发表于 2019-7-2 13:40:31 | 显示全部楼层 |阅读模式
蓝黑永久 Blue.Black.Permanent.1992.1080p.BluRay.REMUX.AVC.LPCM.2.0-FGT 18.11GB-1.png

译  名 蓝黑永久
片  名 Blue Black Permanent
年  代 1992
产  地 英国
类  别 剧情
语  言 英语
上映日期 1992(英国)
IMDb评分  6.7/10 from 107 users
IMDb链接  http://www.imdb.com/title/tt0103845
豆瓣评分 0/10 from 0 users
豆瓣链接 https://movie.douban.com/subject/1902393/
片  长 86分钟
导  演 Margaret Tait
编  剧 玛格丽特·泰特 Margaret Tait
主  演 西莉亚·伊姆里 Celia Imrie
      杰克·谢菲尔德 Jack Shepherd
      Gerda Stevenson
      詹姆斯·弗雷特 James Fleet
      Sean Scanlan
      Hilary Maclean
      Walter Leask


标  签 英国电影 | 女性导演 | 1992

简  介  

  暂无相关剧情先容

  1. Video
  2. ID                                       : 1
  3. Format                                   : AVC
  4. Format/Info                              : Advanced Video Codec
  5. Format profile                           : <a href="/cdn-cgi/l/email-protection" class="__cf_email__" data-cfemail="bdf5d4dad5fdf189938c">[email protected]</a>
  6. Format settings                          : CABAC / 4 Ref Frames
  7. Format settings, CABAC                   : Yes
  8. Format settings, ReFrames                : 4 frames
  9. Format settings, GOP                     : M=3, N=12
  10. Codec ID                                 : V_MPEG4/ISO/AVC
  11. Duration                                 : 1 h 25 min
  12. Bit rate mode                            : Variable
  13. Bit rate                                 : 27.9 Mb/s
  14. Maximum bit rate                         : 35.0 Mb/s
  15. Width                                    : 1 920 pixels
  16. Height                                   : 1 080 pixels
  17. Display aspect ratio                     : 16:9
  18. Frame rate mode                          : Constant
  19. Frame rate                               : 24.000 FPS
  20. Color space                              : YUV
  21. Chroma subsampling                       : 4:2:0
  22. Bit depth                                : 8 bits
  23. Scan type                                : Progressive
  24. Bits/(Pixel*Frame)                       : 0.560
  25. Stream size                              : 16.7 GiB (92%)
  26. Title                                    : Blue.Black.Permanent.1992.1080p.BluRay.REMUX.AVC.LPCM.2.0-FGT
  27. Language                                 : English
  28. Default                                  : No
  29. Forced                                   : No

  30. Audio
  31. ID                                       : 2
  32. Format                                   : PCM
  33. Format settings                          : Little / Signed
  34. Codec ID                                 : A_PCM/INT/LIT
  35. Duration                                 : 1 h 25 min
  36. Bit rate mode                            : Constant
  37. Bit rate                                 : 2 304 kb/s
  38. Channel(s)                               : 2 channels
  39. Sampling rate                            : 48.0 kHz
  40. Frame rate                               : 30.000 FPS (1600 SPF)
  41. Bit depth                                : 24 bits
  42. Stream size                              : 1.38 GiB (8%)
  43. Title                                    : Blue.Black.Permanent.1992.1080p.BluRay.REMUX.AVC.LPCM.2.0-FGT
  44. Language                                 : English
  45. Default                                  : Yes
  46. Forced                                   : No

  47. Text
  48. ID                                       : 3
  49. Format                                   : PGS
  50. Muxing mode                              : zlib
  51. Codec ID                                 : S_HDMV/PGS
  52. Codec ID/Info                            : Picture based subtitle format used on BDs/HD-DVDs
  53. Duration                                 : 1 h 24 min
  54. Bit rate                                 : 31.1 kb/s
  55. Count of elements                        : 1850
  56. Stream size                              : 18.9 MiB (0%)
  57. Title                                    : English-PGS
  58. Language                                 : English
  59. Default                                  : Yes
  60. Forced                                   : No

  61. Menu
  62. 00:00:00.000                             : en:Chapter 01
  63. 00:05:53.375                             : en:Chapter 02
  64. 00:13:05.375                             : en:Chapter 03
  65. 00:26:09.708                             : en:Chapter 04
  66. 00:34:24.458                             : en:Chapter 05
  67. 00:42:36.500                             : en:Chapter 06
  68. 00:47:49.500                             : en:Chapter 07
  69. 00:52:21.000                             : en:Chapter 08
  70. 01:03:41.750                             : en:Chapter 09
  71. 01:08:07.291                             : en:Chapter 10
  72. 01:15:32.500                             : en:Chapter 11
  73. 01:23:08.708                             : en:Chapter 12
复制代码

蓝黑永久 Blue.Black.Permanent.1992.1080p.BluRay.REMUX.AVC.LPCM.2.0-FGT 18.11GB-2.png 蓝黑永久 Blue.Black.Permanent.1992.1080p.BluRay.REMUX.AVC.LPCM.2.0-FGT 18.11GB-3.png 蓝黑永久 Blue.Black.Permanent.1992.1080p.BluRay.REMUX.AVC.LPCM.2.0-FGT 18.11GB-4.png







回复

使用道具 举报

级别:荣升主角 Lv.5

注册时间
2018-2-6
最后登录
2019-8-11
听众
14
收听
0
主题
0
蓝光币
1325 枚
贡献
0 点
发表于 2019-7-4 16:39:51 | 显示全部楼层

感谢楼主的无私分享!要想中国高清电影网好 就靠你我他
回复

使用道具 举报

懒得打字嘛,点击右侧快捷回复 【右侧内容,后台自定义】
您需要登录后才可以回帖 登录 | 立即注册

本版积分规则

QQ|Archiver|手机版|小黑屋| 中国高清网 |网站地图

GMT+8, 2019-8-17 20:36 , Processed in 0.411226 second(s), 39 queries .

Powered by HDchina X3.4

Copyright 2017-2019©HDchina.All right reserved

返回顶部 联系我们