查看: 168|回复: 2

[剧情片] 蜂鸟计划/蜂鸟项目 The.Hummingbird.Project.2018.1080p.BluRay.REMUX.AVC.DTS-HD.MA.5.1-FGT 19.63GB

[复制链接]

 成长值: 2200

级别:资源管理组

注册时间
2017-10-20
最后登录
2019-8-17
听众
1
收听
0
主题
80689
蓝光币
41947 枚
贡献
5016 点
发表于 2019-7-2 13:26:09 | 显示全部楼层 |阅读模式
蜂鸟计划/蜂鸟项目 The.Hummingbird.Project.2018.1080p.BluRay.REMUX.AVC.DTS-HD.MA.5.1-FGT 19.63GB-1.png

译  名 蜂鸟计划 / 蜂鸟项目
片  名 The Hummingbird Project
年  代 2018
产  地 加拿大
类  别 剧情
语  言 英语
上映日期 2018-09-08(多伦多电影节) / 2019-03-15(美国)
IMDb评分  6.5/10 from 1024 users
IMDb链接  http://www.imdb.com/title/tt6866224
豆瓣评分 7.2/10 from 136 users
豆瓣链接 https://movie.douban.com/subject/27039358/
片  长 111分钟
导  演 基姆·阮 Kim Nguyen
编  剧 基姆·阮 Kim Nguyen
主  演 杰西·艾森伯格 Jesse Eisenberg
      亚历山大·斯卡斯加德 Alexander Skarsg?rd
      萨尔玛·海耶克 Salma Hayek
      迈克尔·曼多 Michael Mando
      约翰·海尔登贝格 Johan Heldenbergh
      阿伊莎·伊萨 Ayisha Issa
      萨拉·古德伯格 Sarah Goldberg
      夸西·宋桂 Kwasi Songui
      康拉德·皮拉 Conrad Pla
      朱利安·拜利 Julian Bailey
      Frank Schorpion


标  签 JesseEisenberg | 2018 | 美国 | 剧情 | 加拿大 | 杰西·艾森伯格 | AlexanderSkarsg?rd | 犯罪

简  介  

  影片报告纽约的一对兄弟文森特(杰西·艾森伯格)与安东(亚历山大·斯卡斯加德),他们是高风险高频次买卖操纵员,胡想建造从堪萨斯州到新泽西州之间的直线光纤电缆,以赚取百万财富,但是他们之前的老板伊娃·托雷斯——一个强大又有极强控制欲的女人的紧逼让他们的计划布满了挫折和应战。

  1. Video
  2. ID                                       : 1
  3. Format                                   : AVC
  4. Format/Info                              : Advanced Video Codec
  5. Format profile                           : <a href="/cdn-cgi/l/email-protection" class="__cf_email__" data-cfemail="a0e8c9c7c8e0ec948e91">[email protected]</a>
  6. Format settings                          : CABAC / 4 Ref Frames
  7. Format settings, CABAC                   : Yes
  8. Format settings, ReFrames                : 4 frames
  9. Codec ID                                 : V_MPEG4/ISO/AVC
  10. Duration                                 : 1 h 50 min
  11. Bit rate mode                            : Variable
  12. Bit rate                                 : 21.9 Mb/s
  13. Maximum bit rate                         : 35.0 Mb/s
  14. Width                                    : 1 920 pixels
  15. Height                                   : 1 080 pixels
  16. Display aspect ratio                     : 16:9
  17. Frame rate mode                          : Constant
  18. Frame rate                               : 23.976 (24000/1001) FPS
  19. Color space                              : YUV
  20. Chroma subsampling                       : 4:2:0
  21. Bit depth                                : 8 bits
  22. Scan type                                : Progressive
  23. Bits/(Pixel*Frame)                       : 0.440
  24. Stream size                              : 16.9 GiB (86%)
  25. Title                                    : The.Hummingbird.Project.2018.1080p.BluRay.REMUX.AVC.DTS-HD.MA.5.1-FGT
  26. Language                                 : English
  27. Default                                  : No
  28. Forced                                   : No

  29. Audio #1
  30. ID                                       : 2
  31. Format                                   : DTS XLL
  32. Format/Info                              : Digital Theater Systems
  33. Commercial name                          : DTS-HD Master Audio
  34. Codec ID                                 : A_DTS
  35. Duration                                 : 1 h 50 min
  36. Bit rate mode                            : Variable
  37. Bit rate                                 : 1 882 kb/s
  38. Channel(s)                               : 6 channels
  39. Channel layout                           : C L R Ls Rs LFE
  40. Sampling rate                            : 48.0 kHz
  41. Frame rate                               : 93.750 FPS (512 SPF)
  42. Bit depth                                : 24 bits
  43. Compression mode                         : Lossless
  44. Stream size                              : 1.45 GiB (7%)
  45. Title                                    : The.Hummingbird.Project.2018.1080p.BluRay.REMUX.AVC.DTS-HD.MA.5.1-FGT
  46. Language                                 : English
  47. Default                                  : Yes
  48. Forced                                   : No

  49. Audio #2
  50. ID                                       : 3
  51. Format                                   : DTS XLL
  52. Format/Info                              : Digital Theater Systems
  53. Commercial name                          : DTS-HD Master Audio
  54. Codec ID                                 : A_DTS
  55. Duration                                 : 1 h 50 min
  56. Bit rate mode                            : Variable
  57. Bit rate                                 : 1 568 kb/s
  58. Channel(s)                               : 2 channels
  59. Channel layout                           : L R
  60. Sampling rate                            : 48.0 kHz
  61. Frame rate                               : 93.750 FPS (512 SPF)
  62. Bit depth                                : 24 bits
  63. Compression mode                         : Lossless
  64. Stream size                              : 1.21 GiB (6%)
  65. Title                                    : The.Hummingbird.Project.2018.1080p.BluRay.REMUX.AVC.DTS-HD.MA.5.1-FGT
  66. Language                                 : English
  67. Default                                  : No
  68. Forced                                   : No

  69. Text #1
  70. ID                                       : 4
  71. Format                                   : UTF-8
  72. Codec ID                                 : S_TEXT/UTF8
  73. Codec ID/Info                            : UTF-8 Plain Text
  74. Duration                                 : 1 h 45 min
  75. Bit rate                                 : 89 b/s
  76. Count of elements                        : 2210
  77. Stream size                              : 69.1 KiB (0%)
  78. Title                                    : English-SRT
  79. Language                                 : English
  80. Default                                  : Yes
  81. Forced                                   : No

  82. Text #2
  83. ID                                       : 5
  84. Format                                   : PGS
  85. Muxing mode                              : zlib
  86. Codec ID                                 : S_HDMV/PGS
  87. Codec ID/Info                            : Picture based subtitle format used on BDs/HD-DVDs
  88. Duration                                 : 1 h 45 min
  89. Bit rate                                 : 84.0 kb/s
  90. Count of elements                        : 4420
  91. Stream size                              : 63.3 MiB (0%)
  92. Title                                    : English-PGS
  93. Language                                 : English
  94. Default                                  : No
  95. Forced                                   : No

  96. Menu
  97. 00:00:00.000                             : en:Chapter 01
  98. 00:09:59.223                             : en:Chapter 02
  99. 00:20:45.661                             : en:Chapter 03
  100. 00:30:31.287                             : en:Chapter 04
  101. 00:40:32.513                             : en:Chapter 05
  102. 00:50:20.642                             : en:Chapter 06
  103. 01:00:52.315                             : en:Chapter 07
  104. 01:10:05.284                             : en:Chapter 08
  105. 01:19:56.291                             : en:Chapter 09
  106. 01:29:57.850                             : en:Chapter 10
  107. 01:39:37.513                             : en:Chapter 11
复制代码

蜂鸟计划/蜂鸟项目 The.Hummingbird.Project.2018.1080p.BluRay.REMUX.AVC.DTS-HD.MA.5.1-FGT 19.63GB-2.png 蜂鸟计划/蜂鸟项目 The.Hummingbird.Project.2018.1080p.BluRay.REMUX.AVC.DTS-HD.MA.5.1-FGT 19.63GB-3.png 蜂鸟计划/蜂鸟项目 The.Hummingbird.Project.2018.1080p.BluRay.REMUX.AVC.DTS-HD.MA.5.1-FGT 19.63GB-4.png






回复

使用道具 举报

级别:初级观众 Lv.1

注册时间
2019-7-4
最后登录
2019-7-4
听众
2
收听
0
主题
0
蓝光币
1 枚
贡献
0 点
发表于 2019-7-4 16:33:28 | 显示全部楼层

楼主太厉害了!楼主,电影应该很好看我觉得中国高清电影网真是个好地方!
回复

使用道具 举报

级别:普通观众 Lv.2

注册时间
2018-10-23
最后登录
2019-7-4
听众
11
收听
0
主题
0
蓝光币
10 枚
贡献
0 点
发表于 2019-7-4 18:52:27 | 显示全部楼层

这东西我收了!谢谢楼主!中国高清电影网真好!
回复

使用道具 举报

懒得打字嘛,点击右侧快捷回复 【右侧内容,后台自定义】
您需要登录后才可以回帖 登录 | 立即注册

本版积分规则

QQ|Archiver|手机版|小黑屋| 中国高清网 |网站地图

GMT+8, 2019-8-17 20:35 , Processed in 0.479865 second(s), 39 queries .

Powered by HDchina X3.4

Copyright 2017-2019©HDchina.All right reserved

返回顶部 联系我们