查看: 93|回复: 0

[喜剧片] 黑乔伊 Black.Joy.1977.1080p.BluRay.REMUX.AVC.LPCM.1.0-FGT 24.84GB

[复制链接]

 成长值: 2200

级别:资源管理组

注册时间
2017-10-20
最后登录
2019-8-17
听众
1
收听
0
主题
80689
蓝光币
41951 枚
贡献
5016 点
发表于 2019-7-1 00:12:38 | 显示全部楼层 |阅读模式
黑乔伊 Black.Joy.1977.1080p.BluRay.REMUX.AVC.LPCM.1.0-FGT 24.84GB-1.png

译  名 黑乔伊
片  名 Black Joy
年  代 1977
产  地 英国
类  别 笑剧
语  言 英语
上映日期 1977
IMDb评分  6.9/10 from 79 users
IMDb链接  http://www.imdb.com/title/tt0075760
豆瓣评分 0/10 from 0 users
豆瓣链接 https://movie.douban.com/subject/5053178/
片  长 97 分钟
导  演 安东尼·西蒙斯 Anthony Simmons
编  剧 Jamal Ali
主  演 Norman Beaton
      Trevor Thomas
      Dawn Hope


标  签 英国,鬼魂哥佑佑

简  介  

  暂无相关剧情先容

获奖情况  

  第30届戛纳电影节(1977)
  主比赛单元 金棕榈奖(提名) 安东尼·西蒙斯



  1. Video
  2. ID                                       : 1
  3. Format                                   : AVC
  4. Format/Info                              : Advanced Video Codec
  5. Format profile                           : <a href="/cdn-cgi/l/email-protection" class="__cf_email__" data-cfemail="6f270608072f235b415e">[email protected]</a>
  6. Format settings                          : CABAC / 3 Ref Frames
  7. Format settings, CABAC                   : Yes
  8. Format settings, ReFrames                : 3 frames
  9. Codec ID                                 : V_MPEG4/ISO/AVC
  10. Duration                                 : 1 h 38 min
  11. Bit rate mode                            : Variable
  12. Bit rate                                 : 35.0 Mb/s
  13. Maximum bit rate                         : 40.0 Mb/s
  14. Width                                    : 1 920 pixels
  15. Height                                   : 1 080 pixels
  16. Display aspect ratio                     : 16:9
  17. Frame rate mode                          : Constant
  18. Frame rate                               : 23.976 (24000/1001) FPS
  19. Color space                              : YUV
  20. Chroma subsampling                       : 4:2:0
  21. Bit depth                                : 8 bits
  22. Scan type                                : Progressive
  23. Bits/(Pixel*Frame)                       : 0.704
  24. Stream size                              : 23.9 GiB (96%)
  25. Title                                    : Black.Joy.1977.1080p.BluRay.REMUX.AVC.LPCM.1.0-FGT
  26. Writing library                          : x264 core 148 r2705 3f5ed56
  27. Encoding settings                        : cabac=1 / ref=4 / deblock=0:-1:-1 / analyse=0x3:0x133 / me=umh / subme=10 / psy=1 / psy_rd=1.00:0.15 / mixed_ref=1 / me_range=24 / chroma_me=1 / trellis=2 / 8x8dct=1 / cqm=0 / deadzone=21,11 / fast_pskip=1 / chroma_qp_offset=-3 / threads=34 / lookahead_threads=2 / sliced_threads=0 / slices=4 / nr=0 / decimate=1 / interlaced=0 / bluray_compat=1 / constrained_intra=0 / bframes=3 / b_pyramid=1 / b_adapt=2 / b_bias=0 / direct=3 / weightb=1 / open_gop=1 / weightp=1 / keyint=24 / keyint_min=1 / scenecut=20 / intra_refresh=0 / rc_lookahead=24 / rc=abr / mbtree=0 / bitrate=35000 / ratetol=1.0 / qcomp=0.60 / qpmin=0 / qpmax=69 / qpstep=4 / vbv_maxrate=40000 / vbv_bufsize=30000 / nal_hrd=vbr / filler=0 / ip_ratio=1.40 / pb_ratio=1.30 / aq=1:0.50
  28. Language                                 : English
  29. Default                                  : No
  30. Forced                                   : No
  31. Color range                              : Limited
  32. Color primaries                          : BT.709
  33. Transfer characteristics                 : BT.709
  34. Matrix coefficients                      : BT.709

  35. Audio #1
  36. ID                                       : 2
  37. Format                                   : PCM
  38. Format settings                          : Little / Signed
  39. Codec ID                                 : A_PCM/INT/LIT
  40. Duration                                 : 1 h 38 min
  41. Bit rate mode                            : Constant
  42. Bit rate                                 : 1 152 kb/s
  43. Sampling rate                            : 48.0 kHz
  44. Frame rate                               : 30.000 FPS (1600 SPF)
  45. Bit depth                                : 24 bits
  46. Stream size                              : 815 MiB (3%)
  47. Title                                    : Black.Joy.1977.1080p.BluRay.REMUX.AVC.LPCM.1.0-FGT
  48. Language                                 : English
  49. Default                                  : Yes
  50. Forced                                   : No

  51. Audio #2
  52. ID                                       : 3
  53. Format                                   : AC-3
  54. Format/Info                              : Audio Coding 3
  55. Commercial name                          : Dolby Digital
  56. Codec ID                                 : A_AC3
  57. Duration                                 : 1 h 38 min
  58. Bit rate mode                            : Constant
  59. Bit rate                                 : 192 kb/s
  60. Channel(s)                               : 2 channels
  61. Channel layout                           : L R
  62. Sampling rate                            : 48.0 kHz
  63. Frame rate                               : 31.250 FPS (1536 SPF)
  64. Bit depth                                : 16 bits
  65. Compression mode                         : Lossy
  66. Stream size                              : 136 MiB (1%)
  67. Title                                    : Black.Joy.1977.1080p.BluRay.REMUX.AVC.LPCM.1.0-FGT
  68. Language                                 : English
  69. Service kind                             : Complete Main
  70. Default                                  : No
  71. Forced                                   : No

  72. Text
  73. ID                                       : 4
  74. Format                                   : PGS
  75. Muxing mode                              : zlib
  76. Codec ID                                 : S_HDMV/PGS
  77. Codec ID/Info                            : Picture based subtitle format used on BDs/HD-DVDs
  78. Duration                                 : 1 h 38 min
  79. Bit rate                                 : 57.6 kb/s
  80. Count of elements                        : 3556
  81. Stream size                              : 40.6 MiB (0%)
  82. Title                                    : English-PGS
  83. Language                                 : English
  84. Default                                  : Yes
  85. Forced                                   : No

  86. Menu
  87. 00:00:00.000                             : en:Chapter 01
  88. 00:07:41.794                             : en:Chapter 02
  89. 00:16:33.575                             : en:Chapter 03
  90. 00:23:18.772                             : en:Chapter 04
  91. 00:33:38.516                             : en:Chapter 05
  92. 00:38:02.863                             : en:Chapter 06
  93. 00:48:22.357                             : en:Chapter 07
  94. 01:00:54.400                             : en:Chapter 08
  95. 01:07:16.949                             : en:Chapter 09
  96. 01:14:53.780                             : en:Chapter 10
  97. 01:21:54.743                             : en:Chapter 11
  98. 01:31:03.875                             : en:Chapter 12
复制代码

黑乔伊 Black.Joy.1977.1080p.BluRay.REMUX.AVC.LPCM.1.0-FGT 24.84GB-2.png 黑乔伊 Black.Joy.1977.1080p.BluRay.REMUX.AVC.LPCM.1.0-FGT 24.84GB-3.png 黑乔伊 Black.Joy.1977.1080p.BluRay.REMUX.AVC.LPCM.1.0-FGT 24.84GB-4.png






回复

使用道具 举报

懒得打字嘛,点击右侧快捷回复 【右侧内容,后台自定义】
您需要登录后才可以回帖 登录 | 立即注册

本版积分规则

QQ|Archiver|手机版|小黑屋| 中国高清网 |网站地图

GMT+8, 2019-8-17 20:49 , Processed in 0.463942 second(s), 39 queries .

Powered by HDchina X3.4

Copyright 2017-2019©HDchina.All right reserved

返回顶部 联系我们