查看: 285|回复: 2

[REMUX.HEVC] 灰姑娘/仙履奇缘 Cinderella.2015.2160p.BluRay.REMUX.HEVC.DTS-HD.MA.TrueHD.7.1.Atmos-FGT 56.97GB

[复制链接]

 成长值: 2200

级别:资源管理组

注册时间
2017-10-20
最后登录
2019-8-17
听众
1
收听
0
主题
80689
蓝光币
41951 枚
贡献
5016 点
发表于 2019-6-29 16:11:45 | 显示全部楼层 |阅读模式
灰姑娘/仙履奇缘 Cinderella.2015.2160p.BluRay.REMUX.HEVC.DTS-HD.MA.TrueHD.7.1.Atmos-FGT 56.97GB-1.png

译  名 灰姑娘 / 仙履奇缘(港 / 台)
片  名 Cinderella
年  代 2015
产  地 美国 / 英国
类  别 恋爱 / 奇异 / 冒险
语  言 英语
上映日期 2015-02-13(柏林电影节) / 2015-03-13(美国/中国大陆)
IMDb评分  6.9/10 from 143432 users
IMDb链接  http://www.imdb.com/title/tt1661199
豆瓣评分 6.8/10 from 152355 users
豆瓣链接 https://movie.douban.com/subject/6875263/
片  长 106分钟
导  演 肯尼思·布拉纳 Kenneth Branagh
编  剧 克里斯·韦兹 Chris Weitz
主  演 莉莉·詹姆斯 Lily James
      理查德·麦登 Richard Madden
      凯特·布兰切特 Cate Blanchett
      海莉·阿特维尔 Hayley Atwell
      海伦娜·伯翰·卡特 Helena Bonham Carter
      荷丽黛·格兰杰 Holliday Grainger
      索菲 麦希拉 Sophie Mcshera
      斯特兰·斯卡斯加德 Stellan Skarsg?rd
      侬索·阿诺斯 Nonso Anozie
      德里克·雅各比 Derek Jacobi
      本·卓别林 Ben Chaplin
      罗伯·布莱顿 Rob Brydon
      埃洛伊塞·韦伯 Eloise Webb
      劳里·卡尔弗特 Laurie Calvert
      亚历克斯·麦奎因 Alex Macqueen
      约书亚·麦圭尔 Joshua McGuire
      王丽雅 Leila Wong


标  签 童话 | 迪士尼 | 美国 | 恋爱 | 奇异 | 2015 | 浪漫 | 剧情

简  介  

  母亲归天后,瑞拉(莉莉·詹姆斯 Lily James 饰)的父亲迎娶了美丽的特曼妮夫人(凯特·布兰切特 Cate Blanchett 饰),特曼妮夫人还带来了她的两个女儿安乐西亚(荷丽黛·格兰杰 Holliday Grainger 饰)和崔西里亚(索菲·麦希拉 Sophie McShera 饰)。瑞拉本着善待他人的善良之心和继母与两个姐姐战争共处,但是,这一切却在父亲归天后发生了天翻地覆的变化。
落空了父亲的庇护,瑞拉完全沦为了特曼妮夫人的仆从和家中的女佣,可是,即使饱受亲人们的榨取与欺侮,瑞拉仍然决议留下来,保护这个家庭。一次偶然中,瑞拉相逢了名为基特(理查德·麦登 Richard Madden 饰)的男人,但是,她并不晓得眼前这个布满了魅力的年轻人贵为王子,还以为他只是区区随从。王子在王宫里举行了大型的宴会,约请全国高低的少女们前往加入,瑞拉也想去,但特曼妮夫人明显并不喜好她的这个主张。

获奖情况  

  第88届奥斯卡金像奖(2016)
  最好打扮设想(提名) 桑迪·鲍威尔

  第69届英国电影学院奖(2016)
  电影奖 最好打扮设想(提名) 桑迪·鲍威尔

  第18届美国打扮设想工会奖(2016)
  科幻/奇异题材电影最好打扮设想(提名)

  第21届美国批评家挑选电影奖(2016)
  最好打扮设想(提名)

  第19届好莱坞电影奖(2015)
  年度打扮设想 桑迪·鲍威尔

  第17届美国青少年挑选奖(2015)
  最好科幻/奇异电影(提名)
  最好科幻/奇异电影女演员(提名) 莉莉·詹姆斯

  第2届豆瓣电影年度榜单(2015)
  3月最受关注电影(提名)

  第6届豆瓣电影鑫像奖(2016)
  豆渣单元 最渣女演员(外语)(提名) 莉莉·詹姆斯



  1. Video
  2. ID                                       : 1
  3. Format                                   : HEVC
  4. Format/Info                              : High Efficiency Video Coding
  5. Commercial name                          : HDR10
  6. Format profile                           : Main <a href="/cdn-cgi/l/email-protection" class="__cf_email__" data-cfemail="3d0c0d7d7108130c">[email protected]</a>@High
  7. Codec ID                                 : V_MPEGH/ISO/HEVC
  8. Duration                                 : 1 h 45 min
  9. Bit rate                                 : 63.9 Mb/s
  10. Width                                    : 3 840 pixels
  11. Height                                   : 2 160 pixels
  12. Display aspect ratio                     : 16:9
  13. Frame rate mode                          : Constant
  14. Frame rate                               : 23.976 (24000/1001) FPS
  15. Color space                              : YUV
  16. Chroma subsampling                       : 4:2:0 (Type 2)
  17. Bit depth                                : 10 bits
  18. Bits/(Pixel*Frame)                       : 0.321
  19. Stream size                              : 47.0 GiB (82%)
  20. Title                                    : Cinderella.2015.2160p.BluRay.REMUX.HEVC.DTS-HD.MA.TrueHD.7.1.Atmos-FGT
  21. Writing library                          : ATEME Titan File 3.9.0 (4.9.0.0)        
  22. Language                                 : English
  23. Default                                  : No
  24. Forced                                   : No
  25. Color range                              : Limited
  26. Color primaries                          : BT.2020
  27. Transfer characteristics                 : PQ
  28. Matrix coefficients                      : BT.2020 non-constant
  29. Mastering display color primaries        : Display P3
  30. Mastering display luminance              : min: 0.0020 cd/m2, max: 1000 cd/m2

  31. Audio #1
  32. ID                                       : 2
  33. Format                                   : MLP FBA 16-ch
  34. Format/Info                              : Meridian Lossless Packing FBA with 16-channel presentation
  35. Commercial name                          : Dolby TrueHD with Dolby Atmos
  36. Codec ID                                 : A_TRUEHD
  37. Duration                                 : 1 h 45 min
  38. Bit rate mode                            : Variable
  39. Bit rate                                 : 4 681 kb/s
  40. Maximum bit rate                         : 8 343 kb/s
  41. Channel(s)                               : 8 channels
  42. Channel layout                           : L R C LFE Ls Rs Lb Rb
  43. Sampling rate                            : 48.0 kHz
  44. Frame rate                               : 1 200.000 FPS (40 SPF)
  45. Compression mode                         : Lossless
  46. Stream size                              : 3.45 GiB (6%)
  47. Title                                    : Cinderella.2015.2160p.BluRay.REMUX.HEVC.DTS-HD.MA.TrueHD.7.1.Atmos-FGT
  48. Language                                 : English
  49. Default                                  : Yes
  50. Forced                                   : No
  51. Number of dynamic objects                : 13
  52. Bed channel count                        : 1 channel
  53. Bed channel configuration                : LFE

  54. Audio #2
  55. ID                                       : 3
  56. Format                                   : DTS XLL
  57. Format/Info                              : Digital Theater Systems
  58. Commercial name                          : DTS-HD Master Audio
  59. Codec ID                                 : A_DTS
  60. Duration                                 : 1 h 45 min
  61. Bit rate mode                            : Variable
  62. Bit rate                                 : 3 945 kb/s
  63. Channel(s)                               : 8 channels
  64. Channel layout                           : C L R LFE Lb Rb Lss Rss
  65. Sampling rate                            : 48.0 kHz
  66. Frame rate                               : 93.750 FPS (512 SPF)
  67. Bit depth                                : 24 bits
  68. Compression mode                         : Lossless
  69. Stream size                              : 2.90 GiB (5%)
  70. Title                                    : Cinderella.2015.2160p.BluRay.REMUX.HEVC.DTS-HD.MA.TrueHD.7.1.Atmos-FGT
  71. Language                                 : English
  72. Default                                  : No
  73. Forced                                   : No

  74. Audio #3
  75. ID                                       : 4
  76. Format                                   : AC-3
  77. Format/Info                              : Audio Coding 3
  78. Commercial name                          : Dolby Digital
  79. Codec ID                                 : A_AC3
  80. Duration                                 : 1 h 45 min
  81. Bit rate mode                            : Constant
  82. Bit rate                                 : 640 kb/s
  83. Channel(s)                               : 6 channels
  84. Channel layout                           : L R C LFE Ls Rs
  85. Sampling rate                            : 48.0 kHz
  86. Frame rate                               : 31.250 FPS (1536 SPF)
  87. Bit depth                                : 16 bits
  88. Compression mode                         : Lossy
  89. Stream size                              : 482 MiB (1%)
  90. Title                                    : Cinderella.2015.2160p.BluRay.REMUX.HEVC.DTS-HD.MA.TrueHD.7.1.Atmos-FGT
  91. Language                                 : English
  92. Service kind                             : Complete Main
  93. Default                                  : No
  94. Forced                                   : No

  95. Audio #4
  96. ID                                       : 5
  97. Format                                   : AC-3
  98. Format/Info                              : Audio Coding 3
  99. Commercial name                          : Dolby Digital
  100. Codec ID                                 : A_AC3
  101. Duration                                 : 1 h 45 min
  102. Bit rate mode                            : Constant
  103. Bit rate                                 : 320 kb/s
  104. Channel(s)                               : 2 channels
  105. Channel layout                           : L R
  106. Sampling rate                            : 48.0 kHz
  107. Frame rate                               : 31.250 FPS (1536 SPF)
  108. Bit depth                                : 16 bits
  109. Compression mode                         : Lossy
  110. Stream size                              : 241 MiB (0%)
  111. Title                                    : Cinderella.2015.2160p.BluRay.REMUX.HEVC.DTS-HD.MA.TrueHD.7.1.Atmos-FGT
  112. Language                                 : English
  113. Service kind                             : Complete Main
  114. Default                                  : No
  115. Forced                                   : No

  116. Audio #5
  117. ID                                       : 6
  118. Format                                   : AC-3
  119. Format/Info                              : Audio Coding 3
  120. Commercial name                          : Dolby Digital
  121. Codec ID                                 : A_AC3
  122. Duration                                 : 1 h 45 min
  123. Bit rate mode                            : Constant
  124. Bit rate                                 : 640 kb/s
  125. Channel(s)                               : 6 channels
  126. Channel layout                           : L R C LFE Ls Rs
  127. Sampling rate                            : 48.0 kHz
  128. Frame rate                               : 31.250 FPS (1536 SPF)
  129. Bit depth                                : 16 bits
  130. Compression mode                         : Lossy
  131. Stream size                              : 482 MiB (1%)
  132. Title                                    : Cinderella.2015.2160p.BluRay.REMUX.HEVC.DTS-HD.MA.TrueHD.7.1.Atmos-FGT
  133. Language                                 : French
  134. Service kind                             : Complete Main
  135. Default                                  : No
  136. Forced                                   : No

  137. Audio #6
  138. ID                                       : 7
  139. Format                                   : E-AC-3
  140. Format/Info                              : Enhanced AC-3
  141. Commercial name                          : Dolby Digital Plus
  142. Format profile                           : Blu-ray Disc
  143. Codec ID                                 : A_EAC3
  144. Duration                                 : 1 h 45 min
  145. Bit rate mode                            : Constant
  146. Bit rate                                 : 1 024 kb/s
  147. Channel(s)                               : 8 channels
  148. Channel layout                           : L R C LFE Ls Rs Lb Rb
  149. Sampling rate                            : 48.0 kHz
  150. Frame rate                               : 31.250 FPS (1536 SPF)
  151. Compression mode                         : Lossy
  152. Stream size                              : 772 MiB (1%)
  153. Title                                    : Cinderella.2015.2160p.BluRay.REMUX.HEVC.DTS-HD.MA.TrueHD.7.1.Atmos-FGT
  154. Language                                 : Spanish
  155. Service kind                             : Complete Main
  156. Default                                  : No
  157. Forced                                   : No

  158. Audio #7
  159. ID                                       : 8
  160. Format                                   : AC-3
  161. Format/Info                              : Audio Coding 3
  162. Commercial name                          : Dolby Digital
  163. Codec ID                                 : A_AC3
  164. Duration                                 : 1 h 45 min
  165. Bit rate mode                            : Constant
  166. Bit rate                                 : 576 kb/s
  167. Channel(s)                               : 6 channels
  168. Channel layout                           : L R C LFE Ls Rs
  169. Sampling rate                            : 48.0 kHz
  170. Frame rate                               : 31.250 FPS (1536 SPF)
  171. Bit depth                                : 16 bits
  172. Compression mode                         : Lossy
  173. Stream size                              : 434 MiB (1%)
  174. Title                                    : Cinderella.2015.2160p.BluRay.REMUX.HEVC.DTS-HD.MA.TrueHD.7.1.Atmos-FGT
  175. Language                                 : Spanish
  176. Service kind                             : Complete Main
  177. Default                                  : No
  178. Forced                                   : No

  179. Audio #8
  180. ID                                       : 9
  181. Format                                   : E-AC-3
  182. Format/Info                              : Enhanced AC-3
  183. Commercial name                          : Dolby Digital Plus
  184. Format profile                           : Blu-ray Disc
  185. Codec ID                                 : A_EAC3
  186. Duration                                 : 1 h 45 min
  187. Bit rate mode                            : Constant
  188. Bit rate                                 : 1 024 kb/s
  189. Channel(s)                               : 8 channels
  190. Channel layout                           : L R C LFE Ls Rs Lb Rb
  191. Sampling rate                            : 48.0 kHz
  192. Frame rate                               : 31.250 FPS (1536 SPF)
  193. Compression mode                         : Lossy
  194. Stream size                              : 772 MiB (1%)
  195. Title                                    : Cinderella.2015.2160p.BluRay.REMUX.HEVC.DTS-HD.MA.TrueHD.7.1.Atmos-FGT
  196. Language                                 : Japanese
  197. Service kind                             : Complete Main
  198. Default                                  : No
  199. Forced                                   : No

  200. Audio #9
  201. ID                                       : 10
  202. Format                                   : AC-3
  203. Format/Info                              : Audio Coding 3
  204. Commercial name                          : Dolby Digital
  205. Codec ID                                 : A_AC3
  206. Duration                                 : 1 h 45 min
  207. Bit rate mode                            : Constant
  208. Bit rate                                 : 576 kb/s
  209. Channel(s)                               : 6 channels
  210. Channel layout                           : L R C LFE Ls Rs
  211. Sampling rate                            : 48.0 kHz
  212. Frame rate                               : 31.250 FPS (1536 SPF)
  213. Bit depth                                : 16 bits
  214. Compression mode                         : Lossy
  215. Stream size                              : 434 MiB (1%)
  216. Title                                    : Cinderella.2015.2160p.BluRay.REMUX.HEVC.DTS-HD.MA.TrueHD.7.1.Atmos-FGT
  217. Language                                 : Japanese
  218. Service kind                             : Complete Main
  219. Default                                  : No
  220. Forced                                   : No

  221. Text #1
  222. ID                                       : 11
  223. Format                                   : UTF-8
  224. Codec ID                                 : S_TEXT/UTF8
  225. Codec ID/Info                            : UTF-8 Plain Text
  226. Duration                                 : 1 h 44 min
  227. Bit rate                                 : 51 b/s
  228. Count of elements                        : 1421
  229. Stream size                              : 39.6 KiB (0%)
  230. Title                                    : English-SRT
  231. Language                                 : English
  232. Default                                  : Yes
  233. Forced                                   : No

  234. Text #2
  235. ID                                       : 12
  236. Format                                   : PGS
  237. Muxing mode                              : zlib
  238. Codec ID                                 : S_HDMV/PGS
  239. Codec ID/Info                            : Picture based subtitle format used on BDs/HD-DVDs
  240. Duration                                 : 1 h 44 min
  241. Bit rate                                 : 41.4 kb/s
  242. Count of elements                        : 3474
  243. Stream size                              : 31.0 MiB (0%)
  244. Title                                    : English-PGS
  245. Language                                 : English
  246. Default                                  : No
  247. Forced                                   : No

  248. Text #3
  249. ID                                       : 13
  250. Format                                   : PGS
  251. Muxing mode                              : zlib
  252. Codec ID                                 : S_HDMV/PGS
  253. Codec ID/Info                            : Picture based subtitle format used on BDs/HD-DVDs
  254. Duration                                 : 1 h 44 min
  255. Bit rate                                 : 34.2 kb/s
  256. Count of elements                        : 2874
  257. Stream size                              : 25.6 MiB (0%)
  258. Title                                    : French-PGS
  259. Language                                 : French
  260. Default                                  : No
  261. Forced                                   : No

  262. Text #4
  263. ID                                       : 14
  264. Format                                   : PGS
  265. Muxing mode                              : zlib
  266. Codec ID                                 : S_HDMV/PGS
  267. Codec ID/Info                            : Picture based subtitle format used on BDs/HD-DVDs
  268. Duration                                 : 1 h 44 min
  269. Bit rate                                 : 31.9 kb/s
  270. Count of elements                        : 2850
  271. Stream size                              : 23.8 MiB (0%)
  272. Title                                    : Spanish-PGS
  273. Language                                 : Spanish
  274. Default                                  : No
  275. Forced                                   : No

  276. Text #5
  277. ID                                       : 15
  278. Format                                   : PGS
  279. Muxing mode                              : zlib
  280. Codec ID                                 : S_HDMV/PGS
  281. Codec ID/Info                            : Picture based subtitle format used on BDs/HD-DVDs
  282. Duration                                 : 1 h 44 min
  283. Bit rate                                 : 24.0 kb/s
  284. Count of elements                        : 2396
  285. Stream size                              : 17.9 MiB (0%)
  286. Title                                    : Japanese-PGS
  287. Language                                 : Japanese
  288. Default                                  : No
  289. Forced                                   : No

  290. Text #6
  291. ID                                       : 16
  292. Format                                   : PGS
  293. Muxing mode                              : zlib
  294. Codec ID                                 : S_HDMV/PGS
  295. Codec ID/Info                            : Picture based subtitle format used on BDs/HD-DVDs
  296. Duration                                 : 1 min 19 s
  297. Bit rate                                 : 5 579 b/s
  298. Count of elements                        : 12
  299. Stream size                              : 54.1 KiB (0%)
  300. Title                                    : French-FORCED-PGS
  301. Language                                 : French
  302. Default                                  : No
  303. Forced                                   : No

  304. Text #7
  305. ID                                       : 17
  306. Format                                   : PGS
  307. Muxing mode                              : zlib
  308. Codec ID                                 : S_HDMV/PGS
  309. Codec ID/Info                            : Picture based subtitle format used on BDs/HD-DVDs
  310. Duration                                 : 1 min 0 s
  311. Bit rate                                 : 1 903 b/s
  312. Count of elements                        : 4
  313. Stream size                              : 14.0 KiB (0%)
  314. Title                                    : Spanish-FORCED-PGS
  315. Language                                 : Spanish
  316. Default                                  : No
  317. Forced                                   : No

  318. Menu
  319. 00:00:00.000                             : en:Chapter 01
  320. 00:06:35.436                             : en:Chapter 02
  321. 00:13:58.587                             : en:Chapter 03
  322. 00:17:55.908                             : en:Chapter 04
  323. 00:22:05.574                             : en:Chapter 05
  324. 00:26:36.553                             : en:Chapter 06
  325. 00:31:17.500                             : en:Chapter 07
  326. 00:34:37.408                             : en:Chapter 08
  327. 00:38:39.400                             : en:Chapter 09
  328. 00:42:54.697                             : en:Chapter 10
  329. 00:52:52.752                             : en:Chapter 11
  330. 01:03:13.956                             : en:Chapter 12
  331. 01:10:54.625                             : en:Chapter 13
  332. 01:16:42.723                             : en:Chapter 14
  333. 01:20:41.753                             : en:Chapter 15
  334. 01:25:35.713                             : en:Chapter 16
  335. 01:28:26.926                             : en:Chapter 17
  336. 01:39:11.528                             : en:Chapter 18
复制代码

灰姑娘/仙履奇缘 Cinderella.2015.2160p.BluRay.REMUX.HEVC.DTS-HD.MA.TrueHD.7.1.Atmos-FGT 56.97GB-2.png 灰姑娘/仙履奇缘 Cinderella.2015.2160p.BluRay.REMUX.HEVC.DTS-HD.MA.TrueHD.7.1.Atmos-FGT 56.97GB-3.png 灰姑娘/仙履奇缘 Cinderella.2015.2160p.BluRay.REMUX.HEVC.DTS-HD.MA.TrueHD.7.1.Atmos-FGT 56.97GB-4.png






本帖隐藏的下载地址需要VIP会员才可阅读,您需要升级才可阅读,点击这里升级VIP

回复

使用道具 举报

级别:普通观众 Lv.2

注册时间
2019-1-15
最后登录
2019-8-16
听众
11
收听
0
主题
0
蓝光币
87 枚
贡献
0 点
发表于 2019-7-9 08:46:21 | 显示全部楼层
楼主辛苦了,非常感谢分享。
回复

使用道具 举报

级别:初级观众 Lv.1

注册时间
2019-7-9
最后登录
2019-7-9
听众
3
收听
0
主题
0
蓝光币
0 枚
贡献
0 点
QQ
发表于 2019-7-9 18:09:07 | 显示全部楼层
1.jpg
回复

使用道具 举报

懒得打字嘛,点击右侧快捷回复 【右侧内容,后台自定义】
您需要登录后才可以回帖 登录 | 立即注册

本版积分规则

QQ|Archiver|手机版|小黑屋| 中国高清网 |网站地图

GMT+8, 2019-8-17 20:55 , Processed in 0.589576 second(s), 41 queries .

Powered by HDchina X3.4

Copyright 2017-2019©HDchina.All right reserved

返回顶部 联系我们