查看: 267|回复: 4

[剧情片] 这个男人来自疯狂世界 The.Man.Who.Killed.Don.Quixote.2018.720p.BluRay.X264-AMIABLE 5.48GB

[复制链接]

 成长值: 2580

级别:资源管理组

注册时间
2017-10-20
最后登录
2019-9-22
听众
1
收听
0
主题
83026
蓝光币
49846 枚
贡献
7354 点
发表于 2019-6-9 23:07:07 | 显示全部楼层 |阅读模式
这个汉子来自疯狂天下 The.Man.Who.Killed.Don.Quixote.2018.720p.BluRay.X264-AMIABLE 5.48GB-1.png
7 O! E, i& H1 V' }& o3 _/ ~; ?9 p5 q* k: Z
译  名 这个汉子来自疯狂天下 / The Man Who Killed Don Quixote / 杀了唐吉诃德的汉子 / 杀死堂吉诃德的人 / 谁杀了堂吉诃德 / 谁杀死了堂吉诃德
7 L* O' E* x5 e  d& G4 b5 O5 X! x片  名 El hombre que mató a Don Quijote
* B2 k% [/ M# h年  代 2018* D! ]; }/ a6 b' Y& M! d
产  地 西班牙 / 比利时 / 法国 / 葡萄牙 / 英国3 W0 T) l# }* d: n' h+ p
类  别 剧情 / 笑剧 / 奇异 / 冒险
' m& b. W# F' U. C$ J3 }' b: ]语  言 英语 / 西班牙语9 w- \5 A0 A+ s8 ?/ q& L3 o
上映日期 2018-05-19(戛纳电影节) / 2018-06-01(西班牙)
, N0 @' J- r3 m  ?$ ?7 d0 mIMDb评分  6.5/10 from 8051 users& z; T% `0 d- w+ J. _
IMDb链接  http://www.imdb.com/title/tt1318517
7 \9 j$ Z+ j$ B" U8 m8 P豆瓣评分 6.9/10 from 1588 users3 O  K6 u4 k/ i
豆瓣链接 https://movie.douban.com/subject/3274508/
: b  D2 W4 Q8 q片  长 132分钟
$ W3 ^; J5 \, J3 I2 |0 ]9 a( O导  演 特瑞·吉列姆 Terry Gilliam
( u$ G$ H4 _7 ]7 x, {3 N编  剧 特瑞·吉列姆 Terry Gilliam / 托尼·格里森尼 Tony Grisoni / 塞万提斯 Miguel de Cervantes y Saavedra: q# D+ k. D) n: h# Z
主  演 亚当·德赖弗 Adam Driver
) q: E6 B* G" I7 W% @      欧嘉·柯瑞兰寇 Olga Kurylenko
! q# k+ S  N* X8 }      乔纳森·普雷斯 Jonathan Pryce
( B0 p6 c! f& s2 @, E6 A      斯特兰·斯卡斯加德 Stellan Skarsg?rd
: s8 H6 D! @9 ~  o8 Z- J      奥斯卡·贾恩那达 óscar Jaenada6 e0 X% B" L+ Q. U7 M: C
      杰森·沃特金斯 Jason Watkins0 B& l, O" c. ]- e7 i
      塞尔希·洛佩斯 Sergi López' l5 t; ^2 Z, v% M9 Y8 X3 L7 x
      詹迪·莫拉 Jordi Mollà
6 r: h8 K! {9 d      特瑞·吉列姆 Terry Gilliam2 e  o/ Y7 b. j. b; h
      霍威克·库区科利安 Hovik Keuchkerian
, @: a& v: t* }5 @& L( _      阿尔维托·乔·李 Alberto Jo Lee# A$ E  `% o$ I1 P% r
      威廉·米勒 William Miller
, g. f& A! a/ @0 E2 ^# y( j+ @% q      萝西·德·帕尔马 Rossy de Palma
- \- D& H, t* z) @4 t& i      布鲁诺·塞维利亚 Bruno Sevilla
% l/ O3 `" y8 }8 J; @( X* I+ v& T9 i; [0 C+ u
6 ?: N7 J/ C4 j
标  签 西班牙 | 奇异 | 2018 | 英国 | 笑剧 | 美国 | 冒险 | 剧情0 _5 a$ I; A% E
: z9 `% u  ]: k3 d0 V/ H: M8 s2 A
简  介  - A" m! R  a+ ?
" q( K* H1 g3 n% b" d3 x' E- Y2 Q. u
  托比,一个愤世嫉俗的广告导演,发现自己堕入了一个现代西班牙鞋匠的荒谬空想中,他相信自己就是堂吉诃德。在他们越来越超现实的冒险进程中,托比被迫直面他 在青年时代拍摄的一部电影的悲剧性结果——这部电影永久地改变了一个西班牙小村落的希望和胡想。托比能抵偿并找回初心吗?堂吉诃德能在他的疯狂和行未到临的灭亡中幸存吗?恋爱能克服一切吗?. t! ]7 I( }& w& ^% L" m- v5 n
3 T# A. q, e' B. O1 {1 @- j
获奖情况  
8 ?: e5 M3 Y- x
' G* R1 f' _6 h3 G9 c" {& g( ]  第33届西班牙戈雅奖(2019)
6 r' B( H8 V1 P  ?: |% b0 t  最好艺术指导(提名)! E$ E- d( `' q3 }, u+ u
  最好建造人4 d2 x& I/ n3 F( T" X9 m& `
  最好打扮设想(提名); Y4 F5 O3 w) E. U5 v8 U
  最好化装与发型
5 C% }$ b, X& M2 R  最好原创歌曲(提名)' `) V' x" H* l; J

5 X* V. G6 O6 a) a) M
8 H. z/ c8 E6 S. o% _3 C3 F
! z7 `" i! U8 f8 S& s& g& Z3 U$ s
  1. Video2 {; |! F; L  K" u9 ?
  2. ID                                       : 13 M0 E: a8 T- g! O- h# A: ]
  3. Format                                   : AVC
    ; I9 h1 T/ C# o1 R2 V+ z. e: f
  4. Format/Info                              : Advanced Video Codec$ }2 `5 O$ B1 e4 K$ J6 F
  5. Format profile                           : <a href="/cdn-cgi/l/email-protection" class="__cf_email__" data-cfemail="074f6e606f474b332936">[email protected]</a>
    + Z. ^" ]/ ~7 g$ f* D
  6. Format settings                          : CABAC / 5 Ref Frames) T% A& i* P) H8 e/ H1 \+ ]
  7. Format settings, CABAC                   : Yes
    ' F- G3 G( Q( j( n: D' \& a$ h
  8. Format settings, ReFrames                : 5 frames4 w; R. D$ E' l
  9. Codec ID                                 : V_MPEG4/ISO/AVC% U3 ~6 K1 \" V/ Q9 A
  10. Duration                                 : 2 h 12 min* J1 G, f1 p) ^, ~: [
  11. Bit rate                                 : 4 377 kb/s
    $ b4 I: `0 o  t2 V: N2 ?7 v
  12. Width                                    : 1 280 pixels) ]+ X. a: k2 [. N
  13. Height                                   : 536 pixels9 J( T, Z; L- ~
  14. Display aspect ratio                     : 2.40:1  [4 ?6 L& o7 {2 L
  15. Frame rate mode                          : Constant% X3 g8 z( V/ K/ T% o5 Q' d6 i
  16. Frame rate                               : 23.976 (24000/1001) FPS
    4 I8 E; @/ _  S) _! k
  17. Color space                              : YUV+ ?. [: O! r  ^* ]* T
  18. Chroma subsampling                       : 4:2:0
    8 d9 w* k, P- e. G  Z
  19. Bit depth                                : 8 bits
    3 \8 Y- t" c9 P& d, q% w" I; j6 [
  20. Scan type                                : Progressive
    9 t, t( [7 b* _% Y0 a& y
  21. Bits/(Pixel*Frame)                       : 0.266( w% s, X( K6 W/ i4 H: n5 H
  22. Stream size                              : 4.06 GiB (74%)$ e. |& S7 p( c3 c. l& O
  23. Writing library                          : x264 core 157 r2970 5493be8
    * L' P, {2 c9 s7 E3 m% A& y
  24. Encoding settings                        : cabac=1 / ref=5 / deblock=1:-3:-3 / analyse=0x3:0x113 / me=umh / subme=8 / psy=1 / psy_rd=1.00:0.00 / mixed_ref=1 / me_range=24 / chroma_me=1 / trellis=2 / 8x8dct=1 / cqm=0 / deadzone=21,11 / fast_pskip=1 / chroma_qp_offset=-2 / threads=17 / lookahead_threads=2 / sliced_threads=0 / nr=0 / decimate=1 / interlaced=0 / bluray_compat=0 / constrained_intra=0 / bframes=3 / b_pyramid=2 / b_adapt=2 / b_bias=0 / direct=3 / weightb=1 / open_gop=0 / weightp=2 / keyint=240 / keyint_min=24 / scenecut=40 / intra_refresh=0 / rc_lookahead=50 / rc=2pass / mbtree=1 / bitrate=4377 / ratetol=1.0 / qcomp=0.60 / qpmin=0 / qpmax=69 / qpstep=4 / cplxblur=20.0 / qblur=0.5 / ip_ratio=1.40 / aq=3:0.806 [7 S& \- M2 D0 b
  25. Default                                  : Yes( Y9 A" g8 w  u4 |
  26. Forced                                   : No
    & H( b: d. t& b  r0 T
  27. - {/ ^& h, |0 j1 Y
  28. Audio
    4 u! k4 w6 k. d1 S1 ?- ~
  29. ID                                       : 29 P: f; `! L: L
  30. Format                                   : DTS
    ; Q5 e3 L- z& v; n' S6 z3 H5 t
  31. Format/Info                              : Digital Theater Systems
    " ?& L  A- B+ P8 o) n) Z
  32. Codec ID                                 : A_DTS
    4 M5 I/ [3 c- `) Q( o! F2 j
  33. Duration                                 : 2 h 12 min7 J( c) X7 J8 u" e) |3 [
  34. Bit rate mode                            : Constant. K- \6 f2 d5 e2 ]
  35. Bit rate                                 : 1 509 kb/s2 y& V, a7 J, a0 [" Z" d0 {. |0 Z
  36. Channel(s)                               : 6 channels2 G1 K, o1 R, `! Q) u  O9 n
  37. Channel layout                           : C L R Ls Rs LFE# f$ G4 q! H, s3 a; x2 b4 a6 L
  38. Sampling rate                            : 48.0 kHz
    : ?: w' [3 h' a' ]& ]! p5 ^4 ?
  39. Frame rate                               : 93.750 FPS (512 SPF)
    3 j0 S# T' v8 H% s% V7 E- C
  40. Bit depth                                : 24 bits
    8 Y; ?) W# D) U' j- b) [
  41. Compression mode                         : Lossy9 ?) _/ ^) @" L4 X* s
  42. Stream size                              : 1.40 GiB (26%)
    6 @4 s/ u- B. L. ~6 z8 f
  43. Language                                 : English
    * c! M6 J; x+ a3 u$ N% e# f. T
  44. Default                                  : Yes0 F# W5 U- @# _& E$ R2 l) D: R
  45. Forced                                   : No
    ! P  x1 F4 e  N7 c4 `2 m3 c
  46. 3 n! v# y. a% b) G. l
  47. Text #1: f0 L6 D! s% v3 T# b
  48. ID                                       : 31 O7 t0 D4 W2 W4 u" \2 A) S% F
  49. Format                                   : UTF-80 Q" T' e/ P/ J9 Q
  50. Codec ID                                 : S_TEXT/UTF8
    ; k; R9 y, h  D
  51. Codec ID/Info                            : UTF-8 Plain Text
    . A3 ^! b% J# t+ A0 b
  52. Duration                                 : 2 h 5 min- O5 X- {: B1 n$ F+ F$ c: _2 ?$ S
  53. Bit rate                                 : 50 b/s
    ! Q. E3 x$ S- B
  54. Count of elements                        : 2100
    2 h+ D5 O3 L5 B; E' k5 g
  55. Stream size                              : 46.2 KiB (0%)
    & K% _* X% e+ q, K. O/ b
  56. Language                                 : English
    6 k& H0 ~7 h8 g6 {7 h5 `1 I- z
  57. Default                                  : No4 m4 h6 S/ t% r' \5 A
  58. Forced                                   : No8 Q' `. F9 t) K+ s9 g

  59. ' G4 m/ X2 I, x1 Y: G8 i/ s' p
  60. Text #2( \' n9 F+ `* S& m
  61. ID                                       : 4
    ( G$ Z& J+ T/ D2 A0 k, o1 m! z
  62. Format                                   : UTF-8
    % K. u: L8 V/ d$ |# M7 M
  63. Codec ID                                 : S_TEXT/UTF89 q$ O- G9 K* C% R, l4 b# V& P
  64. Codec ID/Info                            : UTF-8 Plain Text
    : O( f% A) q0 A4 z
  65. Duration                                 : 2 h 7 min
    $ @: u" B) S, H, J, @/ u: V
  66. Bit rate                                 : 53 b/s* _/ [$ f6 n' m+ L9 ?
  67. Count of elements                        : 2301
      X5 @3 d6 T  q# R. c/ u
  68. Stream size                              : 50.4 KiB (0%)  h. H4 p/ n; d
  69. Title                                    : SDH
    7 M4 ?7 u7 l  e7 O
  70. Language                                 : English9 q& f0 B3 ?& E& C% a
  71. Default                                  : No
    5 t0 I- h( `4 p; g/ \% b
  72. Forced                                   : No0 _8 |$ P3 ?( \( `" a2 \2 N

  73. 0 N8 V6 ^6 z( Y) ^
  74. Menu
    $ V" ]3 q2 C* C  K6 `! m& X& K
  75. 00:00:00.000                             : en:Chapter 01
    7 D$ F  E! m5 l( @, l7 G
  76. 00:11:29.272                             : en:Chapter 02
    , I$ ]- J! D: }
  77. 00:23:22.818                             : en:Chapter 03
    9 p! q: p* ?, Q8 Y% F& Y& y
  78. 00:32:00.961                             : en:Chapter 04
    5 N: o$ g. @$ \
  79. 00:40:59.791                             : en:Chapter 05
    & q$ N& _" `! P: |/ [4 d
  80. 00:55:08.305                             : en:Chapter 06
    . f6 P3 F. Q: t
  81. 01:06:43.917                             : en:Chapter 07  A/ D) N4 q) M$ X, ?8 d/ ]4 ?5 A
  82. 01:17:12.628                             : en:Chapter 08
    & K3 w8 [6 @8 A  r# y9 ^% d
  83. 01:26:07.788                             : en:Chapter 09
    ( v0 Q/ C- u' M
  84. 01:39:55.990                             : en:Chapter 100 u' |- v' y" I/ X
  85. 01:52:38.669                             : en:Chapter 11* J- K' L1 e0 O& J0 L8 e
  86. 02:06:48.100                             : en:Chapter 12
复制代码
! q7 b: N! w  f0 o
这个汉子来自疯狂天下 The.Man.Who.Killed.Don.Quixote.2018.720p.BluRay.X264-AMIABLE 5.48GB-2.png
" Z3 @6 y- ?# U2 I- n0 I+ U3 e. n8 t

2 Z/ S! R) k( s
" f  v5 Z# [# A& u* q4 N. R; X6 F) A( ?6 h: G

. V, x  E2 x" _+ c( c$ v; ^! \5 O8 u
VIP会员免费任意下载本站所有资源!---点击开通
回复

使用道具 举报

级别:荣升主角 Lv.5

注册时间
2019-2-3
最后登录
2019-9-21
听众
14
收听
0
主题
0
蓝光币
173 枚
贡献
0 点
发表于 2019-6-10 17:01:52 | 显示全部楼层
楼主发贴辛苦了,谢谢楼主分享!我觉得中国高清电影网是注册对了!
VIP会员免费任意下载本站所有资源!---点击开通
回复

使用道具 举报

级别:荣升主角 Lv.5

注册时间
2018-9-21
最后登录
2019-9-21
听众
16
收听
0
主题
0
蓝光币
671 枚
贡献
0 点
QQ
发表于 2019-6-10 19:32:13 | 显示全部楼层
楼主发贴辛苦了,谢谢楼主分享!我觉得中国高清电影网是注册对了!
VIP会员免费任意下载本站所有资源!---点击开通
回复

使用道具 举报

 成长值: 1720

级别:尊贵的会员

注册时间
2019-6-6
最后登录
2019-9-21
听众
12
收听
0
主题
0
蓝光币
254 枚
贡献
0 点
发表于 2019-6-10 20:02:55 | 显示全部楼层
中国重工业科幻开山即顶峰之作" ?; W1 T% H. D! k
用真心努力付出就有回报~~!!!0 l( O+ J6 k  \! b! z
等出了蓝光碟一定买一套支持~
VIP会员免费任意下载本站所有资源!---点击开通
回复

使用道具 举报

级别:领衔主演 Lv.6

注册时间
2019-4-24
最后登录
2019-9-21
听众
13
收听
0
主题
0
蓝光币
111 枚
贡献
0 点
发表于 2019-6-12 08:23:20 | 显示全部楼层
楼主发贴辛苦了,谢谢楼主分享!我觉得中国高清电影网是注册对了!
VIP会员免费任意下载本站所有资源!---点击开通
回复

使用道具 举报

懒得打字嘛,点击右侧快捷回复 【右侧内容,后台自定义】
您需要登录后才可以回帖 登录 | 立即注册

本版积分规则

QQ|Archiver|手机版|小黑屋| 中国高清网 |网站地图

GMT+8, 2019-9-22 03:14 , Processed in 0.468119 second(s), 42 queries .

Powered by HDchina X3.4

Copyright 2017-2019©HDchina.All right reserved

返回顶部 联系我们