查看: 158|回复: 3

[剧情片] 异教徒之恋/卢纳莎之舞 Dancing.at.Lughnasa.1998.720p.BluRay.x264-GUACAMOLE 3.27GB

[复制链接]

 成长值: 2570

级别:资源管理组

注册时间
2017-10-20
最后登录
2019-9-21
听众
1
收听
0
主题
83026
蓝光币
49781 枚
贡献
7354 点
发表于 2019-6-9 23:05:49 | 显示全部楼层 |阅读模式
异教徒之恋/卢纳莎之舞 Dancing.at.Lughnasa.1998.720p.BluRay.x264-GUACAMOLE 3.27GB-1.png ' Z; k8 B4 k; Y, Z
  ^4 L3 d. g" n% ~0 X
译  名 异教徒之恋 / 卢纳莎之舞1 Y6 W$ A. ?7 d2 I' Z, P9 C
片  名 Dancing at Lughnasa' N% m& q3 T. M& {
年  代 1998" V7 K4 [8 ?* G4 L
产  地 爱尔兰 / 英国 / 美国
; d" V5 l4 X! @: ~  i# M% D  m类  别 剧情/ A, Z2 b! b( W2 K
语  言 英语
- M* Q7 N$ `8 X$ s/ t) ]上映日期 1998-09-04(特柳赖德电影节); w; q9 a" q6 `9 S
IMDb评分  6.3/10 from 3228 users
+ Z8 Y. d9 Z7 pIMDb链接  http://www.imdb.com/title/tt0120643
. ~8 M" ^& N: }. O7 `  y" b' J0 n豆瓣评分 7.1/10 from 107 users+ Q6 e7 q5 b1 {; K; b/ V- }! X/ a
豆瓣链接 https://movie.douban.com/subject/1293944/
& ~7 t. Y1 M5 J' @& D7 Z) q片  长 95分钟
: x2 @+ ^) h' L5 d4 D导  演 帕特·奥康纳 Pat O'Connor! z8 H" X, s7 T1 S( c/ d/ O6 T- v9 e
编  剧 布莱恩·弗里尔 Brian Friel / 弗兰克·麦吉尼斯 Frank McGuinness / 威廉·巴特勒·叶芝 William Butler Yeats; z( Y+ ~+ @7 i1 y) e
主  演 杰拉德·迈克索利 Gerard McSorley$ b2 ~, T  d5 I+ w# B9 S
      梅丽尔·斯特里普 Meryl Streep- h: m) M" N9 H/ K
      迈克尔·刚本 Michael Gambon
4 ?/ T. t8 V) B: _0 L      凯瑟琳·麦克马克 Catherine McCormack+ d( r) d* C, Y* f9 q7 H8 K5 X
      凯西·伯克 Kathy Burke
+ d+ G5 [: _5 c+ y: W  K0 u: y  `      苏菲·汤普森 Sophie Thompson& B! I1 h6 e: n
      布里德·布伦南 Brid Brennan
3 g0 w( b7 P- T2 B. G      瑞斯·伊凡斯 Rhys Ifans
8 V' c3 z# r) Y( y' {; W      Darrell Johnston
+ A5 O, X& h& A: D3 L7 w- d+ ~4 C      罗肯·克兰尼奇 Lorcan Cranitch
+ Z6 D* k- f! N  L" c      约翰·卡瓦纳 John Kavanagh/ Q/ c) E6 _* h; u  L6 k1 l
      Marie Mullen
( X9 s" n$ D# A+ ]- q# T  d      Dawn Bradfield
# `/ n3 f( i: G& O+ a( f- a      Peter Gowen' I7 ~# a5 N9 _# P% W! G
      Kate O'Toole( g: p1 k! o- |9 J

! ]7 c4 r' z- Z3 @* ]* n' f) _
- J1 Q4 l: y$ e1 t. F) n1 ?标  签 MerylStreep | 爱尔兰 | 梅丽尔·斯特里普 | 爱尔兰电影 | 1998 | 英国 | 美国 | Meryl_Streep
$ b' P$ }$ h' f$ S7 |  n: V0 F; \3 B/ l8 N' T- G$ [" l
简  介  
( g. n* B" N/ u8 F- v0 w% C3 O/ J8 [3 z
  Five unmarried sisters make the most of their simple existence in rural Ireland in the 1930s.
) u& L& \5 I1 `3 G
- u5 Z* w" f/ F" |# [! s获奖情况  
4 a) i3 ~" ?) d& J( I4 i9 }5 K4 s% q. {+ l8 X
  第55届威尼斯电影节(1998)
* L+ Q) A/ A# m! Q5 s% i8 C0 T  主比赛单元 金狮奖 (提名) 帕特·奥康纳
* O9 Z( i; {% ]3 R, q, T" u
( O, t' Q! N3 F" b0 W* k+ u+ M! ?& B: U) X( d0 }

9 _% g2 v' F9 p. f/ G
  1. Video
    & s6 H! `9 x# I  Q6 e
  2. ID                                       : 1
    . u3 z4 H6 J- `, E* i+ I3 ]+ m, Z
  3. Format                                   : AVC
    * Q) [3 C7 L* d
  4. Format/Info                              : Advanced Video Codec
    6 U% G+ ~; g' l) L& Q8 w
  5. Format profile                           : <a href="/cdn-cgi/l/email-protection" class="__cf_email__" data-cfemail="2f674648476f631b011e">[email protected]</a>
    ' M' D1 P# d; r
  6. Format settings                          : CABAC / 5 Ref Frames
      \0 j5 U( N3 ^+ S' A4 k& u
  7. Format settings, CABAC                   : Yes
    0 u9 j( @1 s, {) m# {; l
  8. Format settings, ReFrames                : 5 frames
    ( R9 `& ^8 j; g3 r" y$ |
  9. Codec ID                                 : V_MPEG4/ISO/AVC( E( F2 v' o8 M9 }6 Z6 }( ^' D
  10. Duration                                 : 1 h 34 min
    5 E5 s) n. v+ c$ v
  11. Bit rate                                 : 4 294 kb/s8 r7 N/ r1 ^/ C) B7 [2 t' R6 a5 D' D, T
  12. Width                                    : 1 280 pixels
    ! y" T9 P( F6 \1 l! S
  13. Height                                   : 688 pixels0 S# H1 R4 k, [6 @4 `
  14. Display aspect ratio                     : 1.85:1
    3 P9 [; [/ d9 m! _* ]* c: i9 l3 h' a
  15. Frame rate mode                          : Constant+ P% I: }0 _. x9 T3 b' `  l
  16. Frame rate                               : 23.976 (24000/1001) FPS( Q! S$ ~2 z" m5 y8 @4 b/ z
  17. Color space                              : YUV
      ]0 E3 b* O  w+ Y: g9 y
  18. Chroma subsampling                       : 4:2:0
    % C" c/ E+ E% d/ m. E0 c
  19. Bit depth                                : 8 bits
    ( e5 l! n1 i$ @/ S% x; V* l
  20. Scan type                                : Progressive3 a- H) h, T, r+ u# ?2 N. f) z
  21. Bits/(Pixel*Frame)                       : 0.203
    0 Q* B5 b1 j, n; P
  22. Stream size                              : 2.84 GiB (87%)- \, o  u' n2 L0 `7 u; R7 J( s! }, w
  23. Writing library                          : x264 core 157 r2969 d4099dd- A) v/ b' M% u( \  u' A, b2 }
  24. Encoding settings                        : cabac=1 / ref=5 / deblock=1:0:0 / analyse=0x3:0x113 / me=umh / subme=8 / psy=1 / psy_rd=1.00:0.00 / mixed_ref=1 / me_range=16 / chroma_me=1 / trellis=2 / 8x8dct=1 / cqm=0 / deadzone=21,11 / fast_pskip=0 / chroma_qp_offset=-2 / threads=21 / lookahead_threads=3 / sliced_threads=0 / nr=0 / decimate=1 / interlaced=0 / bluray_compat=0 / constrained_intra=0 / bframes=3 / b_pyramid=2 / b_adapt=1 / b_bias=0 / direct=1 / weightb=1 / open_gop=0 / weightp=2 / keyint=250 / keyint_min=23 / scenecut=40 / intra_refresh=0 / rc_lookahead=50 / rc=2pass / mbtree=1 / bitrate=4294 / ratetol=1.0 / qcomp=0.60 / qpmin=0 / qpmax=69 / qpstep=4 / cplxblur=20.0 / qblur=0.5 / ip_ratio=1.40 / aq=1:1.00
    2 o  K+ \, D5 x
  25. Default                                  : Yes
    ! k5 _; B5 Y9 W8 I
  26. Forced                                   : No1 q5 Z# i+ \7 @/ S- w7 C5 G

  27. $ H8 Y3 @6 g' f* t
  28. Audio! ]7 \/ z/ M& d/ W2 h! @
  29. ID                                       : 2+ [- I) {4 Z, V( y4 ^1 \. X" p
  30. Format                                   : AC-3
    2 d7 M+ T3 H& J% Z! ~
  31. Format/Info                              : Audio Coding 3! K' G$ l" ?7 i9 b1 S0 W
  32. Commercial name                          : Dolby Digital
    ; A7 J, s7 `7 _4 l* y
  33. Codec ID                                 : A_AC3  C* `: I; {- g8 h& E! m. e
  34. Duration                                 : 1 h 34 min+ P' r; b8 ]0 W- u. L8 |4 n# o
  35. Bit rate mode                            : Constant
    ! B, L* o9 I9 @. D  a& l+ ]5 ^
  36. Bit rate                                 : 640 kb/s- C) }  g+ B% d' F
  37. Channel(s)                               : 2 channels
    ( g! ^7 E0 K" d1 a9 x) g
  38. Channel layout                           : L R
    1 ^# p" {  t- s) {
  39. Sampling rate                            : 48.0 kHz
    + _+ w  |* M/ Y. y
  40. Frame rate                               : 31.250 FPS (1536 SPF)
    " L. f% ]1 Q2 v% F, z% ^
  41. Bit depth                                : 16 bits
    0 u2 d) H  A7 t- I3 N, ]8 Q! N  M- G7 s
  42. Compression mode                         : Lossy
    ( z; O0 K) o( e% l" A! O! q
  43. Stream size                              : 434 MiB (13%)5 `; W% x' W% C+ P# I( |1 Z
  44. Language                                 : English
    - ]/ g4 S0 T9 U" Q
  45. Service kind                             : Complete Main; X; a: {: |( W+ m
  46. Default                                  : Yes4 D1 y4 H3 `$ Z; w! c! P
  47. Forced                                   : No4 Z6 Q. i8 h6 j2 R$ L

  48. + A# K( e- B4 }, h6 J& Q
  49. Menu
    ( a) u; N( X! S: n. d
  50. 00:00:00.000                             : en:00:00:00.000* ^' W' r) L( \' B
  51. 00:07:54.849                             : en:00:07:54.849
    6 f5 D# x5 X8 H9 y0 G  `3 N
  52. 00:15:20.211                             : en:00:15:20.211
    5 c4 T1 p$ O' p3 C( |0 G
  53. 00:23:35.623                             : en:00:23:35.623
    & r" W7 ?* ~, J3 ]( f: a
  54. 00:29:21.009                             : en:00:29:21.009
    / w) T, i; I" y* |/ p0 Q
  55. 00:36:47.831                             : en:00:36:47.831; k9 {* ?# J2 D6 P( i1 \, B1 q
  56. 00:44:23.035                             : en:00:44:23.035" O5 H- A3 T8 p5 I7 v! \
  57. 00:51:44.893                             : en:00:51:44.893- x" k9 d* N2 t- P$ X' g
  58. 01:00:19.157                             : en:01:00:19.157# S  f+ E' y  z- s2 ?/ ]
  59. 01:08:49.167                             : en:01:08:49.167
    : |- L* ~7 G, A# _/ [- @" c: H- N
  60. 01:15:45.708                             : en:01:15:45.7088 C( |' G3 A8 q7 a; N" Y! w5 ^
  61. 01:21:39.895                             : en:01:21:39.895
复制代码

7 b! l2 U9 I9 N' u5 F 异教徒之恋/卢纳莎之舞 Dancing.at.Lughnasa.1998.720p.BluRay.x264-GUACAMOLE 3.27GB-2.png
0 R! g; }, K9 x+ h( H" y5 s5 F3 n
% R$ K( q* p/ t' }6 I. M" l- s  j% i3 x& b" H# d( @8 m
% \% k) |7 _/ B

; |2 v  U3 N& D0 D) q% n/ f/ l) ^2 U& D7 v& O
3 v4 O! Q/ O- f  z( t$ _: v# G
VIP会员免费任意下载本站所有资源!---点击开通
回复

使用道具 举报

级别:荣升主角 Lv.5

注册时间
2019-2-3
最后登录
2019-9-21
听众
14
收听
0
主题
0
蓝光币
173 枚
贡献
0 点
发表于 2019-6-10 17:02:41 | 显示全部楼层
楼主发贴辛苦了,谢谢楼主分享!我觉得中国高清电影网是注册对了!
VIP会员免费任意下载本站所有资源!---点击开通
回复

使用道具 举报

级别:领衔主演 Lv.6

注册时间
2019-4-24
最后登录
2019-9-21
听众
13
收听
0
主题
0
蓝光币
111 枚
贡献
0 点
发表于 2019-6-12 08:24:02 | 显示全部楼层
楼主发贴辛苦了,谢谢楼主分享!我觉得中国高清电影网是注册对了!
VIP会员免费任意下载本站所有资源!---点击开通
回复

使用道具 举报

级别:初级观众 Lv.1

注册时间
2019-6-13
最后登录
2019-6-13
听众
5
收听
0
主题
0
蓝光币
0 枚
贡献
0 点
发表于 2019-6-13 11:25:12 | 显示全部楼层
- X, X. L& Z9 W/ g: B" B% ~
楼主太厉害了!楼主,电影应该很好看我觉得中国高清电影网真是个好地方!
VIP会员免费任意下载本站所有资源!---点击开通
回复

使用道具 举报

懒得打字嘛,点击右侧快捷回复 【右侧内容,后台自定义】
您需要登录后才可以回帖 登录 | 立即注册

本版积分规则

QQ|Archiver|手机版|小黑屋| 中国高清网 |网站地图

GMT+8, 2019-9-21 21:49 , Processed in 0.267233 second(s), 41 queries .

Powered by HDchina X3.4

Copyright 2017-2019©HDchina.All right reserved

返回顶部 联系我们