查看: 175|回复: 1

[剧情片] 百分之一 Outlaws.2017.720p.BluRay.x264-JustWatch 4.37GB

[复制链接]

 成长值: 2570

级别:资源管理组

注册时间
2017-10-20
最后登录
2019-9-21
听众
1
收听
0
主题
83026
蓝光币
49761 枚
贡献
7354 点
发表于 2019-6-9 11:31:36 | 显示全部楼层 |阅读模式
百分之一 Outlaws.2017.720p.BluRay.x264-JustWatch 4.37GB-1.png , @3 I" ]' `3 L6 v4 ~* _2 ]$ B$ \1 q

' m, P1 p5 i3 G& k- R# }译  名 百分之一 / Outlaws
  B- ]- s5 l* M) q9 f片  名 1%
6 A& d; X' H* O+ B' p4 o$ u# l年  代 2017
7 O2 s& l$ d" g  x' p4 J% n产  地 澳大利亚
& h8 D' b4 `" [- u类  别 剧情 / 犯罪
0 B" ]1 T1 Y' {. A语  言 英语. O, u8 I4 t' c) B( ^
上映日期 2019-02-01(美国)
0 U5 N2 p! [  AIMDb评分  5.5/10 from 404 users, Q5 o  y+ o& O
IMDb链接  http://www.imdb.com/title/tt6301712. E9 g# n6 Q& |5 u
豆瓣评分 0/10 from 0 users7 O  V$ h& M* D1 v2 R
豆瓣链接 https://movie.douban.com/subject/27073253/
" b, [* t$ D& b; k' w, R5 Y片  长 92分钟
1 Q2 b3 v* D( d  ~# [0 ?导  演 斯蒂芬·麦卡勒姆 Stephen McCallum! E/ k! Q( k* E" |2 `
编  剧 马特·纳夫莱 Matt Nable
. ~, ~, Z4 v( d" x: ?主  演 阿比·丽 Abbey Lee
+ M* B0 z" S5 Q5 J      马特·纳夫莱 Matt Nable* w& o8 R  C8 B% W$ j; x
      瑞安·柯尔 Ryan Corr
2 i8 [! E+ R/ y/ v" h* p$ h- |4 u3 k      萨姆·帕尔森森 Sam Parsonson' H1 t9 @6 C, C- K- O) J
      Eddie Baroo
: d4 t0 y' F+ q1 k* r, F6 g, Q% E: |; p4 J: M' B5 ?3 \! a: F
6 Q: t3 }/ s3 n2 y! P
标  签 2017 | 美国 | 犯罪 | 电影 | 剧情 | LFF | BFI6 _0 c9 ?" D- ]/ o, w/ _

* x4 N# G1 i$ D+ \( E: @5 Y简  介  
/ n) w& V, m# x7 W2 E# W0 u! K) ?
% P' a3 }1 ], O" }$ F  1% is set within the primal underworld of outlaw motorcycle club gangs. It follows the heir to the throne of a motorcycle club who has to betray his president to save his brother's life.
- S6 @5 b( S+ M! s# A! r2 e
7 c. F% J. x3 g* x
  1. Video
    ( I4 b) O( A/ ^6 U7 c5 W: p3 w) b
  2. ID                                       : 1
    1 [% k: }/ C6 Q# h# B$ z7 B8 E7 I8 x
  3. Format                                   : AVC
    8 O) k0 k& @0 [) G* N
  4. Format/Info                              : Advanced Video Codec& }& C/ g' E: a, @& L" p
  5. Format profile                           : <a href="/cdn-cgi/l/email-protection" class="__cf_email__" data-cfemail="e3ab8a848ba3afd7cdd2">[email protected]</a>. C% q  W& @& o! i
  6. Format settings                          : CABAC / 5 Ref Frames4 D3 n+ Y9 v/ D. v) y3 d9 }
  7. Format settings, CABAC                   : Yes
    ) C: E- k  ~! x' b, c3 |
  8. Format settings, ReFrames                : 5 frames; s" k9 l1 F  }) N. H
  9. Codec ID                                 : V_MPEG4/ISO/AVC
    ( u8 ~. j& U) K6 ~4 m
  10. Duration                                 : 1 h 33 min* `$ J8 \) f  K' F! r
  11. Bit rate                                 : 5 198 kb/s: @; ~& J0 ^6 L- H* R  x
  12. Width                                    : 1 280 pixels4 d0 q$ U7 N+ X0 x
  13. Height                                   : 536 pixels
    ( a0 Z4 ]& Z( Z1 t" ?* I! e  K
  14. Display aspect ratio                     : 2.40:1
    ; T( l1 O, z( d9 t5 H8 p, m3 c
  15. Frame rate mode                          : Constant
    ) I# F; O- y' x+ b* p6 i! T
  16. Frame rate                               : 23.976 (24000/1001) FPS, s1 v' P1 x3 ?% i% ?8 E
  17. Color space                              : YUV
    . r2 I4 h: q# }# |) F; [
  18. Chroma subsampling                       : 4:2:0& M) e* z) h7 S" y
  19. Bit depth                                : 8 bits
    & W- c  _  I+ M  Z
  20. Scan type                                : Progressive
    # k: v6 D! L0 V. k. x
  21. Bits/(Pixel*Frame)                       : 0.316
    ( ?. Z$ p$ M$ `) j# \1 n
  22. Stream size                              : 3.30 GiB (76%)
    : _* t) C9 D% F1 |1 T. ~
  23. Writing library                          : x264 core 157 r2969 d4099dd
    1 ~8 W0 u# s# y# p: y* Z5 u
  24. Encoding settings                        : cabac=1 / ref=5 / deblock=1:-2:-2 / analyse=0x3:0x113 / me=umh / subme=8 / psy=1 / psy_rd=1.00:0.00 / mixed_ref=1 / me_range=16 / chroma_me=1 / trellis=2 / 8x8dct=1 / cqm=0 / deadzone=21,11 / fast_pskip=1 / chroma_qp_offset=-2 / threads=17 / lookahead_threads=2 / sliced_threads=0 / nr=0 / decimate=1 / interlaced=0 / bluray_compat=0 / constrained_intra=0 / bframes=3 / b_pyramid=2 / b_adapt=2 / b_bias=0 / direct=3 / weightb=1 / open_gop=0 / weightp=2 / keyint=240 / keyint_min=24 / scenecut=40 / intra_refresh=0 / rc_lookahead=50 / rc=2pass / mbtree=1 / bitrate=5198 / ratetol=1.0 / qcomp=0.60 / qpmin=0 / qpmax=69 / qpstep=4 / cplxblur=20.0 / qblur=0.5 / ip_ratio=1.40 / aq=1:1.00
    : E+ g: v+ m6 U9 f9 Y
  25. Language                                 : English0 ]4 K# u1 ?+ `  d- A) N1 u
  26. Default                                  : Yes
    # m- r) A1 H1 U  q2 l1 s7 d- Z2 z
  27. Forced                                   : No* R3 L% g! e' ~: |, g& x

  28. 3 r4 H" F) J4 M
  29. Audio2 c/ g. ~0 a5 O& Q* x' u
  30. ID                                       : 2) u% C/ z" C% ]
  31. Format                                   : DTS# J6 J7 p- I4 n( R3 f
  32. Format/Info                              : Digital Theater Systems
    7 k( i$ `. L6 @7 A4 G& s
  33. Codec ID                                 : A_DTS
    9 j& t, B  J/ k+ x
  34. Duration                                 : 1 h 33 min! L* _1 S8 W7 I1 o/ G
  35. Bit rate mode                            : Constant* k3 }3 p+ l' ^5 n* q9 ?
  36. Bit rate                                 : 1 509 kb/s8 J  M1 }  {$ m+ [: A) U
  37. Channel(s)                               : 6 channels# t! h$ d, g3 a! b6 R
  38. Channel layout                           : C L R Ls Rs LFE. d4 U3 F+ l. |2 M- k( `
  39. Sampling rate                            : 48.0 kHz
    / D( z6 H, E; O2 V& s
  40. Frame rate                               : 93.750 FPS (512 SPF)
    3 Q9 E" z% K& }+ u+ J/ Z/ J; G
  41. Bit depth                                : 24 bits
    3 }/ s1 u$ y* a- T
  42. Compression mode                         : Lossy
    ' t$ V& ?# ?8 s) j9 \3 i# S+ T
  43. Stream size                              : 1 007 MiB (22%)9 F: z# ~2 x" G- p* n& f  k
  44. Language                                 : English
    8 q  x" D% S( M* N, p1 S
  45. Default                                  : Yes; O6 S$ k) f- G; F0 P  Y- \  w4 L- `, E3 g
  46. Forced                                   : No
    ) Z  K9 j7 M; g  o  W! W
  47. 3 w2 [2 u% w3 h, x
  48. Menu
    ; u" F" B& T; \
  49. 00:00:00.000                             : en:00:00:00.000
    1 u1 P! m0 a9 U1 G
  50. 00:08:57.120                             : en:00:08:57.120
    - }( N! ^+ Y0 H& }& a8 m
  51. 00:15:32.598                             : en:00:15:32.598/ b5 w% r! ~! Q* `% ]
  52. 00:23:15.894                             : en:00:23:15.894- q' s3 G/ f0 V+ L: z
  53. 00:34:10.298                             : en:00:34:10.298
    # F) o* @. @0 w3 f4 i5 g
  54. 00:40:16.706                             : en:00:40:16.706; Z  A8 R' N: Z6 {- }
  55. 00:48:10.679                             : en:00:48:10.679- L' V: g: {! q' [3 y4 i, C2 \
  56. 00:55:20.859                             : en:00:55:20.859
    3 G# j, h: e1 o0 M5 b+ l5 c
  57. 01:04:13.933                             : en:01:04:13.933
    7 {$ {& @4 T# r& V* _& }
  58. 01:12:25.132                             : en:01:12:25.132
    * P* |: g) p: C- V& L" K8 q
  59. 01:25:50.103                             : en:01:25:50.103- Z4 z6 W, _3 a& q- n* _
  60. 01:28:07.240                             : en:01:28:07.240
复制代码

! I5 a  y9 R% L1 T 百分之一 Outlaws.2017.720p.BluRay.x264-JustWatch 4.37GB-2.png
! s. E; Q+ t: S; {0 E$ C% y. A" W
$ H+ U6 [5 A" e! ^- S  e- k; H

% j+ f% S+ w3 _: g
2 @+ `! E' X2 u" K: c7 x
# \7 |. V/ b( p" N
VIP会员免费任意下载本站所有资源!---点击开通
回复

使用道具 举报

级别:领衔主演 Lv.6

注册时间
2019-4-24
最后登录
2019-9-21
听众
13
收听
0
主题
0
蓝光币
111 枚
贡献
0 点
发表于 2019-6-12 08:25:23 | 显示全部楼层
楼主发贴辛苦了,谢谢楼主分享!我觉得中国高清电影网是注册对了!
VIP会员免费任意下载本站所有资源!---点击开通
回复

使用道具 举报

懒得打字嘛,点击右侧快捷回复 【右侧内容,后台自定义】
您需要登录后才可以回帖 登录 | 立即注册

本版积分规则

QQ|Archiver|手机版|小黑屋| 中国高清网 |网站地图

GMT+8, 2019-9-21 21:12 , Processed in 0.263906 second(s), 41 queries .

Powered by HDchina X3.4

Copyright 2017-2019©HDchina.All right reserved

返回顶部 联系我们