查看: 199|回复: 1

[动作片] 失陷猩球/人猿世界 Beneath.The.Planet.Of.The.Apes.1970.1080p.BluRay.x264-CLASSiC 7.93GB

[复制链接]

 成长值: 2570

级别:资源管理组

注册时间
2017-10-20
最后登录
2019-9-21
听众
1
收听
0
主题
83026
蓝光币
49769 枚
贡献
7354 点
发表于 2019-6-8 22:31:07 | 显示全部楼层 |阅读模式
沦陷猩球/人猿天下 Beneath.The.Planet.Of.The.Apes.1970.1080p.BluRay.x264-CLASSiC 7.93GB-1.png

译  名 沦陷猩球 / 人猿天下 / 人猿星球2 / 奇异大战争
片  名 Beneath the Planet of the Apes
年  代 1970
产  地 美国
类  别 行动 / 科幻
语  言 英语
上映日期 1970-05-01
IMDb评分  6.1/10 from 38875 users
IMDb链接  http://www.imdb.com/title/tt0065462
豆瓣评分 6.4/10 from 3716 users
豆瓣链接 https://movie.douban.com/subject/1294934/
片  长 95 分钟
导  演 泰德·珀斯特 Ted Post
编  剧 莫特·亚伯拉罕斯 Mort Abrahams / Paul Dehn
主  演 詹姆斯·弗朗西斯 James Franciscus
      金·亨特 Kim Hunter
      Maurice Evans
      琳达·哈里逊 Linda Harrison
      查尔登·海斯顿 Charlton Heston
      Paul Richards
      维克多·布鲁诺 Victor Buono
      James Gregory
      Jeff Corey
      纳塔丽·特伦黛 Natalie Trundy
      Thomas Gomez
      Delmar Watson
      Don Pedro Colley
      Tod Andrews
      Gregory Sierra


标  签 科幻 | 美国 | 人猿星球系列 | 1970 | 美国电影 | 人猿星球 | 末世 | 典范

简  介  

  1968年 乔治的飞船误入两千年后的地球并失事,在善良的猿族 佳耦兹瑞和考尼斯的帮助下,他逃出了猿族的缧绁,但猿族首领佐斯博士并没筹算放过他》(Beneath the Planet of the Apes) 1970年 前来搜寻乔治的飞船再次失事在星球上新加入的战友和乔治联手去阻止猿族对人类的杀戮....

  1. Video
  2. ID                                       : 1
  3. Format                                   : AVC
  4. Format/Info                              : Advanced Video Codec
  5. Format profile                           : <a href="/cdn-cgi/l/email-protection" class="__cf_email__" data-cfemail="89c1e0eee1c9c5bda7b8">[email protected]</a>
  6. Format settings, CABAC                   : Yes
  7. Format settings, ReFrames                : 5 frames
  8. Codec ID                                 : V_MPEG4/ISO/AVC
  9. Duration                                 : 1 h 34 min
  10. Bit rate                                 : 10.5 Mb/s
  11. Width                                    : 1 920 pixels
  12. Height                                   : 816 pixels
  13. Display aspect ratio                     : 2.35:1
  14. Frame rate mode                          : Constant
  15. Frame rate                               : 23.976 FPS
  16. Color space                              : YUV
  17. Chroma subsampling                       : 4:2:0
  18. Bit depth                                : 8 bits
  19. Scan type                                : Progressive
  20. Bits/(Pixel*Frame)                       : 0.279
  21. Stream size                              : 6.77 GiB (85%)
  22. Writing library                          : x264 core 67 r1127 8d82fec
  23. Encoding settings                        : cabac=1 / ref=5 / deblock=1:0:0 / analyse=0x3:0x133 / me=umh / subme=7 / psy_rd=1.0:0.0 / mixed_ref=1 / me_range=16 / chroma_me=1 / trellis=1 / 8x8dct=1 / cqm=0 / deadzone=21,11 / chroma_qp_offset=-2 / threads=6 / nr=0 / decimate=1 / mbaff=0 / bframes=3 / b_pyramid=1 / b_adapt=1 / b_bias=0 / direct=1 / wpredb=1 / keyint=250 / keyint_min=25 / scenecut=40 / rc=2pass / bitrate=10474 / ratetol=1.0 / qcomp=0.60 / qpmin=10 / qpmax=51 / qpstep=4 / cplxblur=20.0 / qblur=0.5 / ip_ratio=1.40 / pb_ratio=1.30 / aq=1:1.00
  24. Language                                 : English
  25. Default                                  : Yes
  26. Forced                                   : No

  27. Audio
  28. ID                                       : 2
  29. Format                                   : DTS
  30. Format/Info                              : Digital Theater Systems
  31. Mode                                     : 16
  32. Format settings, Endianness              : Big
  33. Codec ID                                 : A_DTS
  34. Duration                                 : 1 h 34 min
  35. Bit rate mode                            : Constant
  36. Bit rate                                 : 1 509 kb/s
  37. Channel(s)                               : 6 channels
  38. Channel positions                        : Front: L C R, Side: L R, LFE
  39. Sampling rate                            : 48.0 kHz
  40. Frame rate                               : 93.750 FPS (512 spf)
  41. Bit depth                                : 24 bits
  42. Compression mode                         : Lossy
  43. Stream size                              : 1 022 MiB (13%)
  44. Language                                 : English
  45. Default                                  : Yes
  46. Forced                                   : No

  47. Text
  48. ID                                       : 3
  49. Format                                   : UTF-8
  50. Codec ID                                 : S_TEXT/UTF8
  51. Codec ID/Info                            : UTF-8 Plain Text
  52. Language                                 : English
  53. Default                                  : Yes
  54. Forced                                   : No
复制代码

沦陷猩球/人猿天下 Beneath.The.Planet.Of.The.Apes.1970.1080p.BluRay.x264-CLASSiC 7.93GB-4.png 沦陷猩球/人猿天下 Beneath.The.Planet.Of.The.Apes.1970.1080p.BluRay.x264-CLASSiC 7.93GB-5.png 沦陷猩球/人猿天下 Beneath.The.Planet.Of.The.Apes.1970.1080p.BluRay.x264-CLASSiC 7.93GB-6.png 沦陷猩球/人猿天下 Beneath.The.Planet.Of.The.Apes.1970.1080p.BluRay.x264-CLASSiC 7.93GB-7.png






VIP会员免费任意下载本站所有资源!---点击开通
回复

使用道具 举报

级别:初级观众 Lv.1

注册时间
2019-6-12
最后登录
2019-6-12
听众
5
收听
0
主题
0
蓝光币
0 枚
贡献
0 点
发表于 2019-6-12 10:22:19 | 显示全部楼层
很不错  哈哈哈哈
VIP会员免费任意下载本站所有资源!---点击开通
回复

使用道具 举报

懒得打字嘛,点击右侧快捷回复 【右侧内容,后台自定义】
您需要登录后才可以回帖 登录 | 立即注册

本版积分规则

QQ|Archiver|手机版|小黑屋| 中国高清网 |网站地图

GMT+8, 2019-9-21 21:21 , Processed in 9.329566 second(s), 41 queries .

Powered by HDchina X3.4

Copyright 2017-2019©HDchina.All right reserved

返回顶部 联系我们