查看: 628|回复: 8

[爱情片] 女友的妈妈.My Girlfriend's Mother.2017.KR.WEB-DL.1920x1080p.x264.AAC-KOOK.[韩语中字

[复制链接]

 成长值: 2580

级别:资源管理组

注册时间
2017-10-20
最后登录
2019-9-22
听众
1
收听
0
主题
83026
蓝光币
49846 枚
贡献
7354 点
发表于 2019-3-12 23:33:11 | 显示全部楼层 |阅读模式
女友的妈妈.My Girlfriend's Mother.2017.KR.WEB-DL.1920x1080p.x264.AAC-KOOK.[韩语中字] 3GB
无广告,无水印
不按时做种,保证出种,请耐心期待.
女友的妈妈.My Girlfriend's Mother.2017.KR.WEB-DL.1920x1080p.x264.AAC-KOOK.[韩语中字-1.jpg
※※※※※※※ 影片信息 ※※※※※※※

片   名 女友的妈妈
译   名 My Girlfriend's Mother
年   代 2017
国   家 韩国
类   别 情色
语   言 韩语
上映日 期 2017-07-06(韩国)
字   幕 简体字幕/繁体字幕
豆瓣 评分  5.3/10 from  users
视频尺 寸  1920x1080p
片   长 1.18.55
主   演 安昭希

#406


简  介



     承受不了房租的庆俊,他女朋友的聪明不幸他无家可归,让他来是自己家住吧。但聪明之家里的后母是庆俊的初恋.....在一个屋檐下,总是碰到她,就会再一次心动....



※※※※※※※ 参数信息 ※※※※※※※



  1. General
  2. Unique ID : 241960656925167850689541218611541559662 (0xB607ED6D99055208BC2056E2B127C96E)

  3. Format : Matroska
  4. Format version : Version 4 / Version 2
  5. File size : 3.01 GiB
  6. Duration : 1 h 18 min
  7. Overall bit rate mode : Variable
  8. Overall bit rate : 5 459 kb/s
  9. Movie name : KOOK
  10. Encoded date : UTC 2019-03-08 15:37:14
  11. Writing application : mkvmerge v9.4.2 ('So High') 64bit
  12. Writing library : libebml v1.3.4 + libmatroska v1.4.5
  13. Attachments : 正式海报.jpg / fzlbfw.ttf / fzlbjw.ttf

  14. Video
  15. ID : 1
  16. Format : AVC
  17. Format/Info : Advanced Video Codec
  18. Format profile : [email protected]
  19. Format settings, CABAC : Yes
  20. Format settings, ReFrames : 3 frames
  21. Codec ID : V_MPEG4/ISO/AVC
  22. Duration : 1 h 18 min
  23. Bit rate mode : Variable
  24. Bit rate : 5 120 kb/s
  25. Maximum bit rate : 35.8 Mb/s
  26. Width : 1 920 pixels
  27. Height : 1 080 pixels
  28. Display aspect ratio : 16:9
  29. Frame rate mode : Constant
  30. Frame rate : 59.940 (60000/1001) FPS
  31. Color space : YUV
  32. Chroma subsampling : 4:2:0
  33. Bit depth : 8 bits
  34. Scan type : Progressive
  35. Bits/(Pixel*Frame) : 0.041
  36. Stream size : 2.82 GiB (94%)
  37. Writing library : x264 core 142
  38. Encoding settings : cabac=1 / ref=3 / deblock=1:0:0 / analyse=0x3:0x113 / me=umh / subme=8 / psy=1 / psy_rd=1.00:0.00 / mixed_ref=1 / me_range=16 / chroma_me=1 / trellis=1 / 8x8dct=1 / cqm=0 / deadzone=21,11 / fast_pskip=1 / chroma_qp_offset=-2 / threads=16 / lookahead_threads=2 / sliced_threads=0 / nr=0 / decimate=1 / interlaced=0 / bluray_compat=0 / constrained_intra=0 / bframes=1 / b_pyramid=0 / b_adapt=2 / b_bias=0 / direct=3 / weightb=1 / open_gop=0 / weightp=2 / keyint=250 / keyint_min=25 / scenecut=40 / intra_refresh=0 / rc_lookahead=50 / rc=2pass / mbtree=1 / bitrate=5120 / ratetol=1.0 / qcomp=0.60 / qpmin=0 / qpmax=69 / qpstep=4 / cplxblur=20.0 / qblur=0.5 / vbv_maxrate=35840 / vbv_bufsize=35840 / nal_hrd=vbr / filler=0 / ip_ratio=1.40 / aq=1:1.00
  39. Default : Yes
  40. Forced : No

  41. Audio
  42. ID : 2
  43. Format : AAC
  44. Format/Info : Advanced Audio Codec
  45. Format profile : LC
  46. Codec ID : A_AAC
  47. Duration : 1 h 18 min
  48. Bit rate : 320 kb/s
  49. Channel(s) : 2 channels
  50. Channel positions : Front: L R
  51. Sampling rate : 48.0 kHz
  52. Frame rate : 46.875 FPS (1024 spf)
  53. Compression mode : Lossy
  54. Delay relative to video : -42 ms
  55. Stream size : 181 MiB (6%)
  56. Default : Yes
  57. Forced : No

  58. Text #1
  59. ID : 3
  60. Format : ASS
  61. Codec ID : S_TEXT/ASS
  62. Codec ID/Info : Advanced Sub Station Alpha
  63. Duration : 1 h 17 min
  64. Bit rate : 43 b/s
  65. Count of elements : 419
  66. Compression mode : Lossless
  67. Stream size : 24.5 KiB (0%)
  68. Title : 简体字幕
  69. Language : Chinese
  70. Default : Yes
  71. Forced : No

  72. Text #2
  73. ID : 4
  74. Format : ASS
  75. Codec ID : S_TEXT/ASS
  76. Codec ID/Info : Advanced Sub Station Alpha
  77. Duration : 1 h 17 min
  78. Bit rate : 43 b/s
  79. Count of elements : 419
  80. Compression mode : Lossless
  81. Stream size : 24.5 KiB (0%)
  82. Title : 繁体字幕
  83. Language : Chinese
  84. Default : No
  85. Forced : No
复制代码







VIP会员免费任意下载本站所有资源!---点击开通
回复

使用道具 举报

级别:普通观众 Lv.2

注册时间
2018-12-1
最后登录
2019-4-5
听众
8
收听
0
主题
0
蓝光币
23 枚
贡献
0 点
发表于 2019-3-20 20:02:09 | 显示全部楼层
应该不错,谢谢楼主
VIP会员免费任意下载本站所有资源!---点击开通
回复

使用道具 举报

级别:普通观众 Lv.2

注册时间
2018-6-3
最后登录
2019-5-24
听众
9
收听
0
主题
0
蓝光币
73 枚
贡献
0 点
QQ
发表于 2019-3-20 21:03:51 | 显示全部楼层

其实我一直觉得楼主的品味不错!呵呵!中国高清电影网太棒了!
VIP会员免费任意下载本站所有资源!---点击开通
回复

使用道具 举报

级别:群众演员 Lv.3

注册时间
2019-2-20
最后登录
2019-8-21
听众
11
收听
0
主题
0
蓝光币
189 枚
贡献
0 点
QQ
发表于 2019-3-20 21:40:37 | 显示全部楼层

这个帖子不回对不起自己!我想我是一天也不能离开中国高清电影网
VIP会员免费任意下载本站所有资源!---点击开通
回复

使用道具 举报

级别:群众演员 Lv.3

注册时间
2019-6-7
最后登录
2019-9-21
听众
10
收听
0
主题
0
蓝光币
132 枚
贡献
0 点
QQ
发表于 2019-6-12 09:39:12 | 显示全部楼层
请问有没有这部韩语中字名字也叫女的妈妈
20170313094621940.jpg
VIP会员免费任意下载本站所有资源!---点击开通
回复

使用道具 举报

级别:专业龙套 Lv.4

注册时间
2019-1-23
最后登录
2019-9-19
听众
15
收听
0
主题
0
蓝光币
518 枚
贡献
0 点
发表于 2019-6-12 10:53:40 | 显示全部楼层
有没有这部韩语中字名字也叫女的妈妈
VIP会员免费任意下载本站所有资源!---点击开通
回复

使用道具 举报

级别:初级观众 Lv.1

注册时间
2019-2-17
最后登录
2019-6-13
听众
9
收听
0
主题
0
蓝光币
1 枚
贡献
0 点
QQ
发表于 2019-6-12 13:51:29 | 显示全部楼层
谢谢分享 谢谢分享
VIP会员免费任意下载本站所有资源!---点击开通
回复

使用道具 举报

级别:初级观众 Lv.1

注册时间
2019-2-17
最后登录
2019-6-13
听众
9
收听
0
主题
0
蓝光币
1 枚
贡献
0 点
QQ
发表于 2019-6-12 13:52:08 | 显示全部楼层
谢谢分享 谢谢分享
VIP会员免费任意下载本站所有资源!---点击开通
回复

使用道具 举报

级别:初级观众 Lv.1

注册时间
2019-2-17
最后登录
2019-6-13
听众
9
收听
0
主题
0
蓝光币
1 枚
贡献
0 点
QQ
发表于 2019-6-12 13:52:40 | 显示全部楼层
谢谢分享 谢谢分享
VIP会员免费任意下载本站所有资源!---点击开通
回复

使用道具 举报

懒得打字嘛,点击右侧快捷回复 【右侧内容,后台自定义】
您需要登录后才可以回帖 登录 | 立即注册

本版积分规则

QQ|Archiver|手机版|小黑屋| 中国高清网 |网站地图

GMT+8, 2019-9-22 03:11 , Processed in 0.298760 second(s), 48 queries .

Powered by HDchina X3.4

Copyright 2017-2019©HDchina.All right reserved

返回顶部 联系我们