查看: 550|回复: 6

[10bit.SDR] 美国队长 Captain.America.The.First.Avenger.2011.2160p.BluRay.x265.10bit.SDR.DTS-SWTYBLZ 28GB

[复制链接]

 成长值: 2220

级别:资源管理组

注册时间
2017-10-20
最后登录
2019-8-19
听众
1
收听
0
主题
80809
蓝光币
42337 枚
贡献
5136 点
发表于 2019-2-27 23:41:49 | 显示全部楼层 |阅读模式
美国队长 Captain.America.The.First.Avenger.2011.2160p.BluRay.x265.10bit.SDR.DTS-SWTYBLZ 28GB-1.jpg
译  名 美国队长 / 复仇者先锋
片  名 Captain America: The First Avenger
年  代 2011
产  地 美国
类  别 行动 / 科幻 / 冒险
语  言 英语 / 挪威语 / 法语
上映日期 2011-07-19(加州首映) / 2011-07-22(美国) / 2011-09-09(中国大陆)
IMDb评分 6.9/10 from 638631 users
IMDb链接 http://www.imdb.com/title/tt0458339
豆瓣评分 6.8/10 from 210488 users
豆瓣链接 https://movie.douban.com/subject/2138838/
片  长 124分钟(美国)
导  演 乔·庄斯顿 Joe Johnston
编  剧 克里斯托弗·马库斯 Christopher Markus / 斯蒂芬·麦克菲利 Stephen McFeely / Joe Simon / Jack Kirby
主  演 克里斯·埃文斯 Chris Evans
      海莉·阿特维尔 Hayley Atwell
      塞巴斯蒂安·斯坦 Sebastian Stan
      汤米·李·琼斯 Tommy Lee Jones
      雨果·维文 Hugo Weaving
      多米尼克·库珀 Dominic Cooper
      理查德·阿米蒂奇 Richard Armitage
      斯坦利·图齐 Stanley Tucci
      塞缪尔·杰克逊 Samuel L. Jackson
      托比·琼斯 Toby Jones
      尼尔·麦克唐纳 Neal McDonough
      德里克·卢克 Derek Luke
      肯尼斯·崔 Kenneth Choi
      约翰·约瑟夫·菲尔德 JJ Feild



简  介

  上世纪40年月,纳粹及其邪恶轴心的烽火烧遍天下各个角落。居住在布鲁克林的小个子史蒂夫·罗格斯(克里斯·埃文斯 Chris Evans 饰)心系国家,一心上阵杀敌,可是糟糕的体魄让他始终被征兵办拒之门外。偶然的机遇,在德籍科学家厄斯金博士(Stanley Tucci 饰)的帮助下,这个小个子男孩得以走入军营,并接管了博士的实验,化身成为高峻硬朗、体力过人的超级战士。与此同时,德国纳粹红骷髅军队的首领约翰·施密特(雨果·维文 Hugo Weaving 饰)依靠超自然的气力建立起一支超级战队,诡计称霸全天下。
为了救援好友,史蒂夫以美国队长的形象闯入施密特的军营,正邪两大超级战士的战役就此展开……

获奖情况

  第21届MTV电影奖(2012)
  MTV电影奖 最好豪杰形象(提名) 克里斯·埃文斯

  第11届凤凰城影评人协会奖(2011)
  最好原创歌曲(提名) David Zippel / 艾伦·曼肯

  第14届美国青少年挑选奖(2012)
  最好电影打架(提名) 雨果·维文 / 克里斯·埃文斯

  第13届美国青少年挑选奖(2011)
  最好暑期电影(提名)
  最好暑期电影男演员(提名) 克里斯·埃文斯

  第2届豆瓣电影鑫像奖(2012)
  豆渣单元 最渣导演(外语)(提名) 乔·庄斯顿
  豆渣单元 最渣男演员(外语)(提名) 克里斯·埃文斯

  1. <p>Video
  2. ID : 1
  3. Format : HEVC
  4. Format/Info : High Efficiency Video Coding
  5. Format profile : Main <a href="/cdn-cgi/l/email-protection" class="__cf_email__" data-cfemail="5564651519607b64">[email protected]</a>@High
  6. Codec ID : V_MPEGH/ISO/HEVC
  7. Duration : 2 h 4 min
  8. Bit rate : 22.7 Mb/s
  9. Width : 3 840 pixels
  10. Height : 1 600 pixels
  11. Display aspect ratio : 2.40:1
  12. Frame rate mode : Constant
  13. Frame rate : 23.976 (24000/1001) FPS
  14. Color space : YUV
  15. Chroma subsampling : 4:2:0
  16. Bit depth : 10 bits
  17. Bits/(Pixel*Frame) : 0.154
  18. Stream size : 19.7 GiB (70%)
  19. Title : Captain.America.The.First.Avenger.2011.2160p.BluRay.x265.10bit.SDR.DTS-HD.MA.TrueHD.7.1.Atmos-SWTYBLZ
  20. Writing library : x265 3.0 1-ed72af837053:[Windows][GCC 8.2.0][64 bit] 10bit
  21. Encoding settings : cpuid=1111039 / frame-threads=16 / numa-pools=16,16 / wpp / no-pmode / no-pme / no-psnr / no-ssim / log-level=2 / input-csp=1 / input-res=3840x1600 / interlace=0 / total-frames=178627 / level-idc=51 / high-tier=1 / uhd-bd=0 / ref=3 / no-allow-non-conformance / repeat-headers / annexb / aud / hrd / info / hash=0 / no-temporal-layers / no-open-gop / min-keyint=1 / keyint=24 / gop-lookahead=0 / bframes=4 / b-adapt=2 / b-pyramid / bframe-bias=0 / rc-lookahead=25 / lookahead-slices=4 / scenecut=40 / radl=0 / no-splice / no-intra-refresh / ctu=64 / min-cu-size=8 / no-rect / no-amp / max-tu-size=32 / tu-inter-depth=1 / tu-intra-depth=1 / limit-tu=0 / rdoq-level=0 / dynamic-rd=0.00 / no-ssim-rd / signhide / no-tskip / nr-intra=0 / nr-inter=0 / no-constrained-intra / strong-intra-smoothing / max-merge=2 / limit-refs=3 / no-limit-modes / me=1 / subme=2 / merange=57 / temporal-mvp / weightp / no-weightb / no-analyze-src-pics / deblock=0:0 / no-sao / no-sao-non-deblock / rd=3 / no-early-skip / rskip / no-fast-intra / no-tskip-fast / no-cu-lossless / no-b-intra / no-splitrd-skip / rdpenalty=0 / psy-rd=2.00 / psy-rdoq=0.00 / no-rd-refine / no-lossless / cbqpoffs=0 / crqpoffs=0 / rc=crf / crf=16.0 / qcomp=0.60 / qpstep=4 / stats-write=0 / stats-read=0 / vbv-maxrate=160000 / vbv-bufsize=160000 / vbv-init=0.9 / crf-max=0.0 / crf-min=0.0 / ipratio=1.40 / pbratio=1.30 / aq-mode=1 / aq-strength=1.00 / cutree / zone-count=0 / no-strict-cbr / qg-size=32 / no-rc-grain / qpmax=69 / qpmin=0 / no-const-vbv / sar=1 / overscan=0 / videoformat=5 / range=0 / colorprim=2 / transfer=2 / colormatrix=2 / chromaloc=0 / display-window=0 / max-cll=0,0 / min-luma=0 / max-luma=1023 / log2-max-poc-lsb=8 / vui-timing-info / vui-hrd-info / slices=1 / opt-qp-pps / opt-ref-list-length-pps / no-multi-pass-opt-rps / scenecut-bias=0.05 / no-opt-cu-delta-qp / no-aq-motion / no-hdr / no-hdr-opt / no-dhdr10-opt / no-idr-recovery-sei / analysis-reuse-level=5 / scale-factor=0 / refine-intra=0 / refine-inter=0 / refine-mv=0 / refine-ctu-distortion=0 / no-limit-sao / ctu-info=0 / no-lowpass-dct / refine-analysis-type=0 / copy-pic=1 / max-ausize-factor=1.0 / no-dynamic-refine / no-single-sei / no-hevc-aq / qp-adaptation-range=1.00
  22. Default : Yes
  23. Forced : No

  24. Audio #1
  25. ID : 2
  26. Format : MLP FBA 16-ch
  27. Format/Info : Meridian Lossless Packing FBA with 16-channel presentation
  28. Commercial name : Dolby TrueHD with Dolby Atmos
  29. Codec ID : A_TRUEHD
  30. Duration : 2 h 4 min
  31. Bit rate mode : Variable
  32. Bit rate : 4 734 kb/s
  33. Maximum bit rate : 7 644 kb/s
  34. Channel(s) : 8 channels
  35. Channel layout : L R C LFE Ls Rs Lb Rb
  36. Sampling rate : 48.0 kHz
  37. Frame rate : 1 200.000 FPS (40 SPF)
  38. Compression mode : Lossless
  39. Delay relative to video : 15 ms
  40. Stream size : 4.11 GiB (15%)
  41. Title : Captain.America.The.First.Avenger.2011.2160p.BluRay.x265.10bit.SDR.DTS-HD.MA.TrueHD.7.1.Atmos-SWTYBLZ
  42. Language : English
  43. Default : Yes
  44. Forced : No
  45. Number of dynamic objects : 13
  46. Bed channel count : 1 channel
  47. Bed channel configuration : LFE

  48. Audio #2
  49. ID : 3
  50. Format : DTS XLL
  51. Format/Info : Digital Theater Systems
  52. Commercial name : DTS-HD Master Audio
  53. Codec ID : A_DTS
  54. Duration : 2 h 4 min
  55. Bit rate mode : Variable
  56. Bit rate : 4 073 kb/s
  57. Channel(s) : 8 channels
  58. Channel layout : C L R LFE Lb Rb Lss Rss
  59. Sampling rate : 48.0 kHz
  60. Frame rate : 93.750 FPS (512 SPF)
  61. Bit depth : 24 bits
  62. Compression mode : Lossless
  63. Stream size : 3.53 GiB (13%)
  64. Title : Captain.America.The.First.Avenger.2011.2160p.BluRay.x265.10bit.SDR.DTS-HD.MA.TrueHD.7.1.Atmos-SWTYBLZ
  65. Language : English
  66. Default : No
  67. Forced : No

  68. Audio #3
  69. ID : 4
  70. Format : AC-3
  71. Format/Info : Audio Coding 3
  72. Commercial name : Dolby Digital
  73. Codec ID : A_AC3
  74. Duration : 2 h 4 min
  75. Bit rate mode : Constant
  76. Bit rate : 640 kb/s
  77. Channel(s) : 6 channels
  78. Channel layout : L R C LFE Ls Rs
  79. Sampling rate : 48.0 kHz
  80. Frame rate : 31.250 FPS (1536 SPF)
  81. Bit depth : 16 bits
  82. Compression mode : Lossy
  83. Delay relative to video : 15 ms
  84. Stream size : 568 MiB (2%)
  85. Title : Captain.America.The.First.Avenger.2011.2160p.BluRay.x265.10bit.SDR.DTS-HD.MA.TrueHD.7.1.Atmos-SWTYBLZ
  86. Language : English
  87. Service kind : Complete Main
  88. Default : No
  89. Forced : No

  90. Text #1
  91. ID : 5
  92. Format : UTF-8
  93. Codec ID : S_TEXT/UTF8
  94. Codec ID/Info : UTF-8 Plain Text
  95. Duration : 8 s 956 ms
  96. Bit rate : 77 b/s
  97. Count of elements : 5
  98. Stream size : 87.0 Bytes (0%)
  99. Title : English-FORCED-SRT
  100. Language : English
  101. Default : Yes
  102. Forced : Yes

  103. Text #2
  104. ID : 6
  105. Format : UTF-8
  106. Codec ID : S_TEXT/UTF8
  107. Codec ID/Info : UTF-8 Plain Text
  108. Duration : 2 h 2 min
  109. Bit rate : 43 b/s
  110. Count of elements : 1214
  111. Stream size : 39.4 KiB (0%)
  112. Title : English-SRT
  113. Language : English
  114. Default : No
  115. Forced : No

  116. Text #3
  117. ID : 7
  118. Format : UTF-8
  119. Codec ID : S_TEXT/UTF8
  120. Codec ID/Info : UTF-8 Plain Text
  121. Duration : 2 h 2 min
  122. Bit rate : 46 b/s
  123. Count of elements : 1370
  124. Stream size : 41.8 KiB (0%)
  125. Title : English-SDH-SRT
  126. Language : English
  127. Default : No
  128. Forced : No

  129. Text #4
  130. ID : 8
  131. Format : PGS
  132. Muxing mode : zlib
  133. Codec ID : S_HDMV/PGS
  134. Codec ID/Info : Picture based subtitle format used on BDs/HD-DVDs
  135. Duration : 2 h 2 min
  136. Bit rate : 35.9 kb/s
  137. Count of elements : 2748
  138. Stream size : 31.5 MiB (0%)
  139. Title : English-PGS
  140. Language : English
  141. Default : No
  142. Forced : No

  143. Text #5
  144. ID : 9
  145. Format : PGS
  146. Muxing mode : zlib
  147. Codec ID : S_HDMV/PGS
  148. Codec ID/Info : Picture based subtitle format used on BDs/HD-DVDs
  149. Duration : 2 h 2 min
  150. Bit rate : 33.6 kb/s
  151. Count of elements : 2466
  152. Stream size : 29.5 MiB (0%)
  153. Title : French-PGS
  154. Language : French
  155. Default : No
  156. Forced : No

  157. Text #6
  158. ID : 10
  159. Format : PGS
  160. Muxing mode : zlib
  161. Codec ID : S_HDMV/PGS
  162. Codec ID/Info : Picture based subtitle format used on BDs/HD-DVDs
  163. Duration : 2 h 2 min
  164. Bit rate : 27.7 kb/s
  165. Count of elements : 2444
  166. Stream size : 24.3 MiB (0%)
  167. Title : French-PGS
  168. Language : French
  169. Default : No
  170. Forced : No

  171. Text #7
  172. ID : 11
  173. Format : PGS
  174. Muxing mode : zlib
  175. Codec ID : S_HDMV/PGS
  176. Codec ID/Info : Picture based subtitle format used on BDs/HD-DVDs
  177. Duration : 2 h 2 min
  178. Bit rate : 29.4 kb/s
  179. Count of elements : 2322
  180. Stream size : 25.8 MiB (0%)
  181. Title : Spanish-PGS
  182. Language : Spanish
  183. Default : No
  184. Forced : No

  185. Text #8
  186. ID : 12
  187. Format : PGS
  188. Muxing mode : zlib
  189. Codec ID : S_HDMV/PGS
  190. Codec ID/Info : Picture based subtitle format used on BDs/HD-DVDs
  191. Duration : 2 h 2 min
  192. Bit rate : 35.2 kb/s
  193. Count of elements : 2456
  194. Stream size : 30.9 MiB (0%)
  195. Title : German-PGS
  196. Language : German
  197. Default : No
  198. Forced : No

  199. Text #9
  200. ID : 13
  201. Format : PGS
  202. Muxing mode : zlib
  203. Codec ID : S_HDMV/PGS
  204. Codec ID/Info : Picture based subtitle format used on BDs/HD-DVDs
  205. Duration : 2 h 2 min
  206. Bit rate : 30.0 kb/s
  207. Count of elements : 2174
  208. Stream size : 26.4 MiB (0%)
  209. Title : Italian-PGS
  210. Language : Italian
  211. Default : No
  212. Forced : No

  213. Text #10
  214. ID : 14
  215. Format : PGS
  216. Muxing mode : zlib
  217. Codec ID : S_HDMV/PGS
  218. Codec ID/Info : Picture based subtitle format used on BDs/HD-DVDs
  219. Duration : 2 h 2 min
  220. Bit rate : 20.0 kb/s
  221. Count of elements : 2319
  222. Stream size : 17.5 MiB (0%)
  223. Title : Japanese-PGS
  224. Language : Japanese
  225. Default : No
  226. Forced : No

  227. Text #11
  228. ID : 15
  229. Format : PGS
  230. Muxing mode : zlib
  231. Codec ID : S_HDMV/PGS
  232. Codec ID/Info : Picture based subtitle format used on BDs/HD-DVDs
  233. Duration : 2 h 2 min
  234. Bit rate : 27.3 kb/s
  235. Count of elements : 2392
  236. Stream size : 23.9 MiB (0%)
  237. Title : Norwegian-PGS
  238. Language : Norwegian
  239. Default : No
  240. Forced : No

  241. Text #12
  242. ID : 16
  243. Format : PGS
  244. Muxing mode : zlib
  245. Codec ID : S_HDMV/PGS
  246. Codec ID/Info : Picture based subtitle format used on BDs/HD-DVDs
  247. Duration : 2 h 2 min
  248. Bit rate : 28.8 kb/s
  249. Count of elements : 2326
  250. Stream size : 25.4 MiB (0%)
  251. Title : Swedish-PGS
  252. Language : Swedish
  253. Default : No
  254. Forced : No

  255. Menu
  256. 00:00:00.000 : :Chapter 1
  257. 00:08:12.033 : :Chapter 2
  258. 00:14:56.645 : :Chapter 3
  259. 00:24:21.376 : :Chapter 4
  260. 00:30:38.962 : :Chapter 5
  261. 00:38:39.692 : :Chapter 6
  262. 00:45:51.999 : :Chapter 7
  263. 00:51:57.989 : :Chapter 8
  264. 00:57:55.472 : :Chapter 9
  265. 01:03:59.168 : :Chapter 10
  266. 01:12:22.463 : :Chapter 11
  267. 01:19:10.495 : :Chapter 12
  268. 01:28:26.884 : :Chapter 13
  269. 01:33:52.835 : :Chapter 14
  270. 01:42:20.175 : :Chapter 15
  271. 01:50:44.888 : :Chapter 16</p><p>01:53:46.152 : :Chapter 17</p>
复制代码




美国队长 Captain.America.The.First.Avenger.2011.2160p.BluRay.x265.10bit.SDR.DTS-SWTYBLZ 28GB-2.jpg 美国队长 Captain.America.The.First.Avenger.2011.2160p.BluRay.x265.10bit.SDR.DTS-SWTYBLZ 28GB-3.jpg
美国队长 Captain.America.The.First.Avenger.2011.2160p.BluRay.x265.10bit.SDR.DTS-SWTYBLZ 28GB-4.jpg 美国队长 Captain.America.The.First.Avenger.2011.2160p.BluRay.x265.10bit.SDR.DTS-SWTYBLZ 28GB-5.jpg
美国队长 Captain.America.The.First.Avenger.2011.2160p.BluRay.x265.10bit.SDR.DTS-SWTYBLZ 28GB-6.jpg 美国队长 Captain.America.The.First.Avenger.2011.2160p.BluRay.x265.10bit.SDR.DTS-SWTYBLZ 28GB-7.jpg




本帖隐藏的下载地址需要VIP会员才可阅读,您需要升级才可阅读,点击这里升级VIP

回复

使用道具 举报

级别:荣升主角 Lv.5

注册时间
2018-2-6
最后登录
2019-8-18
听众
15
收听
0
主题
0
蓝光币
1328 枚
贡献
0 点
发表于 2019-2-28 10:05:48 | 显示全部楼层

感谢楼主的无私分享!要想中国高清电影网好 就靠你我他
回复

使用道具 举报

级别:专业龙套 Lv.4

注册时间
2019-3-14
最后登录
2019-8-19
听众
14
收听
0
主题
0
蓝光币
187 枚
贡献
0 点
发表于 2019-3-14 10:58:32 | 显示全部楼层
感谢楼主分享精彩电影
回复

使用道具 举报

级别:初级观众 Lv.1

注册时间
2019-3-14
最后登录
2019-3-14
听众
8
收听
0
主题
0
蓝光币
2 枚
贡献
0 点
发表于 2019-3-14 16:16:48 | 显示全部楼层
感谢楼主的无私分享!谢谢,下载了
回复

使用道具 举报

级别:普通观众 Lv.2

注册时间
2019-1-2
最后登录
2019-6-28
听众
9
收听
0
主题
0
蓝光币
11 枚
贡献
0 点
发表于 2019-5-5 13:19:38 | 显示全部楼层

楼主太厉害了!楼主,电影应该很好看我觉得中国高清电影网真是个好地方!
回复

使用道具 举报

级别:初级观众 Lv.1

注册时间
2019-5-6
最后登录
2019-7-11
听众
8
收听
0
主题
0
蓝光币
4 枚
贡献
0 点
QQ
发表于 2019-5-6 12:04:59 | 显示全部楼层
感谢楼主分享
回复

使用道具 举报

级别:群众演员 Lv.3

注册时间
2019-5-15
最后登录
2019-8-11
听众
11
收听
0
主题
0
蓝光币
180 枚
贡献
0 点
QQ
发表于 2019-5-15 21:27:22 | 显示全部楼层
谢谢楼主分享!楼主辛苦了!
回复

使用道具 举报

懒得打字嘛,点击右侧快捷回复 【右侧内容,后台自定义】
您需要登录后才可以回帖 登录 | 立即注册

本版积分规则

QQ|Archiver|手机版|小黑屋| 中国高清网 |网站地图

GMT+8, 2019-8-19 21:53 , Processed in 0.314787 second(s), 49 queries .

Powered by HDchina X3.4

Copyright 2017-2019©HDchina.All right reserved

返回顶部 联系我们