查看: 355|回复: 7

[科幻片] 美国队长 2011.REMASTERED.1080p.BluRay.x264.TrueHD.7.1.Atmos-SWTYBLZ 18GB

[复制链接]

 成长值: 2220

级别:资源管理组

注册时间
2017-10-20
最后登录
2019-8-19
听众
1
收听
0
主题
80809
蓝光币
42339 枚
贡献
5136 点
发表于 2019-2-27 10:58:49 | 显示全部楼层 |阅读模式
美国队长 2011.REMASTERED.1080p.BluRay.x264.TrueHD.7.1.Atmos-SWTYBLZ 18GB-1.jpg
译  名 美国队长 / 复仇者先锋
片  名 Captain America: The First Avenger
年  代 2011
产  地 美国
类  别 行动 / 科幻 / 冒险
语  言 英语 / 挪威语 / 法语
上映日期 2011-07-19(加州首映) / 2011-07-22(美国) / 2011-09-09(中国大陆)
IMDb评分 6.9/10 from 638631 users
IMDb链接 http://www.imdb.com/title/tt0458339
豆瓣评分 6.8/10 from 210488 users
豆瓣链接 https://movie.douban.com/subject/2138838/
片  长 124分钟(美国)
导  演 乔·庄斯顿 Joe Johnston
编  剧 克里斯托弗·马库斯 Christopher Markus / 斯蒂芬·麦克菲利 Stephen McFeely / Joe Simon / Jack Kirby
主  演 克里斯·埃文斯 Chris Evans
      海莉·阿特维尔 Hayley Atwell
      塞巴斯蒂安·斯坦 Sebastian Stan
      汤米·李·琼斯 Tommy Lee Jones
      雨果·维文 Hugo Weaving
      多米尼克·库珀 Dominic Cooper
      理查德·阿米蒂奇 Richard Armitage
      斯坦利·图齐 Stanley Tucci
      塞缪尔·杰克逊 Samuel L. Jackson
      托比·琼斯 Toby Jones
      尼尔·麦克唐纳 Neal McDonough
      德里克·卢克 Derek Luke
      肯尼斯·崔 Kenneth Choi
      约翰·约瑟夫·菲尔德 JJ Feild



简  介

  上世纪40年月,纳粹及其邪恶轴心的烽火烧遍天下各个角落。居住在布鲁克林的小个子史蒂夫·罗格斯(克里斯·埃文斯 Chris Evans 饰)心系国家,一心上阵杀敌,可是糟糕的体魄让他始终被征兵办拒之门外。偶然的机遇,在德籍科学家厄斯金博士(Stanley Tucci 饰)的帮助下,这个小个子男孩得以走入军营,并接管了博士的实验,化身成为高峻硬朗、体力过人的超级战士。与此同时,德国纳粹红骷髅军队的首领约翰·施密特(雨果·维文 Hugo Weaving 饰)依靠超自然的气力建立起一支超级战队,诡计称霸全天下。
为了救援好友,史蒂夫以美国队长的形象闯入施密特的军营,正邪两大超级战士的战役就此展开……

获奖情况

  第21届MTV电影奖(2012)
  MTV电影奖 最好豪杰形象(提名) 克里斯·埃文斯

  第11届凤凰城影评人协会奖(2011)
  最好原创歌曲(提名) David Zippel / 艾伦·曼肯

  第14届美国青少年挑选奖(2012)
  最好电影打架(提名) 雨果·维文 / 克里斯·埃文斯

  第13届美国青少年挑选奖(2011)
  最好暑期电影(提名)
  最好暑期电影男演员(提名) 克里斯·埃文斯

  第2届豆瓣电影鑫像奖(2012)
  豆渣单元 最渣导演(外语)(提名) 乔·庄斯顿
  豆渣单元 最渣男演员(外语)(提名) 克里斯·埃文斯


  1. Video
  2. ID : 1
  3. Format : AVC
  4. Format/Info : Advanced Video Codec
  5. Format profile : <a href="/cdn-cgi/l/email-protection" class="__cf_email__" data-cfemail="aee6c7c9c6eee29a809f">[email protected]</a>
  6. Format settings : CABAC / 5 Ref Frames
  7. Format settings, CABAC : Yes
  8. Format settings, ReFrames : 5 frames
  9. Codec ID : V_MPEG4/ISO/AVC
  10. Duration : 2 h 4 min
  11. Bit rate : 15.7 Mb/s
  12. Width : 1 920 pixels
  13. Height : 800 pixels
  14. Display aspect ratio : 2.40:1
  15. Frame rate mode : Constant
  16. Frame rate : 23.976 (24000/1001) FPS
  17. Color space : YUV
  18. Chroma subsampling : 4:2:0
  19. Bit depth : 8 bits
  20. Scan type : Progressive
  21. Bits/(Pixel*Frame) : 0.425
  22. Stream size : 13.6 GiB (74%)
  23. Title : Captain.America.The.First.Avenger.2011.REMASTERED.1080p.BluRay.x264.TrueHD.7.1.Atmos-SWTYBLZ
  24. Writing library : x264 core 157 r2935 545de2f
  25. Encoding settings : cabac=1 / ref=5 / deblock=1:-1:-1 / analyse=0x3:0x133 / me=umh / subme=10 / psy=1 / psy_rd=1.00:0.15 / mixed_ref=1 / me_range=48 / chroma_me=1 / trellis=2 / 8x8dct=1 / cqm=0 / deadzone=21,11 / fast_pskip=1 / chroma_qp_offset=-3 / threads=25 / lookahead_threads=4 / sliced_threads=0 / nr=0 / decimate=0 / interlaced=0 / bluray_compat=0 / constrained_intra=0 / bframes=8 / b_pyramid=2 / b_adapt=2 / b_bias=0 / direct=3 / weightb=1 / open_gop=0 / weightp=2 / keyint=250 / keyint_min=23 / scenecut=40 / intra_refresh=0 / rc_lookahead=60 / rc=crf / mbtree=1 / crf=13.0 / qcomp=0.60 / qpmin=0 / qpmax=69 / qpstep=4 / ip_ratio=1.40 / aq=1:1.00
  26. Default : Yes
  27. Forced : No

  28. Audio #1
  29. ID : 2
  30. Format : MLP FBA 16-ch
  31. Format/Info : Meridian Lossless Packing FBA with 16-channel presentation
  32. Commercial name : Dolby TrueHD with Dolby Atmos
  33. Codec ID : A_TRUEHD
  34. Duration : 2 h 4 min
  35. Bit rate mode : Variable
  36. Bit rate : 4 734 kb/s
  37. Maximum bit rate : 7 644 kb/s
  38. Channel(s) : 8 channels
  39. Channel layout : L R C LFE Ls Rs Lb Rb
  40. Sampling rate : 48.0 kHz
  41. Frame rate : 1 200.000 FPS (40 SPF)
  42. Compression mode : Lossless
  43. Delay relative to video : 15 ms
  44. Stream size : 4.11 GiB (22%)
  45. Title : Captain.America.The.First.Avenger.2011.REMASTERED.1080p.BluRay.x264.TrueHD.7.1.Atmos-SWTYBLZ
  46. Language : English
  47. Default : Yes
  48. Forced : No
  49. Number of dynamic objects : 13
  50. Bed channel count : 1 channel
  51. Bed channel configuration : LFE

  52. Audio #2
  53. ID : 3
  54. Format : AC-3
  55. Format/Info : Audio Coding 3
  56. Commercial name : Dolby Digital
  57. Codec ID : A_AC3
  58. Duration : 2 h 4 min
  59. Bit rate mode : Constant
  60. Bit rate : 640 kb/s
  61. Channel(s) : 6 channels
  62. Channel layout : L R C LFE Ls Rs
  63. Sampling rate : 48.0 kHz
  64. Frame rate : 31.250 FPS (1536 SPF)
  65. Bit depth : 16 bits
  66. Compression mode : Lossy
  67. Delay relative to video : 15 ms
  68. Stream size : 568 MiB (3%)
  69. Title : Captain.America.The.First.Avenger.2011.REMASTERED.1080p.BluRay.x264.TrueHD.7.1.Atmos-SWTYBLZ
  70. Language : English
  71. Service kind : Complete Main
  72. Default : No
  73. Forced : No

  74. Text #1
  75. ID : 4
  76. Format : UTF-8
  77. Codec ID : S_TEXT/UTF8
  78. Codec ID/Info : UTF-8 Plain Text
  79. Duration : 8 s 956 ms
  80. Bit rate : 77 b/s
  81. Count of elements : 5
  82. Stream size : 87.0 Bytes (0%)
  83. Title : English-FORCED-SRT
  84. Language : English
  85. Default : Yes
  86. Forced : Yes

  87. Text #2
  88. ID : 5
  89. Format : UTF-8
  90. Codec ID : S_TEXT/UTF8
  91. Codec ID/Info : UTF-8 Plain Text
  92. Duration : 2 h 2 min
  93. Bit rate : 43 b/s
  94. Count of elements : 1214
  95. Stream size : 39.4 KiB (0%)
  96. Title : English-SRT
  97. Language : English
  98. Default : No
  99. Forced : No

  100. Text #3
  101. ID : 6
  102. Format : UTF-8
  103. Codec ID : S_TEXT/UTF8
  104. Codec ID/Info : UTF-8 Plain Text
  105. Duration : 2 h 2 min
  106. Bit rate : 46 b/s
  107. Count of elements : 1370
  108. Stream size : 41.8 KiB (0%)
  109. Title : English-SDH-SRT
  110. Language : English
  111. Default : No
  112. Forced : No

  113. Text #4
  114. ID : 7
  115. Format : PGS
  116. Muxing mode : zlib
  117. Codec ID : S_HDMV/PGS
  118. Codec ID/Info : Picture based subtitle format used on BDs/HD-DVDs
  119. Duration : 2 h 2 min
  120. Bit rate : 35.9 kb/s
  121. Count of elements : 2748
  122. Stream size : 31.5 MiB (0%)
  123. Title : English-PGS
  124. Language : English
  125. Default : No
  126. Forced : No

  127. Text #5
  128. ID : 8
  129. Format : PGS
  130. Muxing mode : zlib
  131. Codec ID : S_HDMV/PGS
  132. Codec ID/Info : Picture based subtitle format used on BDs/HD-DVDs
  133. Duration : 2 h 2 min
  134. Bit rate : 33.6 kb/s
  135. Count of elements : 2466
  136. Stream size : 29.5 MiB (0%)
  137. Title : French-PGS
  138. Language : French
  139. Default : No
  140. Forced : No

  141. Text #6
  142. ID : 9
  143. Format : PGS
  144. Muxing mode : zlib
  145. Codec ID : S_HDMV/PGS
  146. Codec ID/Info : Picture based subtitle format used on BDs/HD-DVDs
  147. Duration : 2 h 2 min
  148. Bit rate : 27.7 kb/s
  149. Count of elements : 2444
  150. Stream size : 24.3 MiB (0%)
  151. Title : French-PGS
  152. Language : French
  153. Default : No
  154. Forced : No

  155. Text #7
  156. ID : 10
  157. Format : PGS
  158. Muxing mode : zlib
  159. Codec ID : S_HDMV/PGS
  160. Codec ID/Info : Picture based subtitle format used on BDs/HD-DVDs
  161. Duration : 2 h 2 min
  162. Bit rate : 29.4 kb/s
  163. Count of elements : 2322
  164. Stream size : 25.8 MiB (0%)
  165. Title : Spanish-PGS
  166. Language : Spanish
  167. Default : No
  168. Forced : No

  169. Text #8
  170. ID : 11
  171. Format : PGS
  172. Muxing mode : zlib
  173. Codec ID : S_HDMV/PGS
  174. Codec ID/Info : Picture based subtitle format used on BDs/HD-DVDs
  175. Duration : 2 h 2 min
  176. Bit rate : 35.2 kb/s
  177. Count of elements : 2456
  178. Stream size : 30.9 MiB (0%)
  179. Title : German-PGS
  180. Language : German
  181. Default : No
  182. Forced : No

  183. Text #9
  184. ID : 12
  185. Format : PGS
  186. Muxing mode : zlib
  187. Codec ID : S_HDMV/PGS
  188. Codec ID/Info : Picture based subtitle format used on BDs/HD-DVDs
  189. Duration : 2 h 2 min
  190. Bit rate : 30.0 kb/s
  191. Count of elements : 2174
  192. Stream size : 26.4 MiB (0%)
  193. Title : Italian-PGS
  194. Language : Italian
  195. Default : No
  196. Forced : No

  197. Text #10
  198. ID : 13
  199. Format : PGS
  200. Muxing mode : zlib
  201. Codec ID : S_HDMV/PGS
  202. Codec ID/Info : Picture based subtitle format used on BDs/HD-DVDs
  203. Duration : 2 h 2 min
  204. Bit rate : 20.0 kb/s
  205. Count of elements : 2319
  206. Stream size : 17.5 MiB (0%)
  207. Title : Japanese-PGS
  208. Language : Japanese
  209. Default : No
  210. Forced : No

  211. Text #11
  212. ID : 14
  213. Format : PGS
  214. Muxing mode : zlib
  215. Codec ID : S_HDMV/PGS
  216. Codec ID/Info : Picture based subtitle format used on BDs/HD-DVDs
  217. Duration : 2 h 2 min
  218. Bit rate : 27.3 kb/s
  219. Count of elements : 2392
  220. Stream size : 23.9 MiB (0%)
  221. Title : Norwegian-PGS
  222. Language : Norwegian
  223. Default : No
  224. Forced : No

  225. Text #12
  226. ID : 15
  227. Format : PGS
  228. Muxing mode : zlib
  229. Codec ID : S_HDMV/PGS
  230. Codec ID/Info : Picture based subtitle format used on BDs/HD-DVDs
  231. Duration : 2 h 2 min
  232. Bit rate : 28.8 kb/s
  233. Count of elements : 2326
  234. Stream size : 25.4 MiB (0%)
  235. Title : Swedish-PGS
  236. Language : Swedish
  237. Default : No
  238. Forced : No

  239. Menu
  240. 00:00:00.000 : :Chapter 1
  241. 00:08:12.033 : :Chapter 2
  242. 00:14:56.645 : :Chapter 3
  243. 00:24:21.376 : :Chapter 4
  244. 00:30:38.962 : :Chapter 5
  245. 00:38:39.692 : :Chapter 6
  246. 00:45:51.999 : :Chapter 7
  247. 00:51:57.989 : :Chapter 8
  248. 00:57:55.472 : :Chapter 9
  249. 01:03:59.168 : :Chapter 10
  250. 01:12:22.463 : :Chapter 11
  251. 01:19:10.495 : :Chapter 12
  252. 01:28:26.884 : :Chapter 13
  253. 01:33:52.835 : :Chapter 14
  254. 01:42:20.175 : :Chapter 15
  255. 01:50:44.888 : :Chapter 16
  256. 01:53:46.152 : :Chapter 17
复制代码


美国队长 2011.REMASTERED.1080p.BluRay.x264.TrueHD.7.1.Atmos-SWTYBLZ 18GB-2.jpg 美国队长 2011.REMASTERED.1080p.BluRay.x264.TrueHD.7.1.Atmos-SWTYBLZ 18GB-3.jpg




回复

使用道具 举报

级别:荣升主角 Lv.5

注册时间
2018-12-30
最后登录
2019-8-19
听众
13
收听
0
主题
2
蓝光币
975 枚
贡献
2 点
发表于 2019-2-27 16:17:17 | 显示全部楼层

楼主太厉害了!楼主,电影应该很好看我觉得中国高清电影网真是个好地方!
回复

使用道具 举报

级别:普通观众 Lv.2

注册时间
2019-3-3
最后登录
2019-4-19
听众
9
收听
0
主题
0
蓝光币
9 枚
贡献
0 点
发表于 2019-3-3 19:57:01 | 显示全部楼层
灌水封号灌水封号
回复

使用道具 举报

级别:群众演员 Lv.3

注册时间
2019-3-5
最后登录
2019-8-18
听众
13
收听
0
主题
0
蓝光币
82 枚
贡献
0 点
发表于 2019-3-5 22:30:15 | 显示全部楼层
8年了,还是当年的美队帅,现在的扮相有点太老气
回复

使用道具 举报

级别:群众演员 Lv.3

注册时间
2019-1-12
最后登录
2019-8-14
听众
12
收听
0
主题
0
蓝光币
116 枚
贡献
0 点
QQ
发表于 2019-3-6 23:30:30 | 显示全部楼层

楼主太厉害了!楼主,电影应该很好看我觉得中国高清电影网真是个好地方!
回复

使用道具 举报

级别:群众演员 Lv.3

注册时间
2019-1-24
最后登录
2019-8-19
听众
12
收听
0
主题
0
蓝光币
99 枚
贡献
0 点
发表于 2019-5-10 22:59:33 | 显示全部楼层
楼主发贴辛苦了,谢谢楼主分享!我觉得中国高清电影网是注册对了!
回复

使用道具 举报

级别:群众演员 Lv.3

注册时间
2019-5-15
最后登录
2019-8-11
听众
11
收听
0
主题
0
蓝光币
180 枚
贡献
0 点
QQ
发表于 2019-5-15 21:00:40 | 显示全部楼层
谢谢楼主分享,楼主辛苦了!
回复

使用道具 举报

级别:群众演员 Lv.3

注册时间
2018-6-10
最后登录
2019-8-19
听众
13
收听
0
主题
0
蓝光币
0 枚
贡献
0 点
发表于 2019-5-18 21:49:45 | 显示全部楼层

楼主太厉害了!楼主,电影应该很好看我觉得中国高清电影网真是个好地方!
回复

使用道具 举报

懒得打字嘛,点击右侧快捷回复 【右侧内容,后台自定义】
您需要登录后才可以回帖 登录 | 立即注册

本版积分规则

QQ|Archiver|手机版|小黑屋| 中国高清网 |网站地图

GMT+8, 2019-8-19 22:24 , Processed in 0.324571 second(s), 42 queries .

Powered by HDchina X3.4

Copyright 2017-2019©HDchina.All right reserved

返回顶部 联系我们