查看: 278|回复: 9

[剧情片] 登月第一人/第一人 First.Man.2018.IMAX.1080p.BluRay.REMUX.AVC.DTS-HD.MA.TrueHD.7.1.Atmos-FGT 38.41GB

[复制链接]

 成长值: 2220

级别:资源管理组

注册时间
2017-10-20
最后登录
2019-8-19
听众
1
收听
0
主题
80809
蓝光币
42335 枚
贡献
5136 点
发表于 2019-1-12 23:27:49 | 显示全部楼层 |阅读模式

登月第一人/第一人 First.Man.2018.IMAX.1080p.BluRay.REMUX.AVC.DTS-HD.MA.TrueHD.7.1.Atmos-FGT 38.41GB-1.jpg
◎译  名 登月第一人 / 第一人 / 登月先锋(台) / 爱月之人(豆友译名)
◎片  名 登月第一人 First Man
◎年  代 2018
◎国  家 美国
◎类  别 剧情 / 列传 / 历史
◎语  言 英语
◎上映日期 2018-08-29(威尼斯电影节) / 2018-10-12(美国)
◎IMDb评分  7.5/10 from 75,175 users
◎IMDb链接  http://www.imdb.com/title/tt1213641/
◎豆瓣评分 7.6/10 from 14592 users
◎豆瓣链接 https://movie.douban.com/subject/3026559/
◎片  长 141分钟
◎导  演 达米恩·查泽雷
◎主  演 瑞恩·高斯林
      克莱尔·芙伊
      杰森·克拉克
      凯尔·钱德勒
      寇瑞·斯托尔
      派屈克·福吉特
      克里斯托弗·阿波特
      塞伦·希德
      奥莉维亚·汉密尔顿
      巴勃罗·施瑞博尔
      谢伊·惠格姆
      卢卡斯·哈斯
      伊桑·恩布里
      布莱恩·达西·詹姆斯
      科里·迈克尔·史姑娘
      克里斯·斯万博格

◎简  介 

  影片将聚焦美国传奇宇航员尼尔·阿姆斯特朗的生平,重点报告他在1961-1969年间成为人类历史上第一个登月者的进程,同时也展现出人类在此次史上最危险的宇宙摸索征途中所支出的难以设想的国家与个体牺牲。
  影片按照詹姆斯·汉森的列传作品《第一人:尼尔·阿姆斯特朗的人生》改编而成。
  尼尔·阿姆斯特朗,是人类历史上首位登上月球的宇航员。他1930年诞生,2012年去世,是美国阿波罗11号登月计划宇航员。在美国航空航天局退役时,阿姆斯特朗于1969年7月21日成为了第一个踏上月球的宇航员,也是第一个在地球外星体上留下脚印的人类成员。

◎获奖情况 

  第75届威尼斯电影节 (2018)
  主比赛单元 金狮奖 (提名) 达米恩·查泽雷

  第76届金球奖 (2019)
  电影类 最好女配角(提名) 克莱尔·芙伊
  电影类 最好原创配乐

  第72届英国电影学院奖 (2019)
  电影奖 最好女配角(提名) 克莱尔·芙伊
  电影奖 最好改编剧本(提名) 乔希·辛格
  电影奖 最好摄影(提名) 莱纳斯·桑德格伦
  电影奖 最好剪辑(提名) 汤姆·克罗斯
  电影奖 最好艺术指导(提名) 内森·克劳利 /  Kathy Lucas
  电影奖 最好特别视觉结果(提名)
  电影奖 最好音效(提名)

  第33届美国摄影协会奖 (2019)
  电影长片最好摄影(提名) 莱纳斯·桑德格伦

  第69届美国剪辑工会奖 (2019)
  剧情片最好剪辑(提名) 汤姆·克罗斯

  第23届美国艺术指导工会奖 (2019)
  电影奖 最好历史电影艺术指导(提名) 内森·克劳利

  第55届美国声音结果协会奖 (2019)
  真人电影最好音效(提名)

  第24届美国批评家挑选电影奖 (2019)
  最好影片(提名)
  最好导演(提名) 达米恩·查泽雷
  最好男配角(提名) 瑞恩·高斯林
  最好女配角(提名) 克莱尔·芙伊
  最好改编剧本(提名) 乔希·辛格
  最好摄影(提名)
  最好剪辑(提名)
  最好配乐(提名)
  最好美术指导(提名)
  最好视觉结果(提名)

  第23届金卫星奖 (2019)
  电影部分 最好剧情片(提名)
  电影部分 剧情片最好男配角(提名) 瑞恩·高斯林
  电影部分 最好女配角(提名) 克莱尔·芙伊
  电影部分 最好原创配乐
  电影部分 最好剪辑(提名)
  电影部分 最好音效(提名)
  电影部分 最好美术指导(提名)

  第22届好莱坞电影奖 (2018)
  年度导演 达米恩·查泽雷
  年度剪辑 汤姆·克罗斯
  年度配乐 贾斯汀·赫维兹

  第17届华盛顿影评人协会奖 (2018)
  最好摄影(提名)
  最好剪辑
  最好原创配乐(提名) 贾斯汀·赫维兹
  最好艺术指导(提名)

  第39届伦敦影评人协会奖 (2019)
  年度电影(提名)
  年度女配角(提名) 克莱尔·芙伊
  年度英国/爱尔兰女演员(提名) 克莱尔·芙伊
  技术成就奖(提名) 保罗·兰伯特

  第39届波士顿影评人协会奖 (2018)
  最好剪辑
  最好音乐(提名)

  第44届洛杉矶影评人协会奖 (2018)
  最好配乐(提名)

  第31届芝加哥影评人协会奖 (2018)
  最好摄影(提名) 莱纳斯·桑德格伦
  最好剪辑(提名) 汤姆·克罗斯
  最好原创配乐(提名) 贾斯汀·赫维兹
  最好视觉结果(提名)

  第17届旧金山影评人协会奖 (2018)
  最好摄影(提名)
  最好艺术指导(提名)
  最好原创配乐(提名)
  最好剪辑(提名)

  第18届温哥华影评人协会奖 (2019)
  最好女配角(提名) 克莱尔·芙伊

  第18届凤凰城影评人协会奖 (2018)
  最好原创配乐

  第3届亚特兰大影评人协会奖 (2018)
  十佳影片
  最好原创配乐

  第22届美国在线影评人协会奖 (2019)
  最好剪辑(提名)
  最好原创配乐(提名)
  最好摄影(提名)

  第5届豆瓣电影年度榜单 (2018)
  年度电影原声(提名)


  1. Video
  2. ID                                       : 1
  3. Format                                   : AVC
  4. Format/Info                              : Advanced Video Codec
  5. Format profile                           : [url=/cdn-cgi/l/email-protection][email protected][/url]
  6. Format settings                          : CABAC / 4 Ref Frames
  7. Format settings, CABAC                   : Yes
  8. Format settings, ReFrames                : 4 frames
  9. Codec ID                                 : V_MPEG4/ISO/AVC
  10. Duration                                 : 2 h 20 min
  11. Bit rate mode                            : Variable
  12. Bit rate                                 : 29.1 Mb/s
  13. Maximum bit rate                         : 33.0 Mb/s
  14. Width                                    : 1 920 pixels
  15. Height                                   : 1 080 pixels
  16. Display aspect ratio                     : 16:9
  17. Frame rate mode                          : Constant
  18. Frame rate                               : 23.976 (24000/1001) FPS
  19. Color space                              : YUV
  20. Chroma subsampling                       : 4:2:0
  21. Bit depth                                : 8 bits
  22. Scan type                                : Progressive
  23. Bits/(Pixel*Frame)                       : 0.585
  24. Stream size                              : 28.6 GiB (75%)
  25. Title                                    : First.Man.2018.1080p.BluRay.REMUX.AVC.DTS-HD.MA.TrueHD.7.1.Atmos-FGT
  26. Language                                 : English
  27. Default                                  : No
  28. Forced                                   : No

  29. Audio #1
  30. ID                                       : 2
  31. Format                                   : MLP FBA 16-ch
  32. Format/Info                              : Meridian Lossless Packing FBA with 16-channel presentation
  33. Commercial name                          : Dolby TrueHD with Dolby Atmos
  34. Codec ID                                 : A_TRUEHD
  35. Duration                                 : 2 h 20 min
  36. Bit rate mode                            : Variable
  37. Bit rate                                 : 2 679 kb/s
  38. Maximum bit rate                         : 4 533 kb/s
  39. Channel(s)                               : 8 channels
  40. Channel layout                           : L R C LFE Ls Rs Lb Rb
  41. Sampling rate                            : 48.0 kHz
  42. Frame rate                               : 1 200.000 FPS (40 SPF)
  43. Compression mode                         : Lossless
  44. Stream size                              : 2.64 GiB (7%)
  45. Title                                    : First.Man.2018.1080p.BluRay.REMUX.AVC.DTS-HD.MA.TrueHD.7.1.Atmos-FGT
  46. Language                                 : English
  47. Default                                  : Yes
  48. Forced                                   : No
  49. Number of dynamic objects                : 11
  50. Bed channel count                        : 1 channel
  51. Bed channel configuration                : LFE

  52. Audio #2
  53. ID                                       : 3
  54. Format                                   : DTS XLL
  55. Format/Info                              : Digital Theater Systems
  56. Commercial name                          : DTS-HD Master Audio
  57. Codec ID                                 : A_DTS
  58. Duration                                 : 2 h 20 min
  59. Bit rate mode                            : Variable
  60. Bit rate                                 : 3 890 kb/s
  61. Channel(s)                               : 8 channels
  62. Channel layout                           : C L R LFE Lb Rb Lss Rss
  63. Sampling rate                            : 48.0 kHz
  64. Frame rate                               : 93.750 FPS (512 SPF)
  65. Bit depth                                : 24 bits
  66. Compression mode                         : Lossless
  67. Stream size                              : 3.83 GiB (10%)
  68. Title                                    : First.Man.2018.1080p.BluRay.REMUX.AVC.DTS-HD.MA.TrueHD.7.1.Atmos-FGT
  69. Language                                 : English
  70. Default                                  : No
  71. Forced                                   : No

  72. Audio #3
  73. ID                                       : 4
  74. Format                                   : AC-3
  75. Format/Info                              : Audio Coding 3
  76. Commercial name                          : Dolby Digital
  77. Codec ID                                 : A_AC3
  78. Duration                                 : 2 h 20 min
  79. Bit rate mode                            : Constant
  80. Bit rate                                 : 448 kb/s
  81. Channel(s)                               : 6 channels
  82. Channel layout                           : L R C LFE Ls Rs
  83. Sampling rate                            : 48.0 kHz
  84. Frame rate                               : 31.250 FPS (1536 SPF)
  85. Bit depth                                : 16 bits
  86. Compression mode                         : Lossy
  87. Stream size                              : 452 MiB (1%)
  88. Title                                    : First.Man.2018.1080p.BluRay.REMUX.AVC.DTS-HD.MA.TrueHD.7.1.Atmos-FGT
  89. Language                                 : English
  90. Service kind                             : Complete Main
  91. Default                                  : No
  92. Forced                                   : No

  93. Audio #4
  94. ID                                       : 5
  95. Format                                   : E-AC-3
  96. Format/Info                              : Enhanced AC-3
  97. Commercial name                          : Dolby Digital Plus
  98. Format profile                           : Blu-ray Disc
  99. Codec ID                                 : A_EAC3
  100. Duration                                 : 2 h 20 min
  101. Bit rate mode                            : Constant
  102. Bit rate                                 : 768 kb/s
  103. Channel(s)                               : 8 channels
  104. Channel layout                           : L R C LFE Ls Rs Lb Rb
  105. Sampling rate                            : 48.0 kHz
  106. Frame rate                               : 31.250 FPS (1536 SPF)
  107. Compression mode                         : Lossy
  108. Stream size                              : 775 MiB (2%)
  109. Title                                    : First.Man.2018.1080p.BluRay.REMUX.AVC.DTS-HD.MA.TrueHD.7.1.Atmos-FGT
  110. Language                                 : Spanish
  111. Service kind                             : Complete Main
  112. Default                                  : No
  113. Forced                                   : No

  114. Audio #5
  115. ID                                       : 6
  116. Format                                   : AC-3
  117. Format/Info                              : Audio Coding 3
  118. Commercial name                          : Dolby Digital
  119. Codec ID                                 : A_AC3
  120. Duration                                 : 2 h 20 min
  121. Bit rate mode                            : Constant
  122. Bit rate                                 : 448 kb/s
  123. Channel(s)                               : 6 channels
  124. Channel layout                           : L R C LFE Ls Rs
  125. Sampling rate                            : 48.0 kHz
  126. Frame rate                               : 31.250 FPS (1536 SPF)
  127. Bit depth                                : 16 bits
  128. Compression mode                         : Lossy
  129. Stream size                              : 452 MiB (1%)
  130. Title                                    : First.Man.2018.1080p.BluRay.REMUX.AVC.DTS-HD.MA.TrueHD.7.1.Atmos-FGT
  131. Language                                 : Spanish
  132. Service kind                             : Complete Main
  133. Default                                  : No
  134. Forced                                   : No

  135. Audio #6
  136. ID                                       : 7
  137. Format                                   : E-AC-3
  138. Format/Info                              : Enhanced AC-3
  139. Commercial name                          : Dolby Digital Plus
  140. Format profile                           : Blu-ray Disc
  141. Codec ID                                 : A_EAC3
  142. Duration                                 : 2 h 20 min
  143. Bit rate mode                            : Constant
  144. Bit rate                                 : 768 kb/s
  145. Channel(s)                               : 8 channels
  146. Channel layout                           : L R C LFE Ls Rs Lb Rb
  147. Sampling rate                            : 48.0 kHz
  148. Frame rate                               : 31.250 FPS (1536 SPF)
  149. Compression mode                         : Lossy
  150. Stream size                              : 775 MiB (2%)
  151. Title                                    : First.Man.2018.1080p.BluRay.REMUX.AVC.DTS-HD.MA.TrueHD.7.1.Atmos-FGT
  152. Language                                 : French
  153. Service kind                             : Complete Main
  154. Default                                  : No
  155. Forced                                   : No

  156. Audio #7
  157. ID                                       : 8
  158. Format                                   : AC-3
  159. Format/Info                              : Audio Coding 3
  160. Commercial name                          : Dolby Digital
  161. Codec ID                                 : A_AC3
  162. Duration                                 : 2 h 20 min
  163. Bit rate mode                            : Constant
  164. Bit rate                                 : 448 kb/s
  165. Channel(s)                               : 6 channels
  166. Channel layout                           : L R C LFE Ls Rs
  167. Sampling rate                            : 48.0 kHz
  168. Frame rate                               : 31.250 FPS (1536 SPF)
  169. Bit depth                                : 16 bits
  170. Compression mode                         : Lossy
  171. Stream size                              : 452 MiB (1%)
  172. Title                                    : First.Man.2018.1080p.BluRay.REMUX.AVC.DTS-HD.MA.TrueHD.7.1.Atmos-FGT
  173. Language                                 : French
  174. Service kind                             : Complete Main
  175. Default                                  : No
  176. Forced                                   : No

  177. Audio #8
  178. ID                                       : 9
  179. Format                                   : AC-3
  180. Format/Info                              : Audio Coding 3
  181. Commercial name                          : Dolby Digital
  182. Codec ID                                 : A_AC3
  183. Duration                                 : 2 h 20 min
  184. Bit rate mode                            : Constant
  185. Bit rate                                 : 192 kb/s
  186. Channel(s)                               : 2 channels
  187. Channel layout                           : L R
  188. Sampling rate                            : 48.0 kHz
  189. Frame rate                               : 31.250 FPS (1536 SPF)
  190. Bit depth                                : 16 bits
  191. Compression mode                         : Lossy
  192. Stream size                              : 194 MiB (0%)
  193. Title                                    : First.Man.2018.1080p.BluRay.REMUX.AVC.DTS-HD.MA.TrueHD.7.1.Atmos-FGT
  194. Language                                 : English
  195. Service kind                             : Complete Main
  196. Default                                  : No
  197. Forced                                   : No

  198. Audio #9
  199. ID                                       : 10
  200. Format                                   : AC-3
  201. Format/Info                              : Audio Coding 3
  202. Commercial name                          : Dolby Digital
  203. Codec ID                                 : A_AC3
  204. Duration                                 : 2 h 20 min
  205. Bit rate mode                            : Constant
  206. Bit rate                                 : 192 kb/s
  207. Channel(s)                               : 2 channels
  208. Channel layout                           : L R
  209. Sampling rate                            : 48.0 kHz
  210. Frame rate                               : 31.250 FPS (1536 SPF)
  211. Bit depth                                : 16 bits
  212. Compression mode                         : Lossy
  213. Stream size                              : 194 MiB (0%)
  214. Title                                    : First.Man.2018.1080p.BluRay.REMUX.AVC.DTS-HD.MA.TrueHD.7.1.Atmos-FGT
  215. Language                                 : English
  216. Service kind                             : Complete Main
  217. Default                                  : No
  218. Forced                                   : No

  219. Text #1
  220. ID                                       : 11
  221. Format                                   : PGS
  222. Muxing mode                              : zlib
  223. Codec ID                                 : S_HDMV/PGS
  224. Codec ID/Info                            : Picture based subtitle format used on BDs/HD-DVDs
  225. Duration                                 : 2 h 12 min
  226. Bit rate                                 : 36.6 kb/s
  227. Count of elements                        : 3192
  228. Stream size                              : 34.7 MiB (0%)
  229. Title                                    : English-PGS
  230. Language                                 : English
  231. Default                                  : Yes
  232. Forced                                   : No

  233. Text #2
  234. ID                                       : 12
  235. Format                                   : PGS
  236. Muxing mode                              : zlib
  237. Codec ID                                 : S_HDMV/PGS
  238. Codec ID/Info                            : Picture based subtitle format used on BDs/HD-DVDs
  239. Duration                                 : 2 h 19 min
  240. Bit rate                                 : 27.1 kb/s
  241. Count of elements                        : 2796
  242. Stream size                              : 27.1 MiB (0%)
  243. Title                                    : Spanish-PGS
  244. Language                                 : Spanish
  245. Default                                  : No
  246. Forced                                   : No

  247. Text #3
  248. ID                                       : 13
  249. Format                                   : PGS
  250. Muxing mode                              : zlib
  251. Codec ID                                 : S_HDMV/PGS
  252. Codec ID/Info                            : Picture based subtitle format used on BDs/HD-DVDs
  253. Duration                                 : 2 h 19 min
  254. Bit rate                                 : 28.3 kb/s
  255. Count of elements                        : 2812
  256. Stream size                              : 28.3 MiB (0%)
  257. Title                                    : French-PGS
  258. Language                                 : French
  259. Default                                  : No
  260. Forced                                   : No

  261. Text #4
  262. ID                                       : 14
  263. Format                                   : PGS
  264. Muxing mode                              : zlib
  265. Codec ID                                 : S_HDMV/PGS
  266. Codec ID/Info                            : Picture based subtitle format used on BDs/HD-DVDs
  267. Duration                                 : 2 h 18 min
  268. Bit rate                                 : 1 009 b/s
  269. Count of elements                        : 92
  270. Stream size                              : 1.00 MiB (0%)
  271. Title                                    : Spanish-FORCED-PGS
  272. Language                                 : Spanish
  273. Default                                  : No
  274. Forced                                   : No

  275. Text #5
  276. ID                                       : 15
  277. Format                                   : PGS
  278. Muxing mode                              : zlib
  279. Codec ID                                 : S_HDMV/PGS
  280. Codec ID/Info                            : Picture based subtitle format used on BDs/HD-DVDs
  281. Duration                                 : 2 h 14 min
  282. Bit rate                                 : 3 947 b/s
  283. Count of elements                        : 282
  284. Stream size                              : 3.80 MiB (0%)
  285. Title                                    : French-FORCED-PGS
  286. Language                                 : French
  287. Default                                  : No
  288. Forced                                   : No

  289. Menu
  290. 00:00:00.000                             : en:Chapter 01
  291. 00:07:20.440                             : en:Chapter 02
  292. 00:13:35.981                             : en:Chapter 03
  293. 00:19:53.192                             : en:Chapter 04
  294. 00:25:59.724                             : en:Chapter 05
  295. 00:31:30.138                             : en:Chapter 06
  296. 00:40:17.248                             : en:Chapter 07
  297. 00:49:57.703                             : en:Chapter 08
  298. 01:00:02.932                             : en:Chapter 09
  299. 01:05:42.521                             : en:Chapter 10
  300. 01:11:05.719                             : en:Chapter 11
  301. 01:15:12.966                             : en:Chapter 12
  302. 01:21:33.305                             : en:Chapter 13
  303. 01:30:35.304                             : en:Chapter 14
  304. 01:39:00.726                             : en:Chapter 15
  305. 01:48:58.323                             : en:Chapter 16
  306. 01:54:44.419                             : en:Chapter 17
  307. 02:00:14.916                             : en:Chapter 18
  308. 02:09:55.704                             : en:Chapter 19
  309. 02:14:02.743                             : en:Chapter 20
复制代码

复制代码

登月第一人/第一人 First.Man.2018.IMAX.1080p.BluRay.REMUX.AVC.DTS-HD.MA.TrueHD.7.1.Atmos-FGT 38.41GB-2.png 登月第一人/第一人 First.Man.2018.IMAX.1080p.BluRay.REMUX.AVC.DTS-HD.MA.TrueHD.7.1.Atmos-FGT 38.41GB-3.png 登月第一人/第一人 First.Man.2018.IMAX.1080p.BluRay.REMUX.AVC.DTS-HD.MA.TrueHD.7.1.Atmos-FGT 38.41GB-4.png





回复

使用道具 举报

级别:专业龙套 Lv.4

注册时间
2018-5-20
最后登录
2019-6-4
听众
11
收听
0
主题
0
蓝光币
108 枚
贡献
0 点
发表于 2019-1-13 14:44:12 | 显示全部楼层
太好了   感谢分享
回复

使用道具 举报

级别:群众演员 Lv.3

注册时间
2018-2-11
最后登录
2019-4-12
听众
10
收听
0
主题
0
蓝光币
33 枚
贡献
0 点
QQ
发表于 2019-1-13 18:54:38 | 显示全部楼层

这东西我收了!谢谢楼主!中国高清电影网真好!
回复

使用道具 举报

级别:荣升主角 Lv.5

注册时间
2018-5-27
最后登录
2019-8-19
听众
16
收听
0
主题
0
蓝光币
175 枚
贡献
0 点
发表于 2019-1-13 19:46:44 | 显示全部楼层
感谢分享!
回复

使用道具 举报

级别:群众演员 Lv.3

注册时间
2019-1-18
最后登录
2019-2-17
听众
8
收听
0
主题
0
蓝光币
163 枚
贡献
0 点
发表于 2019-1-19 18:55:24 | 显示全部楼层

这个帖子不回对不起自己!我想我是一天也不能离开中国高清电影网
回复

使用道具 举报

级别:普通观众 Lv.2

注册时间
2018-2-5
最后登录
2019-5-19
听众
9
收听
0
主题
0
蓝光币
16 枚
贡献
0 点
发表于 2019-1-20 01:45:37 | 显示全部楼层

这东西我收了!谢谢楼主!中国高清电影网真好!
回复

使用道具 举报

级别:初级观众 Lv.1

注册时间
2018-5-19
最后登录
2019-1-24
听众
8
收听
0
主题
0
蓝光币
19 枚
贡献
0 点
发表于 2019-1-21 22:36:44 | 显示全部楼层

既然你诚信诚意的推荐了,那我就勉为其难的看看吧!中国高清电影网不走平凡路。
回复

使用道具 举报

级别:普通观众 Lv.2

注册时间
2019-1-18
最后登录
2019-4-26
听众
9
收听
0
主题
0
蓝光币
11 枚
贡献
0 点
发表于 2019-1-30 15:58:29 | 显示全部楼层

这个帖子不回对不起自己!我想我是一天也不能离开中国高清电影网
回复

使用道具 举报

级别:群众演员 Lv.3

注册时间
2019-2-20
最后登录
2019-8-18
听众
11
收听
0
主题
0
蓝光币
188 枚
贡献
0 点
QQ
发表于 2019-2-25 23:34:17 | 显示全部楼层

楼主太厉害了!楼主,电影应该很好看我觉得中国高清电影网真是个好地方!
回复

使用道具 举报

级别:群众演员 Lv.3

注册时间
2019-1-30
最后登录
2019-8-17
听众
12
收听
0
主题
0
蓝光币
142 枚
贡献
0 点
QQ
发表于 2019-6-21 21:56:35 | 显示全部楼层
美国登月到底是真是假啊
回复

使用道具 举报

懒得打字嘛,点击右侧快捷回复 【右侧内容,后台自定义】
您需要登录后才可以回帖 登录 | 立即注册

本版积分规则

QQ|Archiver|手机版|小黑屋| 中国高清网 |网站地图

GMT+8, 2019-8-19 21:46 , Processed in 0.348078 second(s), 42 queries .

Powered by HDchina X3.4

Copyright 2017-2019©HDchina.All right reserved

返回顶部 联系我们