查看: 380|回复: 1

[10bit.HDR] 极盗者/极限追捕 Point.Break.2015.2160p.BluRay.x265.10bit.HDR.DTS-HD.MA.7.1-SWTYBLZ 15.58GB

[复制链接]

 成长值: 7240

级别:资源管理组

注册时间
2017-10-20
最后登录
2020-9-23
听众
1
收听
0
主题
103189
蓝光币
198093 枚
贡献
21715 点
发表于 2017-12-7 10:12:28 | 显示全部楼层 |阅读模式
071556xoh5trro9t32wghh.jpg
◎译  名 极盗者 / 极限追捕 / 飙风特攻 / 惊爆点 / 新终极豪情
◎片  名 极盗者 Point Break
◎年  代 2015
◎国  家 美国 / 中国大陆 / 德国
◎类  别 行动 / 犯罪 / 活动
◎语  言 英语
◎上映日期 2015-12-04(中国大陆) / 2015-12-25(美国)
◎IMDb评分  5.3/10 from 47,828 users
◎IMDb链接  http://www.imdb.com/title/tt2058673/
◎豆瓣评分 6.8/10 from 64077 users
◎豆瓣链接 https://movie.douban.com/subject/25809384/
◎片  长 113分钟
◎导  演 埃里克松·科尔
◎主  演 卢克·布雷西 Luke Bracey
      埃德加·拉米雷兹 édgar Ramírez
      泰莉莎·帕尔墨 Teresa Palmer
      雷·温斯顿 Ray Winstone
      麦克斯·泰瑞奥 Max Thieriot
      戴尔里·林多 Delroy Lindo
      托拜厄斯·桑特尔曼 Tobias Santelmann
      马蒂亚斯·瓦雷拉 Matias Varela
      克雷蒙斯·施伊克 Clemens Schick
      尼科莱·金斯基 Nikolai Kinski
      格娜萨斯·巴伯 Glynis Barber
      杰米斯·巴特勒 Jaymes Butler
      杰夫·伯勒尔 Jeff Burrell
      詹姆斯·勒格罗 James LeGros
      犹大·刘易斯 Judah Lewis

◎简  介 

  年轻的FBI奸细强尼·犹他(卢克·布雷西 Luke Bracey 饰),潜伏到一队喜好寻觅刺激应战的伏莽里,该队伍由富有小我魅力的鲍迪(埃德加·拉米雷兹 édgar Ramírez 饰)带领。这些伏莽被思疑是在用极不服常的方式停止着系列犯罪。在与鲍迪这一伙人的交往中,犹他发现自己无可自拔的与这伙人发生了伙伴友谊,犹他堕入了职业伦理与追求真我之间的冲突,他放弃了自己的一切,加入到了对人类极限界的八项顶峰应战的追随中……




  1. Video
  2. ID                                       : 1
  3. Format                                   : HEVC
  4. Format/Info                              : High Efficiency Video Coding
  5. Format profile                           : Main [url=mailto:10@L5.1]10@L5.1[/url]@High
  6. Codec ID                                 : V_MPEGH/ISO/HEVC
  7. Duration                                 : 1 h 53 min
  8. Bit rate                                 : 13.6 Mb/s
  9. Width                                    : 3 840 pixels
  10. Height                                   : 1 600 pixels
  11. Display aspect ratio                     : 2.40:1
  12. Frame rate mode                          : Constant
  13. Frame rate                               : 23.976 (24000/1001) FPS
  14. Color space                              : YUV
  15. Chroma subsampling                       : 4:2:0 (Type 2)
  16. Bit depth                                : 10 bits
  17. Bits/(Pixel*Frame)                       : 0.093
  18. Stream size                              : 10.8GB (70%)
  19. Title                                    : Point.Break.2015.2160p.BluRay.x265.10bit.HDR.DTS-HD.MA.7.1-SWTYBLZ
  20. Writing library                          : x265 2.5+4-b4a5bcfe29c7:[Windows][GCC 4.9.3][64 bit] 10bit
  21. Encoding settings                        : cpuid=1173503 / frame-threads=16 / numa-pools=24,24,24,24 / wpp / no-pmode / no-pme / no-psnr / no-ssim / log-level=2 / input-csp=1 / input-res=3840x1600 / interlace=0 / total-frames=0 / level-idc=51 / high-tier=1 / uhd-bd=0 / ref=3 / no-allow-non-conformance / repeat-headers / annexb / aud / hrd / info / hash=0 / no-temporal-layers / no-open-gop / min-keyint=1 / keyint=24 / bframes=4 / b-adapt=2 / b-pyramid / bframe-bias=0 / rc-lookahead=25 / lookahead-slices=4 / scenecut=40 / no-intra-refresh / ctu=64 / min-cu-size=8 / no-rect / no-amp / max-tu-size=32 / tu-inter-depth=1 / tu-intra-depth=1 / limit-tu=0 / rdoq-level=0 / dynamic-rd=0.00 / no-ssim-rd / signhide / no-tskip / nr-intra=0 / nr-inter=0 / no-constrained-intra / strong-intra-smoothing / max-merge=2 / limit-refs=3 / no-limit-modes / me=1 / subme=2 / merange=57 / temporal-mvp / weightp / no-weightb / no-analyze-src-pics / deblock=0:0 / no-sao / no-sao-non-deblock / rd=3 / no-early-skip / rskip / no-fast-intra / no-tskip-fast / no-cu-lossless / no-b-intra / rdpenalty=0 / psy-rd=2.00 / psy-rdoq=0.00 / no-rd-refine / analysis-reuse-mode=0 / no-lossless / cbqpoffs=0 / crqpoffs=0 / rc=crf / crf=16.0 / qcomp=0.60 / qpstep=4 / stats-write=0 / stats-read=0 / vbv-maxrate=160000 / vbv-bufsize=160000 / vbv-init=0.9 / crf-max=0.0 / crf-min=0.0 / ipratio=1.40 / pbratio=1.30 / aq-mode=1 / aq-strength=1.00 / cutree / zone-count=0 / no-strict-cbr / qg-size=32 / no-rc-grain / qpmax=69 / qpmin=0 / no-const-vbv / sar=1 / overscan=0 / videoformat=5 / range=0 / colorprim=9 / transfer=16 / colormatrix=9 / chromaloc=1 / chromaloc-top=2 / chromaloc-bottom=2 / display-window=0 / master-display=G(13250,34500)B(7500,3000)R(34000,16000)WP(15635,16450)L(40000000,50) / max-cll=3293,581 / min-luma=0 / max-luma=1023 / log2-max-poc-lsb=8 / vui-timing-info / vui-hrd-info / slices=1 / opt-qp-pps / opt-ref-list-length-pps / no-multi-pass-opt-rps / scenecut-bias=0.05 / no-opt-cu-delta-qp / no-aq-motion / hdr / hdr-opt / no-dhdr10-opt / analysis-reuse-level=5 / scale-factor=0 / refine-intra=0 / refine-inter=0 / refine-mv=0 / no-limit-sao / ctu-info=0
  22. Language                                 : English
  23. Default                                  : Yes
  24. Forced                                   : No
  25. Color range                              : Limited
  26. Color primaries                          : BT.2020
  27. Transfer characteristics                 : PQ
  28. Matrix coefficients                      : BT.2020 non-constant
  29. Mastering display color primaries        : R: x=0.680000 y=0.320000, G: x=0.265000 y=0.690000, B: x=0.150000 y=0.060000, White point: x=0.312700 y=0.329000
  30. Mastering display luminance              : min: 0.0050 cd/m2, max: 4000.0000 cd/m2
  31. Maximum Content Light Level              : 3293 cd/m2
  32. Maximum Frame-Average Light Level        : 581 cd/m2

  33. Audio #1
  34. ID                                       : 2
  35. Format                                   : DTS
  36. Format/Info                              : Digital Theater Systems
  37. Format profile                           : MA / Core
  38. Codec ID                                 : A_DTS
  39. Duration                                 : 1 h 53 min
  40. Bit rate mode                            : Variable / Constant
  41. Bit rate                                 : 5 104 kb/s / 1 509 kb/s
  42. Channel(s)                               : 8 channels / 6 channels
  43. Channel positions                        : Front: L C R, Side: L R, Back: L R, LFE / Front: L C R, Side: L R, LFE
  44. Sampling rate                            : 48.0 kHz
  45. Frame rate                               : 93.750 FPS (512 SPF)
  46. Bit depth                                : 24 bits
  47. Compression mode                         : Lossless / Lossy
  48. Stream size                              : 4.06GB (26%)
  49. Title                                    : Point.Break.2015.2160p.BluRay.x265.10bit.HDR.DTS-HD.MA.7.1-SWTYBLZ
  50. Language                                 : English
  51. Default                                  : Yes
  52. Forced                                   : No

  53. Audio #2
  54. ID                                       : 3
  55. Format                                   : AC-3
  56. Format/Info                              : Audio Coding 3
  57. Codec ID                                 : A_AC3
  58. Duration                                 : 1 h 53 min
  59. Bit rate mode                            : Constant
  60. Bit rate                                 : 640 kb/s
  61. Channel(s)                               : 6 channels
  62. Channel positions                        : Front: L C R, Side: L R, LFE
  63. Sampling rate                            : 48.0 kHz
  64. Frame rate                               : 31.250 FPS (1536 SPF)
  65. Bit depth                                : 16 bits
  66. Compression mode                         : Lossy
  67. Stream size                              : 521 MiB (3%)
  68. Title                                    : Point.Break.2015.2160p.BluRay.x265.10bit.HDR.DTS-HD.MA.7.1-SWTYBLZ
  69. Language                                 : English
  70. Service kind                             : Complete Main
  71. Default                                  : No
  72. Forced                                   : No

  73. Text #1
  74. ID                                       : 4
  75. Format                                   : UTF-8
  76. Codec ID                                 : S_TEXT/UTF8
  77. Codec ID/Info                            : UTF-8 Plain Text
  78. Duration                                 : 1 h 36 min
  79. Bit rate                                 : 38 b/s
  80. Count of elements                        : 834
  81. Stream size                              : 27.1 KiB (0%)
  82. Title                                    : English-SRT
  83. Language                                 : English
  84. Default                                  : Yes
  85. Forced                                   : No

  86. Text #2
  87. ID                                       : 5
  88. Format                                   : PGS
  89. Muxing mode                              : zlib
  90. Codec ID                                 : S_HDMV/PGS
  91. Codec ID/Info                            : Picture based subtitle format used on BDs/HD-DVDs
  92. Duration                                 : 1 h 52 min
  93. Bit rate                                 : 19.9 kb/s
  94. Count of elements                        : 1846
  95. Stream size                              : 16.0 MiB (0%)
  96. Title                                    : English-SDH-PGS
  97. Language                                 : English
  98. Default                                  : No
  99. Forced                                   : No

  100. Text #3
  101. ID                                       : 6
  102. Format                                   : PGS
  103. Muxing mode                              : zlib
  104. Codec ID                                 : S_HDMV/PGS
  105. Codec ID/Info                            : Picture based subtitle format used on BDs/HD-DVDs
  106. Duration                                 : 1 h 36 min
  107. Bit rate                                 : 14.7 kb/s
  108. Count of elements                        : 1683
  109. Stream size                              : 10.2 MiB (0%)
  110. Title                                    : Japanese-PGS
  111. Language                                 : Japanese
  112. Default                                  : No
  113. Forced                                   : No

  114. Text #4
  115. ID                                       : 7
  116. Format                                   : PGS
  117. Muxing mode                              : zlib
  118. Codec ID                                 : S_HDMV/PGS
  119. Codec ID/Info                            : Picture based subtitle format used on BDs/HD-DVDs
  120. Duration                                 : 1 h 52 min
  121. Bit rate                                 : 16.5 kb/s
  122. Count of elements                        : 1602
  123. Stream size                              : 13.3 MiB (0%)
  124. Title                                    : Portuguese-Brazilian-PGS
  125. Language                                 : Portuguese
  126. Default                                  : No
  127. Forced                                   : No

  128. Text #5
  129. ID                                       : 8
  130. Format                                   : PGS
  131. Muxing mode                              : zlib
  132. Codec ID                                 : S_HDMV/PGS
  133. Codec ID/Info                            : Picture based subtitle format used on BDs/HD-DVDs
  134. Duration                                 : 1 h 52 min
  135. Bit rate                                 : 18.1 kb/s
  136. Count of elements                        : 1674
  137. Stream size                              : 14.6 MiB (0%)
  138. Title                                    : French-PGS
  139. Language                                 : French
  140. Default                                  : No
  141. Forced                                   : No

  142. Text #6
  143. ID                                       : 9
  144. Format                                   : PGS
  145. Muxing mode                              : zlib
  146. Codec ID                                 : S_HDMV/PGS
  147. Codec ID/Info                            : Picture based subtitle format used on BDs/HD-DVDs
  148. Duration                                 : 1 h 52 min
  149. Bit rate                                 : 17.5 kb/s
  150. Count of elements                        : 1604
  151. Stream size                              : 14.1 MiB (0%)
  152. Title                                    : Spanish-Latin-American-PGS
  153. Language                                 : Spanish
  154. Default                                  : No
  155. Forced                                   : No

  156. Menu
  157. 00:00:00.000                             : en:00:00:00.000
  158. 00:10:11.820                             : en:00:10:11.820
  159. 00:21:05.097                             : en:00:21:05.097
  160. 00:29:20.926                             : en:00:29:20.926
  161. 00:42:44.896                             : en:00:42:44.896
  162. 00:50:05.794                             : en:00:50:05.794
  163. 01:03:19.462                             : en:01:03:19.462
  164. 01:12:43.943                             : en:01:12:43.943
  165. 01:20:40.419                             : en:01:20:40.419
  166. 01:27:14.521                             : en:01:27:14.521
  167. 01:32:44.350                             : en:01:32:44.350
  168. 01:39:02.603                             : en:01:39:02.603

复制代码
复制代码
071556q3t3hhzctcuhobi6.png 071556oqtqpgtxyxz4gekp.png 071557pjjg5vbwpgmmpjbi.png 071557kxu9eeke6dflgizg.png 071557ab8wzdf9laf99fwk.png 071558gfxy3ucqqufoul8x.png

                                                                                                




[btshow=0]
本帖隐藏的下载地址需要VIP会员才可阅读,您需要升级才可阅读,点击这里升级VIP
[/btshow]
回复

使用道具 举报

级别:群众演员 Lv.3

注册时间
2020-6-5
最后登录
2020-9-25
听众
5
收听
0
主题
0
蓝光币
235 枚
贡献
0 点
QQ
发表于 2020-9-13 18:24:09 | 显示全部楼层
楼主发贴辛苦了,谢谢楼主分享!我觉得中国高清电影网是注册对了!
回复

使用道具 举报

懒得打字嘛,点击右侧快捷回复 【右侧内容,后台自定义】
您需要登录后才可以回帖 登录 | 立即注册

本版积分规则

Archiver|手机版|小黑屋| 中国高清网 ( ICP备17007870号-2 ) |网站地图 

GMT+8, 2020-9-25 23:47 , Processed in 0.176726 second(s), 40 queries .

Powered by HDchina X3.4

Copyright 2017-2019©HDchina.All right reserved

返回顶部 联系我们