查看: 486|回复: 2

[10bit.HDR] 2001太空漫游/2001:星际漫游 2001.A.Space.Odyssey.1968.2160p.UHD.BluRay.X265.10bit.HDR.DTS-HD.MA.5.1-IAMABLE 22.52GB

[复制链接]

 成长值: 6010

级别:资源管理组

注册时间
2017-10-20
最后登录
2020-7-7
听众
1
收听
0
主题
97619
蓝光币
168129 枚
贡献
21715 点
发表于 2018-10-27 22:47:38 | 显示全部楼层 |阅读模式
2001太空周游/2001:星际周游 2001.A.Space.Odyssey.1968.2160p.UHD.BluRay.X265.10bit.HDR.DTS-HD.MA.5.1-IAMABLE 22.52GB-1.jpg
◎译  名 2001太空周游 / 2001:星际周游 / 2001:太空奥德赛
◎片  名 2001太空周游 2001: A Space Odyssey
◎年  代 1968
◎国  家 英国 / 美国
◎类  别 科幻 / 惊悚 / 冒险
◎语  言 英语 / 俄语
◎上映日期 1968-04-02(华盛稽首映) / 1968-05-12(英国)
◎IMDb评分  8.3/10 from 518,389 users
◎IMDb链接  http://www.imdb.com/title/tt0062622/
◎豆瓣评分 8.7/10 from 109603 users
◎豆瓣链接 https://movie.douban.com/subject/1292226/
◎片  长 148分钟
◎导  演 斯坦利·库布里克
◎主  演 凯尔·杜拉
      加里·洛克伍德
      威廉姆·西尔维斯特
      丹尼尔·里希特
      雷纳德·洛塞特
      罗伯特·比提
      肖恩·沙利文
      艾德·毕肖普
      格伦·贝克
      艾伦·吉福德
      安·吉祥斯

◎简  介 

  这部影片是库布里克花了四年时候建造的布满哲学命题的鸿篇巨制。一块大黑石建立在史前人类的眼前,他们刚刚起头熟悉工具,进入到进化的里程碑。一样的黑石还在宇宙多处出现,它们耸立在月球上,漂泊在太空中,带着某种奥秘的寓意。
  现在的时候是2001年,为了寻觅黑石的根源,人类展开一项木星登陆计划。飞船上有蛰伏的三名宇航员,大卫船主(凯尔·杜拉 Keir Dullea饰)、富兰克飞翔员(加里·洛克伍德 Gary Lockwood饰),还有一部叫“HAL9000”的高智能电脑。HAL在宇宙飞翔进程中发生庞杂,令到富兰克和三名蛰伏职员相继丧命,剩下波曼和这台电脑作战。
  从灭亡线上返来的大卫一气之下关掉主脑系统,HAL完全生效。现在,茫茫宇宙中只剩大卫一人,向木星进发。穿越瑰异壮观的星门,大卫恍如去到一个奇异的时空,那边有人类无尽的生死循环和宇宙的终极常识……

◎获奖情况 

  第41届奥斯卡金像奖 (1969)
  最好导演(提名) 斯坦利·库布里克
  最好原创剧本(提名) 亚瑟·克拉克 /  斯坦利·库布里克
  最好视觉结果 斯坦利·库布里克
  最好艺术指导(提名) Anthony Masters /  哈利·兰格


  1. Video
  2. ID                                       : 1
  3. Format                                   : HEVC
  4. Format/Info                              : High Efficiency Video Coding
  5. Commercial name                          : HDR10
  6. Format profile                           : Main [url=/cdn-cgi/l/email-protection][email protected][/url]@High
  7. Codec ID                                 : V_MPEGH/ISO/HEVC
  8. Duration                                 : 2 h 28 min
  9. Bit rate                                 : 18.8 Mb/s
  10. Width                                    : 3 840 pixels
  11. Height                                   : 1 746 pixels
  12. Display aspect ratio                     : 2.2:1
  13. Frame rate mode                          : Constant
  14. Frame rate                               : 23.976 (24000/1001) FPS
  15. Color space                              : YUV
  16. Chroma subsampling                       : 4:2:0 (Type 2)
  17. Bit depth                                : 10 bits
  18. Bits/(Pixel*Frame)                       : 0.117
  19. Stream size                              : 19.6 GiB (88%)
  20. Writing library                          : x265 2.8+58-d17bc7714ed2:[Windows][GCC 8.2.0][64 bit] 10bit
  21. Encoding settings                        : cpuid=1111039 / frame-threads=5 / numa-pools=36 / wpp / no-pmode / no-pme / no-psnr / no-ssim / log-level=2 / input-csp=1 / input-res=3840x1746 / interlace=0 / total-frames=214088 / level-idc=51 / high-tier=1 / uhd-bd=0 / ref=4 / no-allow-non-conformance / repeat-headers / annexb / aud / hrd / info / hash=0 / no-temporal-layers / no-open-gop / min-keyint=24 / keyint=240 / gop-lookahead=0 / bframes=4 / b-adapt=2 / b-pyramid / bframe-bias=0 / rc-lookahead=25 / lookahead-slices=4 / scenecut=40 / radl=0 / no-intra-refresh / ctu=64 / min-cu-size=8 / rect / no-amp / max-tu-size=32 / tu-inter-depth=1 / tu-intra-depth=1 / limit-tu=0 / rdoq-level=2 / dynamic-rd=0.00 / no-ssim-rd / signhide / no-tskip / nr-intra=0 / nr-inter=0 / no-constrained-intra / no-strong-intra-smoothing / max-merge=3 / limit-refs=3 / limit-modes / me=3 / subme=3 / merange=57 / temporal-mvp / weightp / no-weightb / no-analyze-src-pics / deblock=-3:-3 / no-sao / no-sao-non-deblock / rd=4 / no-early-skip / rskip / no-fast-intra / no-tskip-fast / no-cu-lossless / no-b-intra / no-splitrd-skip / rdpenalty=0 / psy-rd=2.00 / psy-rdoq=1.00 / no-rd-refine / no-lossless / cbqpoffs=0 / crqpoffs=0 / rc=crf / crf=17.0 / qcomp=0.60 / qpstep=4 / stats-write=0 / stats-read=0 / vbv-maxrate=160000 / vbv-bufsize=160000 / vbv-init=0.9 / crf-max=0.0 / crf-min=0.0 / ipratio=1.40 / pbratio=1.30 / aq-mode=1 / aq-strength=1.00 / cutree / zone-count=0 / no-strict-cbr / qg-size=32 / no-rc-grain / qpmax=69 / qpmin=0 / no-const-vbv / sar=1 / overscan=0 / videoformat=5 / range=0 / colorprim=9 / transfer=16 / colormatrix=9 / chromaloc=1 / chromaloc-top=2 / chromaloc-bottom=2 / display-window=0 / master-display=G(8500,39850)B(6550,2300)R(35400,14600)WP(15635,16450)L(10000000,50) / max-cll=992,282 / min-luma=0 / max-luma=1023 / log2-max-poc-lsb=8 / vui-timing-info / vui-hrd-info / slices=1 / no-opt-qp-pps / no-opt-ref-list-length-pps / no-multi-pass-opt-rps / scenecut-bias=0.05 / no-opt-cu-delta-qp / no-aq-motion / hdr / hdr-opt / no-dhdr10-opt / no-idr-recovery-sei / analysis-reuse-level=5 / scale-factor=0 / refine-intra=0 / refine-inter=0 / refine-mv=0 / no-limit-sao / ctu-info=0 / no-lowpass-dct / refine-mv-type=0 / copy-pic=1 / max-ausize-factor=1.0 / no-dynamic-refine / no-single-sei
  22. Default                                  : Yes
  23. Forced                                   : No
  24. Color range                              : Limited
  25. Color primaries                          : BT.2020
  26. Transfer characteristics                 : PQ
  27. Matrix coefficients                      : BT.2020 non-constant
  28. Mastering display color primaries        : BT.2020
  29. Mastering display luminance              : min: 0.0050 cd/m2, max: 1000 cd/m2
  30. Maximum Content Light Level              : 992 cd/m2
  31. Maximum Frame-Average Light Level        : 282 cd/m2

  32. Audio #1
  33. ID                                       : 2
  34. Format                                   : DTS XLL
  35. Format/Info                              : Digital Theater Systems
  36. Commercial name                          : DTS-HD Master Audio
  37. Codec ID                                 : A_DTS
  38. Duration                                 : 2 h 28 min
  39. Bit rate mode                            : Variable
  40. Bit rate                                 : 2 197 kb/s
  41. Channel(s)                               : 6 channels
  42. Channel layout                           : C L R Ls Rs LFE
  43. Sampling rate                            : 48.0 kHz
  44. Frame rate                               : 93.750 FPS (512 SPF)
  45. Bit depth                                : 16 bits
  46. Compression mode                         : Lossless
  47. Stream size                              : 2.28 GiB (10%)
  48. Title                                    : DTS-HD MA 5.1
  49. Language                                 : English
  50. Default                                  : Yes
  51. Forced                                   : No

  52. Audio #2
  53. ID                                       : 3
  54. Format                                   : AC-3
  55. Format/Info                              : Audio Coding 3
  56. Commercial name                          : Dolby Digital
  57. Codec ID                                 : A_AC3
  58. Duration                                 : 2 h 28 min
  59. Bit rate mode                            : Constant
  60. Bit rate                                 : 192 kb/s
  61. Channel(s)                               : 2 channels
  62. Channel layout                           : L R
  63. Sampling rate                            : 48.0 kHz
  64. Frame rate                               : 31.250 FPS (1536 SPF)
  65. Bit depth                                : 16 bits
  66. Compression mode                         : Lossy
  67. Stream size                              : 204 MiB (1%)
  68. Title                                    : Commentary with Keir Dullea and Gary Lockwood
  69. Language                                 : English
  70. Service kind                             : Complete Main
  71. Default                                  : No
  72. Forced                                   : No

  73. Text #1
  74. ID                                       : 4
  75. Format                                   : UTF-8
  76. Codec ID                                 : S_TEXT/UTF8
  77. Codec ID/Info                            : UTF-8 Plain Text
  78. Duration                                 : 1 h 31 min
  79. Bit rate                                 : 40 b/s
  80. Count of elements                        : 641
  81. Stream size                              : 26.8 KiB (0%)
  82. Title                                    : Stripped SRT
  83. Language                                 : English
  84. Default                                  : No
  85. Forced                                   : No

  86. Text #2
  87. ID                                       : 5
  88. Format                                   : UTF-8
  89. Codec ID                                 : S_TEXT/UTF8
  90. Codec ID/Info                            : UTF-8 Plain Text
  91. Duration                                 : 2 h 17 min
  92. Bit rate                                 : 28 b/s
  93. Count of elements                        : 667
  94. Stream size                              : 28.3 KiB (0%)
  95. Title                                    : SDH SRT
  96. Language                                 : English
  97. Default                                  : No
  98. Forced                                   : No

  99. Text #3
  100. ID                                       : 6
  101. Format                                   : PGS
  102. Muxing mode                              : zlib
  103. Codec ID                                 : S_HDMV/PGS
  104. Codec ID/Info                            : Picture based subtitle format used on BDs/HD-DVDs
  105. Duration                                 : 2 h 17 min
  106. Bit rate                                 : 15.1 kb/s
  107. Count of elements                        : 1334
  108. Stream size                              : 14.9 MiB (0%)
  109. Title                                    : SDH
  110. Language                                 : English
  111. Default                                  : No
  112. Forced                                   : No

  113. Text #4
  114. ID                                       : 7
  115. Format                                   : PGS
  116. Muxing mode                              : zlib
  117. Codec ID                                 : S_HDMV/PGS
  118. Codec ID/Info                            : Picture based subtitle format used on BDs/HD-DVDs
  119. Duration                                 : 2 h 20 min
  120. Bit rate                                 : 12.0 kb/s
  121. Count of elements                        : 1264
  122. Stream size                              : 12.0 MiB (0%)
  123. Language                                 : French
  124. Default                                  : No
  125. Forced                                   : No

  126. Text #5
  127. ID                                       : 8
  128. Format                                   : PGS
  129. Muxing mode                              : zlib
  130. Codec ID                                 : S_HDMV/PGS
  131. Codec ID/Info                            : Picture based subtitle format used on BDs/HD-DVDs
  132. Duration                                 : 2 h 20 min
  133. Bit rate                                 : 13.4 kb/s
  134. Count of elements                        : 1288
  135. Stream size                              : 13.4 MiB (0%)
  136. Title                                    : EU
  137. Language                                 : Spanish
  138. Default                                  : No
  139. Forced                                   : No

  140. Text #6
  141. ID                                       : 9
  142. Format                                   : PGS
  143. Muxing mode                              : zlib
  144. Codec ID                                 : S_HDMV/PGS
  145. Codec ID/Info                            : Picture based subtitle format used on BDs/HD-DVDs
  146. Duration                                 : 2 h 20 min
  147. Bit rate                                 : 12.1 kb/s
  148. Count of elements                        : 1272
  149. Stream size                              : 12.1 MiB (0%)
  150. Title                                    : LA
  151. Language                                 : Spanish
  152. Default                                  : No
  153. Forced                                   : No

  154. Text #7
  155. ID                                       : 10
  156. Format                                   : PGS
  157. Muxing mode                              : zlib
  158. Codec ID                                 : S_HDMV/PGS
  159. Codec ID/Info                            : Picture based subtitle format used on BDs/HD-DVDs
  160. Duration                                 : 2 h 20 min
  161. Bit rate                                 : 13.5 kb/s
  162. Count of elements                        : 1310
  163. Stream size                              : 13.5 MiB (0%)
  164. Language                                 : Portuguese
  165. Default                                  : No
  166. Forced                                   : No

  167. Text #8
  168. ID                                       : 11
  169. Format                                   : PGS
  170. Muxing mode                              : zlib
  171. Codec ID                                 : S_HDMV/PGS
  172. Codec ID/Info                            : Picture based subtitle format used on BDs/HD-DVDs
  173. Duration                                 : 2 h 20 min
  174. Bit rate                                 : 14.6 kb/s
  175. Count of elements                        : 1292
  176. Stream size                              : 14.6 MiB (0%)
  177. Language                                 : Portuguese
  178. Default                                  : No
  179. Forced                                   : No

  180. Text #9
  181. ID                                       : 12
  182. Format                                   : PGS
  183. Muxing mode                              : zlib
  184. Codec ID                                 : S_HDMV/PGS
  185. Codec ID/Info                            : Picture based subtitle format used on BDs/HD-DVDs
  186. Duration                                 : 2 h 20 min
  187. Bit rate                                 : 15.1 kb/s
  188. Count of elements                        : 1342
  189. Stream size                              : 15.2 MiB (0%)
  190. Language                                 : Italian
  191. Default                                  : No
  192. Forced                                   : No

  193. Text #10
  194. ID                                       : 13
  195. Format                                   : PGS
  196. Muxing mode                              : zlib
  197. Codec ID                                 : S_HDMV/PGS
  198. Codec ID/Info                            : Picture based subtitle format used on BDs/HD-DVDs
  199. Duration                                 : 2 h 20 min
  200. Bit rate                                 : 16.3 kb/s
  201. Count of elements                        : 1316
  202. Stream size                              : 16.4 MiB (0%)
  203. Language                                 : German
  204. Default                                  : No
  205. Forced                                   : No

  206. Text #11
  207. ID                                       : 14
  208. Format                                   : PGS
  209. Muxing mode                              : zlib
  210. Codec ID                                 : S_HDMV/PGS
  211. Codec ID/Info                            : Picture based subtitle format used on BDs/HD-DVDs
  212. Duration                                 : 2 h 19 min
  213. Bit rate                                 : 11.0 kb/s
  214. Count of elements                        : 900
  215. Stream size                              : 10.9 MiB (0%)
  216. Language                                 : Dutch
  217. Default                                  : No
  218. Forced                                   : No

  219. Text #12
  220. ID                                       : 15
  221. Format                                   : PGS
  222. Muxing mode                              : zlib
  223. Codec ID                                 : S_HDMV/PGS
  224. Codec ID/Info                            : Picture based subtitle format used on BDs/HD-DVDs
  225. Duration                                 : 2 h 20 min
  226. Bit rate                                 : 9 079 b/s
  227. Count of elements                        : 760
  228. Stream size                              : 9.11 MiB (0%)
  229. Language                                 : Swedish
  230. Default                                  : No
  231. Forced                                   : No

  232. Text #13
  233. ID                                       : 16
  234. Format                                   : PGS
  235. Muxing mode                              : zlib
  236. Codec ID                                 : S_HDMV/PGS
  237. Codec ID/Info                            : Picture based subtitle format used on BDs/HD-DVDs
  238. Duration                                 : 2 h 20 min
  239. Bit rate                                 : 9 972 b/s
  240. Count of elements                        : 884
  241. Stream size                              : 10.0 MiB (0%)
  242. Language                                 : Norwegian
  243. Default                                  : No
  244. Forced                                   : No

  245. Text #14
  246. ID                                       : 17
  247. Format                                   : PGS
  248. Muxing mode                              : zlib
  249. Codec ID                                 : S_HDMV/PGS
  250. Codec ID/Info                            : Picture based subtitle format used on BDs/HD-DVDs
  251. Duration                                 : 2 h 20 min
  252. Bit rate                                 : 10.1 kb/s
  253. Count of elements                        : 774
  254. Stream size                              : 10.1 MiB (0%)
  255. Language                                 : Danish
  256. Default                                  : No
  257. Forced                                   : No

  258. Text #15
  259. ID                                       : 18
  260. Format                                   : PGS
  261. Muxing mode                              : zlib
  262. Codec ID                                 : S_HDMV/PGS
  263. Codec ID/Info                            : Picture based subtitle format used on BDs/HD-DVDs
  264. Duration                                 : 2 h 20 min
  265. Bit rate                                 : 9 768 b/s
  266. Count of elements                        : 750
  267. Stream size                              : 9.80 MiB (0%)
  268. Language                                 : Finnish
  269. Default                                  : No
  270. Forced                                   : No

  271. Text #16
  272. ID                                       : 19
  273. Format                                   : PGS
  274. Muxing mode                              : zlib
  275. Codec ID                                 : S_HDMV/PGS
  276. Codec ID/Info                            : Picture based subtitle format used on BDs/HD-DVDs
  277. Duration                                 : 2 h 20 min
  278. Bit rate                                 : 14.5 kb/s
  279. Count of elements                        : 1304
  280. Stream size                              : 14.5 MiB (0%)
  281. Language                                 : Russian
  282. Default                                  : No
  283. Forced                                   : No

  284. Text #17
  285. ID                                       : 20
  286. Format                                   : PGS
  287. Muxing mode                              : zlib
  288. Codec ID                                 : S_HDMV/PGS
  289. Codec ID/Info                            : Picture based subtitle format used on BDs/HD-DVDs
  290. Duration                                 : 2 h 20 min
  291. Bit rate                                 : 11.9 kb/s
  292. Count of elements                        : 1324
  293. Stream size                              : 11.9 MiB (0%)
  294. Language                                 : Czech
  295. Default                                  : No
  296. Forced                                   : No

  297. Text #18
  298. ID                                       : 21
  299. Format                                   : PGS
  300. Muxing mode                              : zlib
  301. Codec ID                                 : S_HDMV/PGS
  302. Codec ID/Info                            : Picture based subtitle format used on BDs/HD-DVDs
  303. Duration                                 : 2 h 20 min
  304. Bit rate                                 : 10.8 kb/s
  305. Count of elements                        : 1282
  306. Stream size                              : 10.8 MiB (0%)
  307. Language                                 : Polish
  308. Default                                  : No
  309. Forced                                   : No

  310. Text #19
  311. ID                                       : 22
  312. Format                                   : PGS
  313. Muxing mode                              : zlib
  314. Codec ID                                 : S_HDMV/PGS
  315. Codec ID/Info                            : Picture based subtitle format used on BDs/HD-DVDs
  316. Duration                                 : 2 h 20 min
  317. Bit rate                                 : 13.0 kb/s
  318. Count of elements                        : 1326
  319. Stream size                              : 13.0 MiB (0%)
  320. Language                                 : Hungarian
  321. Default                                  : No
  322. Forced                                   : No

  323. Text #20
  324. ID                                       : 23
  325. Format                                   : PGS
  326. Muxing mode                              : zlib
  327. Codec ID                                 : S_HDMV/PGS
  328. Codec ID/Info                            : Picture based subtitle format used on BDs/HD-DVDs
  329. Duration                                 : 2 h 20 min
  330. Bit rate                                 : 11.4 kb/s
  331. Count of elements                        : 1278
  332. Stream size                              : 11.4 MiB (0%)
  333. Language                                 : Romanian
  334. Default                                  : No
  335. Forced                                   : No

  336. Text #21
  337. ID                                       : 24
  338. Format                                   : PGS
  339. Muxing mode                              : zlib
  340. Codec ID                                 : S_HDMV/PGS
  341. Codec ID/Info                            : Picture based subtitle format used on BDs/HD-DVDs
  342. Duration                                 : 2 h 20 min
  343. Bit rate                                 : 13.0 kb/s
  344. Count of elements                        : 1288
  345. Stream size                              : 13.1 MiB (0%)
  346. Language                                 : Croatian
  347. Default                                  : No
  348. Forced                                   : No

  349. Text #22
  350. ID                                       : 25
  351. Format                                   : PGS
  352. Muxing mode                              : zlib
  353. Codec ID                                 : S_HDMV/PGS
  354. Codec ID/Info                            : Picture based subtitle format used on BDs/HD-DVDs
  355. Duration                                 : 2 h 20 min
  356. Bit rate                                 : 11.8 kb/s
  357. Count of elements                        : 1192
  358. Stream size                              : 11.8 MiB (0%)
  359. Language                                 : Greek
  360. Default                                  : No
  361. Forced                                   : No

  362. Text #23
  363. ID                                       : 26
  364. Format                                   : PGS
  365. Muxing mode                              : zlib
  366. Codec ID                                 : S_HDMV/PGS
  367. Codec ID/Info                            : Picture based subtitle format used on BDs/HD-DVDs
  368. Duration                                 : 2 h 19 min
  369. Bit rate                                 : 13.2 kb/s
  370. Count of elements                        : 1286
  371. Stream size                              : 13.2 MiB (0%)
  372. Language                                 : Turkish
  373. Default                                  : No
  374. Forced                                   : No

  375. Text #24
  376. ID                                       : 27
  377. Format                                   : PGS
  378. Muxing mode                              : zlib
  379. Codec ID                                 : S_HDMV/PGS
  380. Codec ID/Info                            : Picture based subtitle format used on BDs/HD-DVDs
  381. Duration                                 : 2 h 20 min
  382. Bit rate                                 : 7 350 b/s
  383. Count of elements                        : 1280
  384. Stream size                              : 7.38 MiB (0%)
  385. Language                                 : Arabic
  386. Default                                  : No
  387. Forced                                   : No

  388. Text #25
  389. ID                                       : 28
  390. Format                                   : PGS
  391. Muxing mode                              : zlib
  392. Codec ID                                 : S_HDMV/PGS
  393. Codec ID/Info                            : Picture based subtitle format used on BDs/HD-DVDs
  394. Duration                                 : 2 h 20 min
  395. Bit rate                                 : 8 296 b/s
  396. Count of elements                        : 1246
  397. Stream size                              : 8.32 MiB (0%)
  398. Language                                 : Hebrew
  399. Default                                  : No
  400. Forced                                   : No

  401. Text #26
  402. ID                                       : 29
  403. Format                                   : PGS
  404. Muxing mode                              : zlib
  405. Codec ID                                 : S_HDMV/PGS
  406. Codec ID/Info                            : Picture based subtitle format used on BDs/HD-DVDs
  407. Duration                                 : 1 h 52 min
  408. Bit rate                                 : 12.4 kb/s
  409. Count of elements                        : 1407
  410. Stream size                              : 9.99 MiB (0%)
  411. Language                                 : Japanese
  412. Default                                  : No
  413. Forced                                   : No

  414. Text #27
  415. ID                                       : 30
  416. Format                                   : PGS
  417. Muxing mode                              : zlib
  418. Codec ID                                 : S_HDMV/PGS
  419. Codec ID/Info                            : Picture based subtitle format used on BDs/HD-DVDs
  420. Duration                                 : 2 h 24 min
  421. Bit rate                                 : 33.5 kb/s
  422. Count of elements                        : 3100
  423. Stream size                              : 34.6 MiB (0%)
  424. Language                                 : Japanese
  425. Default                                  : No
  426. Forced                                   : No

  427. Text #28
  428. ID                                       : 31
  429. Format                                   : PGS
  430. Muxing mode                              : zlib
  431. Codec ID                                 : S_HDMV/PGS
  432. Codec ID/Info                            : Picture based subtitle format used on BDs/HD-DVDs
  433. Duration                                 : 2 h 20 min
  434. Bit rate                                 : 11.6 kb/s
  435. Count of elements                        : 1350
  436. Stream size                              : 11.6 MiB (0%)
  437. Title                                    : Mandarin Traditional
  438. Language                                 : Chinese
  439. Default                                  : No
  440. Forced                                   : No

  441. Text #29
  442. ID                                       : 32
  443. Format                                   : PGS
  444. Muxing mode                              : zlib
  445. Codec ID                                 : S_HDMV/PGS
  446. Codec ID/Info                            : Picture based subtitle format used on BDs/HD-DVDs
  447. Duration                                 : 2 h 20 min
  448. Bit rate                                 : 13.0 kb/s
  449. Count of elements                        : 1326
  450. Stream size                              : 13.0 MiB (0%)
  451. Title                                    : Mandarin Simplified
  452. Language                                 : Chinese
  453. Default                                  : No
  454. Forced                                   : No

  455. Text #30
  456. ID                                       : 33
  457. Format                                   : PGS
  458. Muxing mode                              : zlib
  459. Codec ID                                 : S_HDMV/PGS
  460. Codec ID/Info                            : Picture based subtitle format used on BDs/HD-DVDs
  461. Duration                                 : 2 h 24 min
  462. Bit rate                                 : 35.2 kb/s
  463. Count of elements                        : 3294
  464. Stream size                              : 36.3 MiB (0%)
  465. Language                                 : Chinese
  466. Default                                  : No
  467. Forced                                   : No

  468. Text #31
  469. ID                                       : 34
  470. Format                                   : PGS
  471. Muxing mode                              : zlib
  472. Codec ID                                 : S_HDMV/PGS
  473. Codec ID/Info                            : Picture based subtitle format used on BDs/HD-DVDs
  474. Duration                                 : 2 h 20 min
  475. Bit rate                                 : 10.3 kb/s
  476. Count of elements                        : 1328
  477. Stream size                              : 10.3 MiB (0%)
  478. Language                                 : Korean
  479. Default                                  : No
  480. Forced                                   : No

  481. Text #32
  482. ID                                       : 35
  483. Format                                   : PGS
  484. Muxing mode                              : zlib
  485. Codec ID                                 : S_HDMV/PGS
  486. Codec ID/Info                            : Picture based subtitle format used on BDs/HD-DVDs
  487. Duration                                 : 2 h 19 min
  488. Bit rate                                 : 13.4 kb/s
  489. Count of elements                        : 1328
  490. Stream size                              : 13.4 MiB (0%)
  491. Language                                 : Thai
  492. Default                                  : No
  493. Forced                                   : No

  494. Menu
  495. 00:00:00.000                             : :00:00:00.000
  496. 00:02:55.175                             : :00:02:55.175
  497. 00:04:37.110                             : :00:04:37.110
  498. 00:11:37.864                             : :00:11:37.864
  499. 00:16:55.890                             : :00:16:55.890
  500. 00:19:50.940                             : :00:19:50.940
  501. 00:25:27.359                             : :00:25:27.359
  502. 00:27:36.071                             : :00:27:36.071
  503. 00:29:27.432                             : :00:29:27.432
  504. 00:33:44.773                             : :00:33:44.773
  505. 00:41:06.631                             : :00:41:06.631
  506. 00:45:35.399                             : :00:45:35.399
  507. 00:50:54.551                             : :00:50:54.551
  508. 00:54:39.943                             : :00:54:39.943
  509. 00:58:31.633                             : :00:58:31.633
  510. 01:03:53.955                             : :01:03:53.955
  511. 01:06:03.209                             : :01:06:03.209
  512. 01:12:08.574                             : :01:12:08.574
  513. 01:18:49.767                             : :01:18:49.767
  514. 01:22:59.433                             : :01:22:59.433
  515. 01:27:00.132                             : :01:27:00.132
  516. 01:27:47.262                             : :01:27:47.262
  517. 01:30:05.734                             : :01:30:05.734
  518. 01:32:48.772                             : :01:32:48.772
  519. 01:38:33.491                             : :01:38:33.491
  520. 01:40:44.997                             : :01:40:44.997
  521. 01:45:33.452                             : :01:45:33.452
  522. 01:49:39.448                             : :01:49:39.448
  523. 01:55:17.577                             : :01:55:17.577
  524. 01:57:04.017                             : :01:57:04.017
  525. 02:01:26.112                             : :02:01:26.112
  526. 02:11:31.300                             : :02:11:31.300
  527. 02:17:55.517                             : :02:17:55.517
  528. 02:20:31.423                             : :02:20:31.423
复制代码

复制代码

2001太空周游/2001:星际周游 2001.A.Space.Odyssey.1968.2160p.UHD.BluRay.X265.10bit.HDR.DTS-HD.MA.5.1-IAMABLE 22.52GB-2.png 2001太空周游/2001:星际周游 2001.A.Space.Odyssey.1968.2160p.UHD.BluRay.X265.10bit.HDR.DTS-HD.MA.5.1-IAMABLE 22.52GB-3.png 2001太空周游/2001:星际周游 2001.A.Space.Odyssey.1968.2160p.UHD.BluRay.X265.10bit.HDR.DTS-HD.MA.5.1-IAMABLE 22.52GB-4.png






本帖隐藏的下载地址需要VIP会员才可阅读,您需要升级才可阅读,点击这里升级VIP

回复

使用道具 举报

级别:普通观众 Lv.2

注册时间
2018-10-23
最后登录
2019-1-16
听众
12
收听
0
主题
0
蓝光币
1 枚
贡献
0 点
发表于 2018-11-6 19:52:43 | 显示全部楼层
谢谢楼主分享
回复

使用道具 举报

 成长值: 160

级别:尊贵的会员

注册时间
2020-6-21
最后登录
2020-7-5
听众
1
收听
0
主题
0
蓝光币
36 枚
贡献
0 点
发表于 7 天前 | 显示全部楼层

谢谢楼主分享
回复

使用道具 举报

懒得打字嘛,点击右侧快捷回复 【右侧内容,后台自定义】
您需要登录后才可以回帖 登录 | 立即注册

本版积分规则

Archiver|手机版|小黑屋| 中国高清网 ( ICP备17007870号-2 ) |网站地图 

GMT+8, 2020-7-7 20:43 , Processed in 0.251318 second(s), 39 queries .

Powered by HDchina X3.4

Copyright 2017-2019©HDchina.All right reserved

返回顶部 联系我们