查看: 1161|回复: 5

[2160p-4K电影] 人类清除计划4/杀戮元年 The.First.Purge.2018.2160p.UHD.BluRay.X265.10bit.DTS-X.7.1-TERMiNAL 19.11GB

[复制链接]

 成长值: 3210

级别:资源管理组

注册时间
2017-10-20
最后登录
2019-11-20
听众
1
收听
0
主题
87271
蓝光币
63238 枚
贡献
11630 点
发表于 2018-10-5 00:46:48 | 显示全部楼层 |阅读模式
人类断根计划4/杀戮元年 The.First.Purge.2018.2160p.UHD.BluRay.X265.10bit.DTS-X.7.1-TERMiNAL 19.11GB-1.jpg
◎译  名 人类断根计划4/杀戮元年(台)/国定杀戮日:屠亡前传(港)
◎片  名 The First Purge
◎年  代 2018
◎产  地 美国
◎类  别 科幻/犯罪/惊悚
◎语  言 英语
◎上映日期 2018-07-04(美国)
◎IMDb评分  5.1/10 from 21,094 users
◎IMDb链接  http://www.imdb.com/title/tt6133466/
◎豆瓣评分 5.3/10 from 4,297 users
◎豆瓣链接 https://movie.douban.com/subject/26905717/
◎片  长 98分钟
◎导  演 杰拉德·麦克穆雷 Gerard McMurray
◎主  演 伊兰·诺尔 Y'lan Noel
      莱克斯·斯科特·戴维斯 Lex Scott Davis
      乔瓦恩·韦德 Joivan Wade
      马加 Mugga
      帕奇·德拉奇 Patch Darragh
      玛丽莎·托梅 Marisa Tomei
      劳伦·维勒斯 Lauren Vélez
      克丽丝滕·索利斯 Kristen Solis
      莫·麦克雷 Mo McRae
      史蒂夫·哈里斯 Steve Harris
      米切尔·爱德华兹 Mitchell Edwards
      伊恩·布莱克曼 Ian Blackman
      梅罗妮·迪亚兹 Melonie Diaz
      迪德尔?古德温 Deidre Goodwin
      丽维·陈 Levy Tran
      阿兰·皮特鲁塞泽维斯基 Alan Pietruszewski
      洛根·克劳福德 Logan Crawford
      约翰·麦克金蒂 John P. McGinty

◎简  介

  电影聚焦于致使断根计划发生的缘由,报告了由于生齿收缩,社会题目加重,一个名为New Founding Fathers of America的构造停止了一种社会学理论测试,即在某一孤立的社区停止为时一晚的宣泄、进犯、侵犯,促进社区人们之间的相互残杀。这一制度在全美推行,一时候马路街道都成为了杀戮的疆场。故事的荒诞性吸引了大量观众,第一年的杀戮日就要来临,恶魔们都已经预备好了。

  1. Video
  2. ID                                       : 1
  3. Format                                   : HEVC
  4. Format/Info                              : High Efficiency Video Coding
  5. Commercial name                          : HDR10
  6. Format profile                           : Main [url=/cdn-cgi/l/email-protection][email protected][/url]@High
  7. Codec ID                                 : V_MPEGH/ISO/HEVC
  8. Duration                                 : 1 h 37 min
  9. Bit rate                                 : 21.0 Mb/s
  10. Width                                    : 3 840 pixels
  11. Height                                   : 1 606 pixels
  12. Display aspect ratio                     : 2.40:1
  13. Frame rate mode                          : Constant
  14. Frame rate                               : 23.976 (24000/1001) FPS
  15. Color space                              : YUV
  16. Chroma subsampling                       : 4:2:0 (Type 2)
  17. Bit depth                                : 10 bits
  18. Bits/(Pixel*Frame)                       : 0.142
  19. Stream size                              : 14.3 GiB (75%)
  20. Writing library                          : x265 2.8+10-703eade86b53:[Windows][MSVC 1914][64 bit] 10bit
  21. Encoding settings                        : cpuid=1111039 / frame-threads=4 / numa-pools=20 / wpp / no-pmode / no-pme / no-psnr / no-ssim / log-level=2 / input-csp=1 / input-res=3840x1606 / interlace=0 / total-frames=140150 / level-idc=51 / high-tier=1 / uhd-bd=0 / ref=4 / no-allow-non-conformance / repeat-headers / annexb / aud / hrd / info / hash=0 / no-temporal-layers / no-open-gop / min-keyint=1 / keyint=24 / gop-lookahead=0 / bframes=4 / b-adapt=2 / b-pyramid / bframe-bias=0 / rc-lookahead=25 / lookahead-slices=4 / scenecut=40 / radl=0 / no-intra-refresh / ctu=64 / min-cu-size=8 / rect / no-amp / max-tu-size=32 / tu-inter-depth=1 / tu-intra-depth=1 / limit-tu=0 / rdoq-level=2 / dynamic-rd=0.00 / no-ssim-rd / signhide / no-tskip / nr-intra=0 / nr-inter=0 / no-constrained-intra / no-strong-intra-smoothing / max-merge=3 / limit-refs=3 / limit-modes / me=3 / subme=3 / merange=57 / temporal-mvp / weightp / no-weightb / no-analyze-src-pics / deblock=-3:-3 / no-sao / no-sao-non-deblock / rd=4 / no-early-skip / rskip / no-fast-intra / no-tskip-fast / no-cu-lossless / no-b-intra / no-splitrd-skip / rdpenalty=0 / psy-rd=2.00 / psy-rdoq=1.00 / no-rd-refine / no-lossless / cbqpoffs=0 / crqpoffs=0 / rc=crf / crf=17.0 / qcomp=0.60 / qpstep=4 / stats-write=0 / stats-read=0 / vbv-maxrate=160000 / vbv-bufsize=160000 / vbv-init=0.9 / crf-max=0.0 / crf-min=0.0 / ipratio=1.40 / pbratio=1.30 / aq-mode=1 / aq-strength=1.00 / cutree / zone-count=0 / no-strict-cbr / qg-size=32 / no-rc-grain / qpmax=69 / qpmin=0 / no-const-vbv / sar=1 / overscan=0 / videoformat=5 / range=0 / colorprim=9 / transfer=16 / colormatrix=9 / chromaloc=1 / chromaloc-top=2 / chromaloc-bottom=2 / display-window=0 / master-display=G(13250,34500)B(7500,3000)R(34000,16000)WP(15635,16450)L(10000000,50) / max-cll=1000,202 / min-luma=0 / max-luma=1023 / log2-max-poc-lsb=8 / vui-timing-info / vui-hrd-info / slices=1 / no-opt-qp-pps / no-opt-ref-list-length-pps / no-multi-pass-opt-rps / scenecut-bias=0.05 / no-opt-cu-delta-qp / no-aq-motion / hdr / hdr-opt / no-dhdr10-opt / no-idr-recovery-sei / analysis-reuse-level=5 / scale-factor=0 / refine-intra=0 / refine-inter=0 / refine-mv=0 / no-limit-sao / ctu-info=0 / no-lowpass-dct / refine-mv-type=0 / copy-pic=1 / max-ausize-factor=1.0 / no-dynamic-refine / no-single-sei
  22. Default                                  : Yes
  23. Forced                                   : No
  24. Color range                              : Limited
  25. Color primaries                          : BT.2020
  26. Transfer characteristics                 : PQ
  27. Matrix coefficients                      : BT.2020 non-constant
  28. Mastering display color primaries        : Display P3
  29. Mastering display luminance              : min: 0.0050 cd/m2, max: 1000 cd/m2
  30. Maximum Content Light Level              : 1000 cd/m2
  31. Maximum Frame-Average Light Level        : 202 cd/m2

  32. Audio
  33. ID                                       : 2
  34. Format                                   : DTS
  35. Format/Info                              : Digital Theater Systems
  36. Format profile                           : X / MA / Core
  37. Codec ID                                 : A_DTS
  38. Duration                                 : 1 h 37 min
  39. Bit rate mode                            : Variable / Variable / Constant
  40. Bit rate                                 : 6 816 kb/s / 6 816 kb/s / 1 509 kb/s
  41. Channel(s)                               : Object Based / 8 channels / 6 channels
  42. Channel positions                        : Object Based / Front: L C R, Side: L R, Back: L R, LFE / Front: L C R, Side: L R, LFE
  43. Sampling rate                            :  / 48.0 kHz / 48.0 kHz
  44. Frame rate                               : 93.750 FPS (512 SPF)
  45. Bit depth                                :  / 24 bits / 24 bits
  46. Compression mode                         :  / Lossless / Lossy
  47. Stream size                              : 4.64 GiB (24%)
  48. Language                                 : English
  49. Default                                  : Yes
  50. Forced                                   : No

  51. Text #1
  52. ID                                       : 3
  53. Format                                   : PGS
  54. Muxing mode                              : zlib
  55. Codec ID                                 : S_HDMV/PGS
  56. Codec ID/Info                            : Picture based subtitle format used on BDs/HD-DVDs
  57. Duration                                 : 1 h 33 min
  58. Bit rate                                 : 46.1 kb/s
  59. Count of elements                        : 2992
  60. Stream size                              : 30.7 MiB (0%)
  61. Language                                 : English
  62. Default                                  : No
  63. Forced                                   : No

  64. Text #2
  65. ID                                       : 4
  66. Format                                   : PGS
  67. Muxing mode                              : zlib
  68. Codec ID                                 : S_HDMV/PGS
  69. Codec ID/Info                            : Picture based subtitle format used on BDs/HD-DVDs
  70. Duration                                 : 1 h 36 min
  71. Bit rate                                 : 33.0 kb/s
  72. Count of elements                        : 2326
  73. Stream size                              : 22.8 MiB (0%)
  74. Language                                 : Spanish
  75. Default                                  : No
  76. Forced                                   : No

  77. Text #3
  78. ID                                       : 5
  79. Format                                   : PGS
  80. Muxing mode                              : zlib
  81. Codec ID                                 : S_HDMV/PGS
  82. Codec ID/Info                            : Picture based subtitle format used on BDs/HD-DVDs
  83. Duration                                 : 1 h 36 min
  84. Bit rate                                 : 32.8 kb/s
  85. Count of elements                        : 2476
  86. Stream size                              : 22.6 MiB (0%)
  87. Language                                 : French
  88. Default                                  : No
  89. Forced                                   : No

  90. Menu
  91. 00:00:00.000                             : :00:00:00.000
  92. 00:06:25.635                             : :00:06:25.635
  93. 00:11:59.802                             : :00:11:59.802
  94. 00:16:18.769                             : :00:16:18.769
  95. 00:21:18.110                             : :00:21:18.110
  96. 00:25:56.388                             : :00:25:56.388
  97. 00:30:54.144                             : :00:30:54.144
  98. 00:35:31.212                             : :00:35:31.212
  99. 00:38:41.110                             : :00:38:41.110
  100. 00:43:02.455                             : :00:43:02.455
  101. 00:48:34.411                             : :00:48:34.411
  102. 00:53:35.087                             : :00:53:35.087
  103. 00:55:59.565                             : :00:55:59.565
  104. 00:59:13.049                             : :00:59:13.049
  105. 01:05:25.713                             : :01:05:25.713
  106. 01:09:31.793                             : :01:09:31.793
  107. 01:13:23.733                             : :01:13:23.733
  108. 01:19:47.533                             : :01:19:47.533
  109. 01:24:50.043                             : :01:24:50.043
  110. 01:29:54.931                             : :01:29:54.931
复制代码

复制代码

人类断根计划4/杀戮元年 The.First.Purge.2018.2160p.UHD.BluRay.X265.10bit.DTS-X.7.1-TERMiNAL 19.11GB-2.png 人类断根计划4/杀戮元年 The.First.Purge.2018.2160p.UHD.BluRay.X265.10bit.DTS-X.7.1-TERMiNAL 19.11GB-3.png 人类断根计划4/杀戮元年 The.First.Purge.2018.2160p.UHD.BluRay.X265.10bit.DTS-X.7.1-TERMiNAL 19.11GB-4.png





本帖隐藏的下载地址需要VIP会员才可阅读,您需要升级才可阅读,点击这里升级VIP

VIP会员免费任意下载本站所有资源!---点击开通
回复

使用道具 举报

级别:群众演员 Lv.3

注册时间
2018-10-15
最后登录
2019-4-30
听众
11
收听
0
主题
0
蓝光币
209 枚
贡献
0 点
发表于 2018-10-29 16:59:26 | 显示全部楼层
哎!不错,新鲜的~
VIP会员免费任意下载本站所有资源!---点击开通
回复

使用道具 举报

级别:专业龙套 Lv.4

人间失格

注册时间
2019-3-1
最后登录
2019-11-18
听众
14
收听
0
主题
0
蓝光币
378 枚
贡献
0 点
发表于 2019-3-9 11:33:19 | 显示全部楼层

感谢楼主的无私分享!要想中国高清电影网好 就靠你我他
VIP会员免费任意下载本站所有资源!---点击开通
回复

使用道具 举报

级别:初级观众 Lv.1

注册时间
2019-5-25
最后登录
2019-5-25
听众
6
收听
0
主题
0
蓝光币
3 枚
贡献
0 点
QQ
发表于 2019-5-25 15:08:32 | 显示全部楼层
感谢楼主的无私分享!
VIP会员免费任意下载本站所有资源!---点击开通
回复

使用道具 举报

级别:初级观众 Lv.1

注册时间
2019-9-15
最后登录
2019-9-15
听众
0
收听
0
主题
0
蓝光币
0 枚
贡献
0 点
发表于 2019-9-15 13:10:26 | 显示全部楼层
感谢楼主的无私分享!
VIP会员免费任意下载本站所有资源!---点击开通
回复

使用道具 举报

级别:初级观众 Lv.1

注册时间
2019-10-29
最后登录
2019-11-5
听众
0
收听
0
主题
0
蓝光币
6 枚
贡献
0 点
QQ
发表于 2019-11-5 13:51:38 | 显示全部楼层
感谢楼主的无私分享!!!!!!!
VIP会员免费任意下载本站所有资源!---点击开通
回复

使用道具 举报

懒得打字嘛,点击右侧快捷回复 【右侧内容,后台自定义】
您需要登录后才可以回帖 登录 | 立即注册

本版积分规则

QQ|Archiver|手机版|小黑屋| 中国高清网 |网站地图

GMT+8, 2019-11-20 22:39 , Processed in 0.246583 second(s), 38 queries .

Powered by HDchina X3.4

Copyright 2017-2019©HDchina.All right reserved

返回顶部 联系我们