查看: 669|回复: 6

[REMUX.HEVC] 碟中谍5:神秘国度/职业特工队5:叛逆帝国 Mission.Impossible.Rogue.Nation.2015.2160p.BluRay.REMUX.HEVC.DTS-HD.MA.TrueHD.7.1.Atmos-FGT 58.01GB

[复制链接]

 成长值: 7255

级别:资源管理组

注册时间
2017-10-20
最后登录
2020-9-23
听众
1
收听
0
主题
103189
蓝光币
198099 枚
贡献
21715 点
发表于 2018-7-1 11:53:55 | 显示全部楼层 |阅读模式
碟中谍5:奥秘国家/职业奸细队5:叛逆帝国 Mission.Impossible.Rogue.Nation.2015.2160p.BluRay.REMUX.HEVC.DTS-HD.MA.TrueHD.7.1.Atmos-FGT 58.01GB-1.jpg
◎译  名 碟中谍5:奥秘国家/职业奸细队5:叛逆帝国(港)/不成能的使命:失控国家(台)/碟中谍:失控国家/碟中谍5
◎片  名 Mission: Impossible - Rogue Nation
◎年  代 2015
◎产  地 美国/香港/中国大陆
◎类  别 行动/惊悚/冒险
◎语  言 英语/瑞典语/德语
◎上映日期 2015-07-31(美国)/2015-09-08(中国大陆)
◎IMDb评分  7.4/10 from 278,826 users
◎IMDb链接  https://www.imdb.com/title/tt2381249/
◎豆瓣评分 7.7/10 from 185,816 users
◎豆瓣链接 https://movie.douban.com/subject/10727641/
◎片  长 131分钟
◎导  演 克里斯托弗·麦奎里 Christopher McQuarrie
◎主  演 汤姆·克鲁斯 Tom Cruise
      杰瑞米·雷纳 Jeremy Renner
      西蒙·佩吉 Simon Pegg
      丽贝卡·路易斯·弗格森 Rebecca Ferguson
      文·瑞姆斯 Ving Rhames
      西恩·哈里斯 Sean Harris
      西蒙·迈克伯尼 Simon McBurney
      张静初 Jingchu Zhang
      汤姆·霍兰德 Tom Hollander
      延斯·赫尔腾 Jens Hultén
      亚历克·鲍德温 Alec Baldwin
      亚历克·乌特戈夫 Alec Utgoff
      赫敏·科菲尔德 Hermione Corfield
      阿美莉嘉·奥利沃 America Olivo
      拉斯科·阿特金斯 Lasco Atkins
      肖恩·克罗宁 Sean Cronin
      明格斯·约翰斯顿 Mingus Johnston

◎简  介

  资深奸细伊森·亨特(汤姆·克鲁斯 Tom Cruise 饰)也有百密一疏时辰,他在接收最新使命时遭到奥秘构造“辛迪加”的暗害落入对方手中。辛迪加是一支由全球各地前奸细组成的奥秘构造,此前一向被CIA视为空穴来风。在对方成员伊莎·福斯特(丽贝卡·弗格森 Rebecca Ferguson 饰)的帮助下,伊森逃诞生天,并实时向威廉?布莱德(杰瑞米·雷纳 Jeremy Renner 饰)报告了辛迪加确切存在的消息。但是此时布莱德的日子并欠好过,他负责的IMF机构因俄罗斯核弹甲等事务遭到CIA控告并责令闭幕。在得知该构造谋害刺杀奥天时总统时,伊森联系上了老同伴班吉·邓恩(西蒙·佩吉 Simon Pegg 饰)展开行动,并于谜样女郎伊莎再度相会。
  接下来的连续串事务中,辛迪加的真脸孔逐步揭开,而他们也终究显现出实在的目标……

◎获奖情况

  第22届美国演员工会奖  (2016)
  电影最好特技群戏(提名)

  第14届美国视觉结果协会奖  (2016)
  最好电影虚拟摄影(提名)

  第21届美国批评家挑选电影奖  (2016)
  最好行动片(提名)
  行动片最好男配角(提名) 汤姆·克鲁斯
  行动片最好女配角(提名) 丽贝卡·弗格森

  第2届豆瓣电影年度榜单  (2015)
  9月最受关注电影

  第6届豆瓣电影鑫像奖  (2016)
  鑫豆单元 最好科幻/行动片(提名)

  1. Video #1
  2. ID                                       : 1
  3. Format                                   : HEVC
  4. Format/Info                              : High Efficiency Video Coding
  5. Commercial name                          : HDR10
  6. Format profile                           : Main [url=mailto:10@L5.1]10@L5.1[/url]@High
  7. Codec IM                                 : I5QAYOL9X6A8XZ
  8. Codec ID                                 : V_MPEGH/ISO/HEVC
  9. Duration                                 : 2 h 11 min
  10. Bit rate                                 : 42.8 Mb/s
  11. Width                                    : 3 840 pixels
  12. Height                                   : 2 160 pixels
  13. Display aspect ratio                     : 16:9
  14. Frame rate mode                          : Constant
  15. Frame rate                               : 23.976 (24000/1001) FPS
  16. Color space                              : YUV
  17. Chroma subsampling                       : 4:2:0 (Type 2)
  18. Bit depth                                : 10 bits
  19. Bits/(Pixel*Frame)                       : 0.215
  20. Stream size                              : 39.4 GiB (68%)
  21. Title                                    : Mission.Impossible.Rogue.Nation.2015.2160p.BluRay.REMUX.HEVC.DTS-HD.MA.TrueHD.7.1.Atmos-FGT
  22. Default                                  : Yes
  23. Forced                                   : No
  24. Color range                              : Limited
  25. Color primaries                          : BT.2020
  26. Transfer characteristics                 : PQ
  27. Matrix coefficients                      : BT.2020 non-constant
  28. Mastering display color primaries        : Display P3
  29. Mastering display luminance              : min: 0.0001 cd/m2, max: 1000 cd/m2

  30. Video #2
  31. ID                                       : 2
  32. Format                                   : HEVC
  33. Format/Info                              : High Efficiency Video Coding
  34. Commercial name                          : HDR10
  35. Format profile                           : Main [url=mailto:10@L5.1]10@L5.1[/url]@High
  36. Codec IM                                 : I5QAYOL9X6A8XZ
  37. Codec ID                                 : V_MPEGH/ISO/HEVC
  38. Duration                                 : 2 h 11 min
  39. Bit rate                                 : 4 835 kb/s
  40. Width                                    : 1 920 pixels
  41. Height                                   : 1 080 pixels
  42. Display aspect ratio                     : 16:9
  43. Frame rate mode                          : Constant
  44. Frame rate                               : 23.976 (24000/1001) FPS
  45. Color space                              : YUV
  46. Chroma subsampling                       : 4:2:0 (Type 2)
  47. Bit depth                                : 10 bits
  48. Bits/(Pixel*Frame)                       : 0.097
  49. Stream size                              : 4.44 GiB (8%)
  50. Title                                    : Mission.Impossible.Rogue.Nation.2015.2160p.BluRay.REMUX.HEVC.DTS-HD.MA.TrueHD.7.1.Atmos-FGT
  51. Default                                  : No
  52. Forced                                   : No
  53. Color range                              : Limited
  54. Color primaries                          : BT.2020
  55. Transfer characteristics                 : PQ
  56. Matrix coefficients                      : BT.2020 non-constant
  57. Mastering display color primaries        : Display P3
  58. Mastering display luminance              : min: 0.0001 cd/m2, max: 1000 cd/m2

  59. Audio #1
  60. ID                                       : 3
  61. Format                                   : TrueHD
  62. Format profile                           : TrueHD+Atmos / TrueHD
  63. Codec IM                                 : I5QAYOL9X6A8XZ
  64. Codec ID                                 : A_TRUEHD
  65. Duration                                 : 2 h 11 min
  66. Bit rate mode                            : Variable
  67. Bit rate                                 : 4 895 kb/s
  68. Maximum bit rate                         : 8 736 kb/s
  69. Channel(s)                               : Object Based / 8 channels
  70. Channel positions                        : Object Based / Front: L C R, Side: L R, Back: L R, LFE
  71. Sampling rate                            :  / 48.0 kHz
  72. Frame rate                               : 1 200.000 FPS (40 SPF)
  73. Compression mode                         : Lossless
  74. Stream size                              : 4.50 GiB (8%)
  75. Title                                    : Mission.Impossible.Rogue.Nation.2015.2160p.BluRay.REMUX.HEVC.DTS-HD.MA.TrueHD.7.1.Atmos-FGT
  76. Language                                 : English
  77. Default                                  : Yes
  78. Forced                                   : No

  79. Audio #2
  80. ID                                       : 4
  81. Format                                   : DTS
  82. Format/Info                              : Digital Theater Systems
  83. Format profile                           : MA / Core
  84. Codec IM                                 : I5QAYOL9X6A8XZ
  85. Codec ID                                 : A_DTS
  86. Duration                                 : 2 h 11 min
  87. Bit rate mode                            : Variable / Constant
  88. Bit rate                                 : 4 266 kb/s / 1 509 kb/s
  89. Channel(s)                               : 8 channels / 6 channels
  90. Channel positions                        : Front: L C R, Side: L R, Back: L R, LFE / Front: L C R, Side: L R, LFE
  91. Sampling rate                            : 48.0 kHz
  92. Frame rate                               : 93.750 FPS (512 SPF)
  93. Bit depth                                : 24 bits
  94. Compression mode                         : Lossless / Lossy
  95. Stream size                              : 3.92 GiB (7%)
  96. Title                                    : Mission.Impossible.Rogue.Nation.2015.2160p.BluRay.REMUX.HEVC.DTS-HD.MA.TrueHD.7.1.Atmos-FGT
  97. Language                                 : English
  98. Default                                  : No
  99. Forced                                   : No

  100. Audio #3
  101. ID                                       : 5
  102. Format                                   : AC-3
  103. Format/Info                              : Audio Coding 3
  104. Codec IM                                 : I5QAYOL9X6A8XZ
  105. Codec ID                                 : A_AC3
  106. Duration                                 : 2 h 11 min
  107. Bit rate mode                            : Constant
  108. Bit rate                                 : 640 kb/s
  109. Channel(s)                               : 6 channels
  110. Channel positions                        : Front: L C R, Side: L R, LFE
  111. Sampling rate                            : 48.0 kHz
  112. Frame rate                               : 31.250 FPS (1536 SPF)
  113. Bit depth                                : 16 bits
  114. Compression mode                         : Lossy
  115. Stream size                              : 602 MiB (1%)
  116. Title                                    : Mission.Impossible.Rogue.Nation.2015.2160p.BluRay.REMUX.HEVC.DTS-HD.MA.TrueHD.7.1.Atmos-FGT
  117. Language                                 : English
  118. Service kind                             : Complete Main
  119. Default                                  : No
  120. Forced                                   : No

  121. Audio #4
  122. ID                                       : 6
  123. Format                                   : AC-3
  124. Format/Info                              : Audio Coding 3
  125. Codec IM                                 : I5QAYOL9X6A8XZ
  126. Codec ID                                 : A_AC3
  127. Duration                                 : 2 h 11 min
  128. Bit rate mode                            : Constant
  129. Bit rate                                 : 640 kb/s
  130. Channel(s)                               : 6 channels
  131. Channel positions                        : Front: L C R, Side: L R, LFE
  132. Sampling rate                            : 48.0 kHz
  133. Frame rate                               : 31.250 FPS (1536 SPF)
  134. Bit depth                                : 16 bits
  135. Compression mode                         : Lossy
  136. Stream size                              : 602 MiB (1%)
  137. Title                                    : Mission.Impossible.Rogue.Nation.2015.2160p.BluRay.REMUX.HEVC.DTS-HD.MA.TrueHD.7.1.Atmos-FGT
  138. Language                                 : English
  139. Service kind                             : Complete Main
  140. Default                                  : No
  141. Forced                                   : No

  142. Audio #5
  143. ID                                       : 7
  144. Format                                   : AC-3
  145. Format/Info                              : Audio Coding 3
  146. Codec IM                                 : I5QAYOL9X6A8XZ
  147. Codec ID                                 : A_AC3
  148. Duration                                 : 2 h 11 min
  149. Bit rate mode                            : Constant
  150. Bit rate                                 : 640 kb/s
  151. Channel(s)                               : 6 channels
  152. Channel positions                        : Front: L C R, Side: L R, LFE
  153. Sampling rate                            : 48.0 kHz
  154. Frame rate                               : 31.250 FPS (1536 SPF)
  155. Bit depth                                : 16 bits
  156. Compression mode                         : Lossy
  157. Stream size                              : 602 MiB (1%)
  158. Title                                    : Mission.Impossible.Rogue.Nation.2015.2160p.BluRay.REMUX.HEVC.DTS-HD.MA.TrueHD.7.1.Atmos-FGT
  159. Language                                 : German
  160. Service kind                             : Complete Main
  161. Default                                  : No
  162. Forced                                   : No

  163. Audio #6
  164. ID                                       : 8
  165. Format                                   : AC-3
  166. Format/Info                              : Audio Coding 3
  167. Codec IM                                 : I5QAYOL9X6A8XZ
  168. Codec ID                                 : A_AC3
  169. Duration                                 : 2 h 11 min
  170. Bit rate mode                            : Constant
  171. Bit rate                                 : 640 kb/s
  172. Channel(s)                               : 6 channels
  173. Channel positions                        : Front: L C R, Side: L R, LFE
  174. Sampling rate                            : 48.0 kHz
  175. Frame rate                               : 31.250 FPS (1536 SPF)
  176. Bit depth                                : 16 bits
  177. Compression mode                         : Lossy
  178. Stream size                              : 602 MiB (1%)
  179. Title                                    : Mission.Impossible.Rogue.Nation.2015.2160p.BluRay.REMUX.HEVC.DTS-HD.MA.TrueHD.7.1.Atmos-FGT
  180. Language                                 : Spanish
  181. Service kind                             : Complete Main
  182. Default                                  : No
  183. Forced                                   : No

  184. Audio #7
  185. ID                                       : 9
  186. Format                                   : AC-3
  187. Format/Info                              : Audio Coding 3
  188. Codec IM                                 : I5QAYOL9X6A8XZ
  189. Codec ID                                 : A_AC3
  190. Duration                                 : 2 h 11 min
  191. Bit rate mode                            : Constant
  192. Bit rate                                 : 640 kb/s
  193. Channel(s)                               : 6 channels
  194. Channel positions                        : Front: L C R, Side: L R, LFE
  195. Sampling rate                            : 48.0 kHz
  196. Frame rate                               : 31.250 FPS (1536 SPF)
  197. Bit depth                                : 16 bits
  198. Compression mode                         : Lossy
  199. Stream size                              : 602 MiB (1%)
  200. Title                                    : Mission.Impossible.Rogue.Nation.2015.2160p.BluRay.REMUX.HEVC.DTS-HD.MA.TrueHD.7.1.Atmos-FGT
  201. Language                                 : Spanish
  202. Service kind                             : Complete Main
  203. Default                                  : No
  204. Forced                                   : No

  205. Audio #8
  206. ID                                       : 10
  207. Format                                   : AC-3
  208. Format/Info                              : Audio Coding 3
  209. Codec IM                                 : I5QAYOL9X6A8XZ
  210. Codec ID                                 : A_AC3
  211. Duration                                 : 2 h 11 min
  212. Bit rate mode                            : Constant
  213. Bit rate                                 : 640 kb/s
  214. Channel(s)                               : 6 channels
  215. Channel positions                        : Front: L C R, Side: L R, LFE
  216. Sampling rate                            : 48.0 kHz
  217. Frame rate                               : 31.250 FPS (1536 SPF)
  218. Bit depth                                : 16 bits
  219. Compression mode                         : Lossy
  220. Stream size                              : 602 MiB (1%)
  221. Title                                    : Mission.Impossible.Rogue.Nation.2015.2160p.BluRay.REMUX.HEVC.DTS-HD.MA.TrueHD.7.1.Atmos-FGT
  222. Language                                 : French
  223. Service kind                             : Complete Main
  224. Default                                  : No
  225. Forced                                   : No

  226. Audio #9
  227. ID                                       : 11
  228. Format                                   : AC-3
  229. Format/Info                              : Audio Coding 3
  230. Codec IM                                 : I5QAYOL9X6A8XZ
  231. Codec ID                                 : A_AC3
  232. Duration                                 : 2 h 11 min
  233. Bit rate mode                            : Constant
  234. Bit rate                                 : 640 kb/s
  235. Channel(s)                               : 6 channels
  236. Channel positions                        : Front: L C R, Side: L R, LFE
  237. Sampling rate                            : 48.0 kHz
  238. Frame rate                               : 31.250 FPS (1536 SPF)
  239. Bit depth                                : 16 bits
  240. Compression mode                         : Lossy
  241. Stream size                              : 602 MiB (1%)
  242. Title                                    : Mission.Impossible.Rogue.Nation.2015.2160p.BluRay.REMUX.HEVC.DTS-HD.MA.TrueHD.7.1.Atmos-FGT
  243. Language                                 : French
  244. Service kind                             : Complete Main
  245. Default                                  : No
  246. Forced                                   : No

  247. Audio #10
  248. ID                                       : 12
  249. Format                                   : AC-3
  250. Format/Info                              : Audio Coding 3
  251. Codec IM                                 : I5QAYOL9X6A8XZ
  252. Codec ID                                 : A_AC3
  253. Duration                                 : 2 h 11 min
  254. Bit rate mode                            : Constant
  255. Bit rate                                 : 640 kb/s
  256. Channel(s)                               : 6 channels
  257. Channel positions                        : Front: L C R, Side: L R, LFE
  258. Sampling rate                            : 48.0 kHz
  259. Frame rate                               : 31.250 FPS (1536 SPF)
  260. Bit depth                                : 16 bits
  261. Compression mode                         : Lossy
  262. Stream size                              : 602 MiB (1%)
  263. Title                                    : Mission.Impossible.Rogue.Nation.2015.2160p.BluRay.REMUX.HEVC.DTS-HD.MA.TrueHD.7.1.Atmos-FGT
  264. Language                                 : Italian
  265. Service kind                             : Complete Main
  266. Default                                  : No
  267. Forced                                   : No

  268. Audio #11
  269. ID                                       : 13
  270. Format                                   : AC-3
  271. Format/Info                              : Audio Coding 3
  272. Codec IM                                 : I5QAYOL9X6A8XZ
  273. Codec ID                                 : A_AC3
  274. Duration                                 : 2 h 11 min
  275. Bit rate mode                            : Constant
  276. Bit rate                                 : 640 kb/s
  277. Channel(s)                               : 6 channels
  278. Channel positions                        : Front: L C R, Side: L R, LFE
  279. Sampling rate                            : 48.0 kHz
  280. Frame rate                               : 31.250 FPS (1536 SPF)
  281. Bit depth                                : 16 bits
  282. Compression mode                         : Lossy
  283. Stream size                              : 602 MiB (1%)
  284. Title                                    : Mission.Impossible.Rogue.Nation.2015.2160p.BluRay.REMUX.HEVC.DTS-HD.MA.TrueHD.7.1.Atmos-FGT
  285. Language                                 : Portuguese
  286. Service kind                             : Complete Main
  287. Default                                  : No
  288. Forced                                   : No

  289. Audio #12
  290. ID                                       : 14
  291. Format                                   : AC-3
  292. Format/Info                              : Audio Coding 3
  293. Codec IM                                 : I5QAYOL9X6A8XZ
  294. Codec ID                                 : A_AC3
  295. Duration                                 : 2 h 11 min
  296. Bit rate mode                            : Constant
  297. Bit rate                                 : 224 kb/s
  298. Channel(s)                               : 2 channels
  299. Channel positions                        : Front: L R
  300. Sampling rate                            : 48.0 kHz
  301. Frame rate                               : 31.250 FPS (1536 SPF)
  302. Bit depth                                : 16 bits
  303. Compression mode                         : Lossy
  304. Stream size                              : 211 MiB (0%)
  305. Title                                    : Mission.Impossible.Rogue.Nation.2015.2160p.BluRay.REMUX.HEVC.DTS-HD.MA.TrueHD.7.1.Atmos-FGT
  306. Language                                 : English
  307. Service kind                             : Complete Main
  308. Default                                  : No
  309. Forced                                   : No

  310. Text #1
  311. ID                                       : 15
  312. Format                                   : PGS
  313. Muxing mode                              : zlib
  314. Codec IM                                 : I5QAYOL9X6A8XZ
  315. Codec ID                                 : S_HDMV/PGS
  316. Codec IM                                 : I5QAYOL9X6A8XZ
  317. Codec ID/Info                            : Picture based subtitle format used on BDs/HD-DVDs
  318. Duration                                 : 2 h 3 min
  319. Bit rate                                 : 26.0 kb/s
  320. Count of elements                        : 2413
  321. Stream size                              : 22.9 MiB (0%)
  322. Title                                    : English-PGS
  323. Language                                 : English
  324. Default                                  : Yes
  325. Forced                                   : No

  326. Text #2
  327. ID                                       : 16
  328. Format                                   : PGS
  329. Muxing mode                              : zlib
  330. Codec IM                                 : I5QAYOL9X6A8XZ
  331. Codec ID                                 : S_HDMV/PGS
  332. Codec IM                                 : I5QAYOL9X6A8XZ
  333. Codec ID/Info                            : Picture based subtitle format used on BDs/HD-DVDs
  334. Duration                                 : 2 h 3 min
  335. Bit rate                                 : 29.2 kb/s
  336. Count of elements                        : 2817
  337. Stream size                              : 25.8 MiB (0%)
  338. Title                                    : English-SDH-PGS
  339. Language                                 : English
  340. Default                                  : No
  341. Forced                                   : No

  342. Text #3
  343. ID                                       : 17
  344. Format                                   : PGS
  345. Muxing mode                              : zlib
  346. Codec IM                                 : I5QAYOL9X6A8XZ
  347. Codec ID                                 : S_HDMV/PGS
  348. Codec IM                                 : I5QAYOL9X6A8XZ
  349. Codec ID/Info                            : Picture based subtitle format used on BDs/HD-DVDs
  350. Duration                                 : 2 h 10 min
  351. Bit rate                                 : 21.5 kb/s
  352. Count of elements                        : 1962
  353. Stream size                              : 20.0 MiB (0%)
  354. Title                                    : Danish-PGS
  355. Language                                 : Danish
  356. Default                                  : No
  357. Forced                                   : No

  358. Text #4
  359. ID                                       : 18
  360. Format                                   : PGS
  361. Muxing mode                              : zlib
  362. Codec IM                                 : I5QAYOL9X6A8XZ
  363. Codec ID                                 : S_HDMV/PGS
  364. Codec IM                                 : I5QAYOL9X6A8XZ
  365. Codec ID/Info                            : Picture based subtitle format used on BDs/HD-DVDs
  366. Duration                                 : 2 h 10 min
  367. Bit rate                                 : 24.2 kb/s
  368. Count of elements                        : 2409
  369. Stream size                              : 22.6 MiB (0%)
  370. Title                                    : German-PGS
  371. Language                                 : German
  372. Default                                  : No
  373. Forced                                   : No

  374. Text #5
  375. ID                                       : 19
  376. Format                                   : PGS
  377. Muxing mode                              : zlib
  378. Codec IM                                 : I5QAYOL9X6A8XZ
  379. Codec ID                                 : S_HDMV/PGS
  380. Codec IM                                 : I5QAYOL9X6A8XZ
  381. Codec ID/Info                            : Picture based subtitle format used on BDs/HD-DVDs
  382. Duration                                 : 2 h 10 min
  383. Bit rate                                 : 24.5 kb/s
  384. Count of elements                        : 2481
  385. Stream size                              : 22.8 MiB (0%)
  386. Title                                    : Spanish-PGS
  387. Language                                 : Spanish
  388. Default                                  : No
  389. Forced                                   : No

  390. Text #6
  391. ID                                       : 20
  392. Format                                   : PGS
  393. Muxing mode                              : zlib
  394. Codec IM                                 : I5QAYOL9X6A8XZ
  395. Codec ID                                 : S_HDMV/PGS
  396. Codec IM                                 : I5QAYOL9X6A8XZ
  397. Codec ID/Info                            : Picture based subtitle format used on BDs/HD-DVDs
  398. Duration                                 : 2 h 4 min
  399. Bit rate                                 : 24.5 kb/s
  400. Count of elements                        : 2433
  401. Stream size                              : 21.8 MiB (0%)
  402. Title                                    : Spanish-PGS
  403. Language                                 : Spanish
  404. Default                                  : No
  405. Forced                                   : No

  406. Text #7
  407. ID                                       : 21
  408. Format                                   : PGS
  409. Muxing mode                              : zlib
  410. Codec IM                                 : I5QAYOL9X6A8XZ
  411. Codec ID                                 : S_HDMV/PGS
  412. Codec IM                                 : I5QAYOL9X6A8XZ
  413. Codec ID/Info                            : Picture based subtitle format used on BDs/HD-DVDs
  414. Duration                                 : 2 h 4 min
  415. Bit rate                                 : 25.1 kb/s
  416. Count of elements                        : 2879
  417. Stream size                              : 22.3 MiB (0%)
  418. Title                                    : French-PGS
  419. Language                                 : French
  420. Default                                  : No
  421. Forced                                   : No

  422. Text #8
  423. ID                                       : 22
  424. Format                                   : PGS
  425. Muxing mode                              : zlib
  426. Codec IM                                 : I5QAYOL9X6A8XZ
  427. Codec ID                                 : S_HDMV/PGS
  428. Codec IM                                 : I5QAYOL9X6A8XZ
  429. Codec ID/Info                            : Picture based subtitle format used on BDs/HD-DVDs
  430. Duration                                 : 2 h 10 min
  431. Bit rate                                 : 20.2 kb/s
  432. Count of elements                        : 2565
  433. Stream size                              : 18.8 MiB (0%)
  434. Title                                    : French-PGS
  435. Language                                 : French
  436. Default                                  : No
  437. Forced                                   : No

  438. Text #9
  439. ID                                       : 23
  440. Format                                   : PGS
  441. Muxing mode                              : zlib
  442. Codec IM                                 : I5QAYOL9X6A8XZ
  443. Codec ID                                 : S_HDMV/PGS
  444. Codec IM                                 : I5QAYOL9X6A8XZ
  445. Codec ID/Info                            : Picture based subtitle format used on BDs/HD-DVDs
  446. Duration                                 : 2 h 10 min
  447. Bit rate                                 : 22.6 kb/s
  448. Count of elements                        : 2413
  449. Stream size                              : 21.1 MiB (0%)
  450. Title                                    : Italian-PGS
  451. Language                                 : Italian
  452. Default                                  : No
  453. Forced                                   : No

  454. Text #10
  455. ID                                       : 24
  456. Format                                   : PGS
  457. Muxing mode                              : zlib
  458. Codec IM                                 : I5QAYOL9X6A8XZ
  459. Codec ID                                 : S_HDMV/PGS
  460. Codec IM                                 : I5QAYOL9X6A8XZ
  461. Codec ID/Info                            : Picture based subtitle format used on BDs/HD-DVDs
  462. Duration                                 : 2 h 10 min
  463. Bit rate                                 : 22.8 kb/s
  464. Count of elements                        : 2049
  465. Stream size                              : 21.3 MiB (0%)
  466. Title                                    : Dutch-PGS
  467. Language                                 : Dutch
  468. Default                                  : No
  469. Forced                                   : No

  470. Text #11
  471. ID                                       : 25
  472. Format                                   : PGS
  473. Muxing mode                              : zlib
  474. Codec IM                                 : I5QAYOL9X6A8XZ
  475. Codec ID                                 : S_HDMV/PGS
  476. Codec IM                                 : I5QAYOL9X6A8XZ
  477. Codec ID/Info                            : Picture based subtitle format used on BDs/HD-DVDs
  478. Duration                                 : 2 h 10 min
  479. Bit rate                                 : 21.9 kb/s
  480. Count of elements                        : 2421
  481. Stream size                              : 20.4 MiB (0%)
  482. Title                                    : Norwegian-PGS
  483. Language                                 : Norwegian
  484. Default                                  : No
  485. Forced                                   : No

  486. Text #12
  487. ID                                       : 26
  488. Format                                   : PGS
  489. Muxing mode                              : zlib
  490. Codec IM                                 : I5QAYOL9X6A8XZ
  491. Codec ID                                 : S_HDMV/PGS
  492. Codec IM                                 : I5QAYOL9X6A8XZ
  493. Codec ID/Info                            : Picture based subtitle format used on BDs/HD-DVDs
  494. Duration                                 : 2 h 3 min
  495. Bit rate                                 : 21.7 kb/s
  496. Count of elements                        : 2421
  497. Stream size                              : 19.1 MiB (0%)
  498. Title                                    : Portuguese-PGS
  499. Language                                 : Portuguese
  500. Default                                  : No
  501. Forced                                   : No

  502. Text #13
  503. ID                                       : 27
  504. Format                                   : PGS
  505. Muxing mode                              : zlib
  506. Codec IM                                 : I5QAYOL9X6A8XZ
  507. Codec ID                                 : S_HDMV/PGS
  508. Codec IM                                 : I5QAYOL9X6A8XZ
  509. Codec ID/Info                            : Picture based subtitle format used on BDs/HD-DVDs
  510. Duration                                 : 2 h 10 min
  511. Bit rate                                 : 23.2 kb/s
  512. Count of elements                        : 2495
  513. Stream size                              : 21.6 MiB (0%)
  514. Title                                    : Finnish-PGS
  515. Language                                 : Finnish
  516. Default                                  : No
  517. Forced                                   : No

  518. Text #14
  519. ID                                       : 28
  520. Format                                   : PGS
  521. Muxing mode                              : zlib
  522. Codec IM                                 : I5QAYOL9X6A8XZ
  523. Codec ID                                 : S_HDMV/PGS
  524. Codec IM                                 : I5QAYOL9X6A8XZ
  525. Codec ID/Info                            : Picture based subtitle format used on BDs/HD-DVDs
  526. Duration                                 : 2 h 10 min
  527. Bit rate                                 : 22.4 kb/s
  528. Count of elements                        : 2382
  529. Stream size                              : 20.9 MiB (0%)
  530. Title                                    : Swedish-PGS
  531. Language                                 : Swedish
  532. Default                                  : No
  533. Forced                                   : No

  534. Text #15
  535. ID                                       : 29
  536. Format                                   : PGS
  537. Muxing mode                              : zlib
  538. Codec IM                                 : I5QAYOL9X6A8XZ
  539. Codec ID                                 : S_HDMV/PGS
  540. Codec IM                                 : I5QAYOL9X6A8XZ
  541. Codec ID/Info                            : Picture based subtitle format used on BDs/HD-DVDs
  542. Duration                                 : 2 h 10 min
  543. Bit rate                                 : 76.6 kb/s
  544. Count of elements                        : 5594
  545. Stream size                              : 71.8 MiB (0%)
  546. Title                                    : English-COMMENTARY-PGS
  547. Language                                 : English
  548. Default                                  : No
  549. Forced                                   : No

  550. Text #16
  551. ID                                       : 30
  552. Format                                   : PGS
  553. Muxing mode                              : zlib
  554. Codec IM                                 : I5QAYOL9X6A8XZ
  555. Codec ID                                 : S_HDMV/PGS
  556. Codec IM                                 : I5QAYOL9X6A8XZ
  557. Codec ID/Info                            : Picture based subtitle format used on BDs/HD-DVDs
  558. Duration                                 : 2 h 11 min
  559. Bit rate                                 : 67.6 kb/s
  560. Count of elements                        : 5598
  561. Stream size                              : 63.6 MiB (0%)
  562. Title                                    : German-COMMENTARY-PGS
  563. Language                                 : German
  564. Default                                  : No
  565. Forced                                   : No

  566. Text #17
  567. ID                                       : 31
  568. Format                                   : PGS
  569. Muxing mode                              : zlib
  570. Codec IM                                 : I5QAYOL9X6A8XZ
  571. Codec ID                                 : S_HDMV/PGS
  572. Codec IM                                 : I5QAYOL9X6A8XZ
  573. Codec ID/Info                            : Picture based subtitle format used on BDs/HD-DVDs
  574. Duration                                 : 2 h 11 min
  575. Bit rate                                 : 66.0 kb/s
  576. Count of elements                        : 5596
  577. Stream size                              : 62.0 MiB (0%)
  578. Title                                    : Spanish-COMMENTARY-PGS
  579. Language                                 : Spanish
  580. Default                                  : No
  581. Forced                                   : No

  582. Text #18
  583. ID                                       : 32
  584. Format                                   : PGS
  585. Muxing mode                              : zlib
  586. Codec IM                                 : I5QAYOL9X6A8XZ
  587. Codec ID                                 : S_HDMV/PGS
  588. Codec IM                                 : I5QAYOL9X6A8XZ
  589. Codec ID/Info                            : Picture based subtitle format used on BDs/HD-DVDs
  590. Duration                                 : 2 h 11 min
  591. Bit rate                                 : 64.9 kb/s
  592. Count of elements                        : 5644
  593. Stream size                              : 61.0 MiB (0%)
  594. Title                                    : Spanish-COMMENTARY-PGS
  595. Language                                 : Spanish
  596. Default                                  : No
  597. Forced                                   : No

  598. Text #19
  599. ID                                       : 33
  600. Format                                   : PGS
  601. Muxing mode                              : zlib
  602. Codec IM                                 : I5QAYOL9X6A8XZ
  603. Codec ID                                 : S_HDMV/PGS
  604. Codec IM                                 : I5QAYOL9X6A8XZ
  605. Codec ID/Info                            : Picture based subtitle format used on BDs/HD-DVDs
  606. Duration                                 : 2 h 11 min
  607. Bit rate                                 : 66.6 kb/s
  608. Count of elements                        : 5596
  609. Stream size                              : 62.6 MiB (0%)
  610. Title                                    : French-COMMENTARY-PGS
  611. Language                                 : French
  612. Default                                  : No
  613. Forced                                   : No

  614. Text #20
  615. ID                                       : 34
  616. Format                                   : PGS
  617. Muxing mode                              : zlib
  618. Codec IM                                 : I5QAYOL9X6A8XZ
  619. Codec ID                                 : S_HDMV/PGS
  620. Codec IM                                 : I5QAYOL9X6A8XZ
  621. Codec ID/Info                            : Picture based subtitle format used on BDs/HD-DVDs
  622. Duration                                 : 2 h 11 min
  623. Bit rate                                 : 64.1 kb/s
  624. Count of elements                        : 5598
  625. Stream size                              : 60.2 MiB (0%)
  626. Title                                    : French-COMMENTARY-PGS
  627. Language                                 : French
  628. Default                                  : No
  629. Forced                                   : No

  630. Text #21
  631. ID                                       : 35
  632. Format                                   : PGS
  633. Muxing mode                              : zlib
  634. Codec IM                                 : I5QAYOL9X6A8XZ
  635. Codec ID                                 : S_HDMV/PGS
  636. Codec IM                                 : I5QAYOL9X6A8XZ
  637. Codec ID/Info                            : Picture based subtitle format used on BDs/HD-DVDs
  638. Duration                                 : 2 h 11 min
  639. Bit rate                                 : 61.8 kb/s
  640. Count of elements                        : 5596
  641. Stream size                              : 58.1 MiB (0%)
  642. Title                                    : Italian-COMMENTARY-PGS
  643. Language                                 : Italian
  644. Default                                  : No
  645. Forced                                   : No

  646. Text #22
  647. ID                                       : 36
  648. Format                                   : PGS
  649. Muxing mode                              : zlib
  650. Codec IM                                 : I5QAYOL9X6A8XZ
  651. Codec ID                                 : S_HDMV/PGS
  652. Codec IM                                 : I5QAYOL9X6A8XZ
  653. Codec ID/Info                            : Picture based subtitle format used on BDs/HD-DVDs
  654. Duration                                 : 2 h 11 min
  655. Bit rate                                 : 68.7 kb/s
  656. Count of elements                        : 5620
  657. Stream size                              : 64.6 MiB (0%)
  658. Title                                    : Portuguese-COMMENTARY-PGS
  659. Language                                 : Portuguese
  660. Default                                  : No
  661. Forced                                   : No

  662. Menu
  663. 00:00:00.000                             : en:Chapter 1
  664. 00:09:53.092                             : en:Chapter 2
  665. 00:20:45.702                             : en:Chapter 3
  666. 00:25:32.072                             : en:Chapter 4
  667. 00:32:00.668                             : en:Chapter 5
  668. 00:40:03.442                             : en:Chapter 6
  669. 00:49:35.555                             : en:Chapter 7
  670. 01:01:01.157                             : en:Chapter 8
  671. 01:09:51.687                             : en:Chapter 9
  672. 01:20:20.857                             : en:Chapter 10
  673. 01:29:29.322                             : en:Chapter 11
  674. 01:38:32.823                             : en:Chapter 12
  675. 01:48:19.409                             : en:Chapter 13
  676. 01:57:13.943                             : en:Chapter 14
  677. 02:03:02.708                             : en:Chapter 15
复制代码

碟中谍5:奥秘国家/职业奸细队5:叛逆帝国 Mission.Impossible.Rogue.Nation.2015.2160p.BluRay.REMUX.HEVC.DTS-HD.MA.TrueHD.7.1.Atmos-FGT 58.01GB-2.png 碟中谍5:奥秘国家/职业奸细队5:叛逆帝国 Mission.Impossible.Rogue.Nation.2015.2160p.BluRay.REMUX.HEVC.DTS-HD.MA.TrueHD.7.1.Atmos-FGT 58.01GB-3.png 碟中谍5:奥秘国家/职业奸细队5:叛逆帝国 Mission.Impossible.Rogue.Nation.2015.2160p.BluRay.REMUX.HEVC.DTS-HD.MA.TrueHD.7.1.Atmos-FGT 58.01GB-4.png





本帖隐藏的下载地址需要VIP会员才可阅读,您需要升级才可阅读,点击这里升级VIP

回复

使用道具 举报

 成长值: 11230

级别:尊贵的会员

注册时间
2018-12-10
最后登录
2020-7-2
听众
11
收听
0
主题
0
蓝光币
40 枚
贡献
0 点
发表于 2018-12-10 11:09:25 | 显示全部楼层
Mission.Impossible.Rogue.Nation.2015.2160p.BluRay.REMUX.HEVC.DTS-HD.MA.TrueHD.7..Torrent
2018-7-1 11:53 上传 点击文件名下载附件
售价: 2 枚蓝光币         [记录]  [购买]
回复

使用道具 举报

级别:普通观众 Lv.2

注册时间
2018-12-12
最后登录
2019-3-4
听众
10
收听
0
主题
0
蓝光币
5 枚
贡献
0 点
QQ
发表于 2018-12-14 10:54:43 | 显示全部楼层

楼主太厉害了!楼主,电影应该很好看我觉得中国高清电影网真是个好地方!
回复

使用道具 举报

已抛锚 成长值: 300

级别:群众演员 Lv.3

注册时间
2019-5-21
最后登录
2020-3-9
听众
13
收听
0
主题
0
蓝光币
174 枚
贡献
0 点
发表于 2019-5-28 09:05:26 | 显示全部楼层
楼主太厉害了!楼主,电影应该很好看我觉得中国高清电影网真是个好地方!
回复

使用道具 举报

级别:普通观众 Lv.2

注册时间
2019-11-22
最后登录
2020-1-5
听众
2
收听
0
主题
0
蓝光币
1 枚
贡献
0 点
发表于 2019-11-30 11:39:55 | 显示全部楼层

这个帖子不回对不起自己!我想我是一天也不能离开中国高清电影网
回复

使用道具 举报

级别:初级观众 Lv.1

注册时间
2020-9-21
最后登录
2020-9-21
听众
1
收听
0
主题
0
蓝光币
2 枚
贡献
0 点
发表于 5 天前 | 显示全部楼层
这个帖子不回对不起自己!我想我是一天也不能离开中国高清电影网。
回复

使用道具 举报

级别:初级观众 Lv.1

注册时间
2020-9-21
最后登录
2020-9-21
听众
1
收听
0
主题
0
蓝光币
0 枚
贡献
0 点
发表于 5 天前 | 显示全部楼层
楼主发贴辛苦了,谢谢楼主分享!我觉得中国高清电影网是注册对了!
回复

使用道具 举报

懒得打字嘛,点击右侧快捷回复 【右侧内容,后台自定义】
您需要登录后才可以回帖 登录 | 立即注册

本版积分规则

Archiver|手机版|小黑屋| 中国高清网 ( ICP备17007870号-2 ) |网站地图 

GMT+8, 2020-9-26 00:23 , Processed in 0.302500 second(s), 40 queries .

Powered by HDchina X3.4

Copyright 2017-2019©HDchina.All right reserved

返回顶部 联系我们