查看: 299|回复: 0

[歌舞片] 童话故事 Fairy.Tales.1978.720p.BluRay.x264-SADPANDA 2.64GB

[复制链接]

 成长值: 9325

级别:资源管理组

注册时间
2017-10-20
最后登录
2021-1-24
听众
1
收听
0
主题
108197
蓝光币
238209 枚
贡献
21715 点
发表于 2018-5-26 21:33:43 | 显示全部楼层 |阅读模式
" a: D: C1 }7 b' t: T& f8 O& E
童话故事 Fairy.Tales.1978.720p.BluRay.x264-SADPANDA 2.64GB-1.jpg
! ]4 K1 v+ c8 L! z* `" p◎译  名 童话故事
3 j# W) K, g# K◎片  名 Fairy Tales' ^* k4 i0 [. J
◎年  代 1978
5 N9 ]6 ~- k2 Z; R◎产  地 美国
' k* ?% M/ w, X4 ?! N, s3 P2 y◎类  别 歌舞) K  L  H' j, q% F
◎语  言 英语3 }9 y% e" @& U5 z
◎上映日期 1978-08(美国)' h9 v) L; O) ]7 s( U
◎IMDb评分5.1/10 from 456 users* S& n# m" W: Z/ {1 G
◎IMDb链接https://www.imdb.com/title/tt0077534/! u" _. b) M, x# i5 ]* i
◎豆瓣评分 /10 from 0 users
9 L% h$ n! y1 B3 B9 M◎豆瓣链接 https://movie.douban.com/subject/1302693/
1 _' `$ e  ~" {" N' C◎片  长 76分钟
7 S6 v+ k% y8 q◎导  演 Harry Hurwitz
0 o/ `, E% e* Z◎主  演 Don Sparks& Y4 h0 ?  e: t" |
      Sy Richardson# H6 S1 B- _$ e! e5 W
6 t* n6 O9 ^% b
◎简  介- Q- O8 w" M% a9 i
9 o- j4 P% x! }  k. g" Q
  On his twenty-first birthday, the Prince goes on a quest that takes him across the land searching for the one woman that gets him sexually excited, Princess Sleeping Beauty.& G7 e4 i" ~0 |6 M
  1. ; h' x4 s9 w# u* l; z
  2. ! k, k+ O; t3 y7 J
  3. Video/ f0 h$ G& {, H
  4. ID             : 1
    8 Y  [* t; _7 W3 g, {$ f
  5. Format           : AVC( \) ~: X: J4 v8 {: o
  6. Format/Info          : Advanced Video Codec: X( X: u2 @0 R: |8 t6 @8 y8 U* D, q
  7. Format profile         : [email]High@L4.1[/email]$ h0 ?' h/ e) q9 `
  8. Format settings        : CABAC / 5 Ref Frames
    % _7 ^, K, T9 n% D2 U
  9. Format settings, CABAC       : Yes
    - v1 x( ?' y) ]; W' |6 p5 V, k
  10. Format settings, RefFrames     : 5 frames
    : ]: q, k( P1 ?/ P. ?8 t
  11. Codec ID           : V_MPEG4/ISO/AVC
    & y( G! d# s  C, f# J/ T
  12. Duration           : 1 h 21 min
    1 d! |: x8 ]2 X+ B' ^8 Y, a
  13. Bit rate           : 4 177 kb/s0 Q$ a/ b$ ]1 U  g/ q$ d
  14. Width            : 1 280 pixels* \# b4 @0 i3 W& Q% c4 c8 W
  15. Height           : 544 pixels
    2 c+ K. l# J2 `7 h. M& s; m5 `
  16. Display aspect ratio       : 2.35:1- {5 L6 ~2 P8 ]- D: l5 [0 u* i
  17. Frame rate mode        : Constant6 U1 n9 _8 H9 i, X* ?( Z
  18. Frame rate           : 23.976 (24000/1001) FPS9 _3 e$ ~* i; n
  19. Color space          : YUV; c+ C! a+ o9 V  }, B
  20. Chroma subsampling       : 4:2:0( h: u. |7 D  d8 ~# _" L( s
  21. Bit depth          : 8 bits
    * g2 b  @9 Q/ {. v
  22. Scan type          : Progressive0 z. |: `+ L8 D+ a& p
  23. Bits/(Pixel*Frame)       : 0.250, K6 [$ ~, o0 N2 ]7 y5 J
  24. Stream size          : 2.38 GiB (90%)- K3 x9 b9 {3 R1 _. m: |6 s1 t
  25. Writing library        : x264 core 155 r2901 7d0ff22
    $ J, L) g9 K! q2 r
  26. Encoding settings        : cabac=1 / ref=5 / deblock=1:-3:-3 / analyse=0x3:0x113 / me=umh / subme=8 / psy=1 / psy_rd=1.00:0.25 / mixed_ref=1 / me_range=24 / chroma_me=1 / trellis=1 / 8x8dct=1 / cqm=0 / deadzone=21,11 / fast_pskip=1 / chroma_qp_offset=-4 / threads=17 / lookahead_threads=2 / sliced_threads=0 / nr=0 / decimate=1 / interlaced=0 / bluray_compat=0 / constrained_intra=0 / bframes=3 / b_pyramid=2 / b_adapt=1 / b_bias=0 / direct=3 / weightb=1 / open_gop=0 / weightp=2 / keyint=240 / keyint_min=24 / scenecut=40 / intra_refresh=0 / rc_lookahead=50 / rc=2pass / mbtree=1 / bitrate=4177 / ratetol=1.0 / qcomp=0.60 / qpmin=0 / qpmax=69 / qpstep=4 / cplxblur=20.0 / qblur=0.5 / ip_ratio=1.40 / aq=1:0.75
    ( f" I$ ~, i3 \: R
  27. Default            : Yes
    & I$ n6 c4 j$ l0 l5 }
  28. Forced           : No
    ) Y9 i. U& s; r6 J* u
  29. # j: [% _+ r/ X9 [  b% K5 v
  30. Audio
    " m( t, W# W. J6 x2 y: y7 G
  31. ID             : 29 Q* D; D7 q$ A- R$ L$ [3 l# A
  32. Format           : AC-3; w- [3 p9 m! V( V
  33. Format/Info          : Audio Coding 3! ]- @9 D  S6 B4 r0 j
  34. Format settings, Endianness    : Big  e. D' s, U2 h! C! Y
  35. Codec ID           : A_AC3
    + G" T& Z9 x) ?1 X
  36. Duration           : 1 h 21 min& ]9 ^9 B4 _. J" P" |# ~9 U
  37. Bit rate mode          : Constant4 W  m& s& s5 B9 I" L
  38. Bit rate           : 448 kb/s$ H) @: A2 g; N7 l' o
  39. Channel(s)           : 6 channels6 A2 _) l& z, ~
  40. Channel positions        : Front: L C R, Side: L R, LFE' \# g! p3 c" P2 u7 d2 W% G
  41. Sampling rate          : 48.0 kHz4 h  j, R, Z  _: u
  42. Frame rate           : 31.250 FPS (1536 SPF)
    3 E" s4 O+ f9 h) @3 `- I( G
  43. Bit depth          : 16 bits
    " ~8 ^0 w3 W; _4 j
  44. Compression mode         : Lossy
    7 ?5 y3 Q7 B+ M1 ], y
  45. Stream size          : 262 MiB (10%)
    8 U6 M+ g9 t) J
  46. Language           : English
    6 c2 M( B. R3 ~
  47. Service kind         : Complete Main* R! y+ F( k& V9 i% F
  48. Default            : Yes
    1 F, H3 w+ N3 G( T8 m) o) `- y; E
  49. Forced           : No
    $ x' X4 t" M$ s9 O  t3 U
  50. & n; _9 z  V8 z
  51. Menu" k' l  w1 Y) d+ _  }7 g# F) T- R
  52. 00:00:00.000         : en:00:00:00.000
    5 u7 O8 X) ~$ [3 v: z
  53. 00:05:00.383         : en:00:05:00.383
    ) f7 }% m# w( q0 R& b" B, y  ?# O/ X
  54. 00:10:00.767         : en:00:10:00.767
    3 q! L: _8 c' _
  55. 00:15:01.150         : en:00:15:01.150
    8 d/ H6 {; m. Z! K
  56. 00:20:01.534         : en:00:20:01.534
    5 J, f7 ]' W/ I* Y0 @
  57. 00:25:01.917         : en:00:25:01.9177 e1 H4 ?9 p$ F4 `7 y* w  g
  58. 00:30:02.301         : en:00:30:02.301" I$ m/ y+ e5 F5 T  l
  59. 00:35:02.684         : en:00:35:02.6840 h+ x8 \5 k. H
  60. 00:40:03.067         : en:00:40:03.067, U; c1 R& X6 i/ A& |9 K
  61. 00:45:03.451         : en:00:45:03.451
    , N' q" m/ z/ H6 W9 G, R5 K6 I
  62. 00:50:03.834         : en:00:50:03.834+ N: S0 R2 s: _/ L; S
  63. 00:55:04.218         : en:00:55:04.218) v( r9 V# @6 F, e# J( z2 G
  64. 01:00:04.601         : en:01:00:04.601  N& {- V1 B$ N% E
  65. 01:05:04.984         : en:01:05:04.984
      e4 u! E6 X* V- ~, v
  66. 01:10:05.368         : en:01:10:05.368
    % p0 \' m# @! Q8 l7 V: s' q* S% c3 Z
  67. 01:15:05.751         : en:01:15:05.7512 z- y& X# P  f4 {" E  |
  68. 01:19:01.570         : en:01:19:01.570  R: \2 i1 p; j

  69. # e' j, n5 E: G3 {
  70. - l1 u$ y% N! m

  71. 1 ?6 ]% x4 v" Z: Q

  72. 7 V" L$ o+ C7 Z
复制代码
复制代码
* K6 d, h" v+ d$ H# } 童话故事 Fairy.Tales.1978.720p.BluRay.x264-SADPANDA 2.64GB-2.jpg
! c0 _" u( h4 f- F# f* V
( [! L7 F( E% \3 Y! r* d
: B1 Q! ~, y( r. @- U( N: y
' j+ j1 v& Q& ^: F" t% a0 K+ O* }8 g5 T1 }! W3 w

7 k* C: V* \! P& z) Q: E+ H( n+ f! e- |, ^/ ]4 h
回复

使用道具 举报

懒得打字嘛,点击右侧快捷回复 【右侧内容,后台自定义】
您需要登录后才可以回帖 登录 | 立即注册

本版积分规则

Archiver|手机版|小黑屋| 中国高清网 |网站地图 

GMT+8, 2021-1-24 19:28 , Processed in 0.131047 second(s), 39 queries .

Powered by HDchina X3.4

Copyright 2017-2019©HDchina.All right reserved

返回顶部 联系我们