查看: 481|回复: 6

[REMUX.HEVC] 星河战队:火星叛国者/星河战队:火星的叛徒 Starship.Troopers.Traitor.of.Mars.2017.2160p.BluRay.REMUX.HEVC.DTS-HD.MA.TrueHD.7.1.Atmos-FGT 49.34GB

[复制链接]

 成长值: 5940

级别:资源管理组

注册时间
2017-10-20
最后登录
2020-7-2
听众
1
收听
0
主题
97162
蓝光币
165647 枚
贡献
21541 点
发表于 2018-4-1 01:45:01 | 显示全部楼层 |阅读模式
063955pppfuz5qy2fpqgqy.jpg
◎译  名 银河战队:火星叛国者/银河战队:火星的叛徒
◎片  名 Starship Troopers: Traitor of Mars
◎年  代 2017
◎产  地 美国
◎类  别 行动/科幻/动画
◎语  言 英语
◎上映日期 2017-08-21(美国)
◎IMDb评分  5.5/10 from 3,357 users
◎IMDb链接  http://www.imdb.com/title/tt6977240/
◎豆瓣评分 5.8/10 from 3,433 users
◎豆瓣链接 https://movie.douban.com/subject/27064923/
◎片  长 100分钟
◎导  演 荒牧伸志 Shinji Aramaki / 松本松子 Masaru Matsumoto
◎主  演 卡斯帕·凡·迪恩 Casper Van Dien
      迪娜·迈耶 Dina Meyer
      德雷·戴维斯 DeRay Davis
      露西·克里斯蒂安 Luci Christian

◎简  介

  故事报告约翰尼·里科(卡斯帕·凡·迪恩配音)升级发配到火星偏僻空间站,他本和兵士平稳培训,不意众人被一多量外星昆虫包围,战争一触即发。


  1. Video #1
  2. ID                                       : 1
  3. Format                                   : HEVC
  4. Format/Info                              : High Efficiency Video Coding
  5. Format profile                           : Main [url=mailto:10@L5.1]10@L5.1[/url]@High
  6. Codec ID                                 : V_MPEGH/ISO/HEVC
  7. Duration                                 : 1 h 27 min
  8. Bit rate                                 : 62.4 Mb/s
  9. Width                                    : 3 840 pixels
  10. Height                                   : 2 160 pixels
  11. Display aspect ratio                     : 16:9
  12. Frame rate mode                          : Constant
  13. Frame rate                               : 23.976 (24000/1001) FPS
  14. Color space                              : YUV
  15. Chroma subsampling                       : 4:2:0 (Type 2)
  16. Bit depth                                : 10 bits
  17. Bits/(Pixel*Frame)                       : 0.314
  18. Stream size                              : 38.3GB (78%)
  19. Title                                    : Starship.Troopers.Traitor.of.Mars.2017.2160p.BluRay.REMUX.HEVC.DTS-HD.MA.TrueHD.7.1.Atmos-FGT
  20. Default                                  : Yes
  21. Forced                                   : No
  22. Color range                              : Limited
  23. Color primaries                          : BT.2020
  24. Transfer characteristics                 : PQ
  25. Matrix coefficients                      : BT.2020 non-constant
  26. Mastering display color primaries        : Display P3
  27. Mastering display luminance              : min: 0.0050 cd/m2, max: 4000 cd/m2
  28. Maximum Content Light Level              : 9978 cd/m2
  29. Maximum Frame-Average Light Level        : 533 cd/m2

  30. Video #2
  31. ID                                       : 2
  32. Format                                   : HEVC
  33. Format/Info                              : High Efficiency Video Coding
  34. Format profile                           : Main [url=mailto:10@L5.1]10@L5.1[/url]@High
  35. Codec ID                                 : V_MPEGH/ISO/HEVC
  36. Duration                                 : 1 h 27 min
  37. Bit rate                                 : 121 kb/s
  38. Width                                    : 1 920 pixels
  39. Height                                   : 1 080 pixels
  40. Display aspect ratio                     : 16:9
  41. Frame rate mode                          : Constant
  42. Frame rate                               : 23.976 (24000/1001) FPS
  43. Color space                              : YUV
  44. Chroma subsampling                       : 4:2:0 (Type 2)
  45. Bit depth                                : 10 bits
  46. Bits/(Pixel*Frame)                       : 0.002
  47. Stream size                              : 76.1 MiB (0%)
  48. Title                                    : Starship.Troopers.Traitor.of.Mars.2017.2160p.BluRay.REMUX.HEVC.DTS-HD.MA.TrueHD.7.1.Atmos-FGT
  49. Default                                  : No
  50. Forced                                   : No
  51. Color range                              : Limited
  52. Color primaries                          : BT.2020
  53. Transfer characteristics                 : PQ
  54. Matrix coefficients                      : BT.2020 non-constant
  55. Mastering display color primaries        : Display P3
  56. Mastering display luminance              : min: 0.0050 cd/m2, max: 4000 cd/m2

  57. Audio #1
  58. ID                                       : 3
  59. Format                                   : TrueHD
  60. Format profile                           : TrueHD+Atmos / TrueHD
  61. Codec ID                                 : A_TRUEHD
  62. Duration                                 : 1 h 27 min
  63. Bit rate mode                            : Variable
  64. Bit rate                                 : 5 128 kb/s
  65. Maximum bit rate                         : 8 667 kb/s
  66. Channel(s)                               : Object Based / 8 channels
  67. Channel positions                        : Object Based / Front: L C R, Side: L R, Back: L R, LFE
  68. Sampling rate                            :  / 48.0 kHz
  69. Frame rate                               : 1 200.000 FPS (40 SPF)
  70. Compression mode                         : Lossless
  71. Stream size                              : 3.14GB (6%)
  72. Title                                    : Starship.Troopers.Traitor.of.Mars.2017.2160p.BluRay.REMUX.HEVC.DTS-HD.MA.TrueHD.7.1.Atmos-FGT
  73. Language                                 : English
  74. Default                                  : Yes
  75. Forced                                   : No

  76. Audio #2
  77. ID                                       : 4
  78. Format                                   : DTS
  79. Format/Info                              : Digital Theater Systems
  80. Format profile                           : MA / Core
  81. Codec ID                                 : A_DTS
  82. Duration                                 : 1 h 27 min
  83. Bit rate mode                            : Variable / Constant
  84. Bit rate                                 : 4 014 kb/s / 1 509 kb/s
  85. Channel(s)                               : 8 channels / 6 channels
  86. Channel positions                        : Front: L C R, Side: L R, Back: L R, LFE / Front: L C R, Side: L R, LFE
  87. Sampling rate                            : 48.0 kHz
  88. Frame rate                               : 93.750 FPS (512 SPF)
  89. Bit depth                                : 24 bits
  90. Compression mode                         : Lossless / Lossy
  91. Stream size                              : 2.46GB (5%)
  92. Title                                    : Starship.Troopers.Traitor.of.Mars.2017.2160p.BluRay.REMUX.HEVC.DTS-HD.MA.TrueHD.7.1.Atmos-FGT
  93. Language                                 : English
  94. Default                                  : No
  95. Forced                                   : No

  96. Audio #3
  97. ID                                       : 5
  98. Format                                   : AC-3
  99. Format/Info                              : Audio Coding 3
  100. Codec ID                                 : A_AC3
  101. Duration                                 : 1 h 27 min
  102. Bit rate mode                            : Constant
  103. Bit rate                                 : 640 kb/s
  104. Channel(s)                               : 6 channels
  105. Channel positions                        : Front: L C R, Side: L R, LFE
  106. Sampling rate                            : 48.0 kHz
  107. Frame rate                               : 31.250 FPS (1536 SPF)
  108. Bit depth                                : 16 bits
  109. Compression mode                         : Lossy
  110. Stream size                              : 402 MiB (1%)
  111. Title                                    : Starship.Troopers.Traitor.of.Mars.2017.2160p.BluRay.REMUX.HEVC.DTS-HD.MA.TrueHD.7.1.Atmos-FGT
  112. Language                                 : English
  113. Service kind                             : Complete Main
  114. Default                                  : No
  115. Forced                                   : No

  116. Audio #4
  117. ID                                       : 6
  118. Format                                   : AC-3
  119. Format/Info                              : Audio Coding 3
  120. Codec ID                                 : A_AC3
  121. Duration                                 : 1 h 27 min
  122. Bit rate mode                            : Constant
  123. Bit rate                                 : 640 kb/s
  124. Channel(s)                               : 6 channels
  125. Channel positions                        : Front: L C R, Side: L R, LFE
  126. Sampling rate                            : 48.0 kHz
  127. Frame rate                               : 31.250 FPS (1536 SPF)
  128. Bit depth                                : 16 bits
  129. Compression mode                         : Lossy
  130. Stream size                              : 402 MiB (1%)
  131. Title                                    : Starship.Troopers.Traitor.of.Mars.2017.2160p.BluRay.REMUX.HEVC.DTS-HD.MA.TrueHD.7.1.Atmos-FGT
  132. Language                                 : Czech
  133. Service kind                             : Complete Main
  134. Default                                  : No
  135. Forced                                   : No

  136. Audio #5
  137. ID                                       : 7
  138. Format                                   : AC-3
  139. Format/Info                              : Audio Coding 3
  140. Codec ID                                 : A_AC3
  141. Duration                                 : 1 h 27 min
  142. Bit rate mode                            : Constant
  143. Bit rate                                 : 640 kb/s
  144. Channel(s)                               : 6 channels
  145. Channel positions                        : Front: L C R, Side: L R, LFE
  146. Sampling rate                            : 48.0 kHz
  147. Frame rate                               : 31.250 FPS (1536 SPF)
  148. Bit depth                                : 16 bits
  149. Compression mode                         : Lossy
  150. Stream size                              : 402 MiB (1%)
  151. Title                                    : Starship.Troopers.Traitor.of.Mars.2017.2160p.BluRay.REMUX.HEVC.DTS-HD.MA.TrueHD.7.1.Atmos-FGT
  152. Language                                 : French
  153. Service kind                             : Complete Main
  154. Default                                  : No
  155. Forced                                   : No

  156. Audio #6
  157. ID                                       : 8
  158. Format                                   : AC-3
  159. Format/Info                              : Audio Coding 3
  160. Codec ID                                 : A_AC3
  161. Duration                                 : 1 h 27 min
  162. Bit rate mode                            : Constant
  163. Bit rate                                 : 640 kb/s
  164. Channel(s)                               : 6 channels
  165. Channel positions                        : Front: L C R, Side: L R, LFE
  166. Sampling rate                            : 48.0 kHz
  167. Frame rate                               : 31.250 FPS (1536 SPF)
  168. Bit depth                                : 16 bits
  169. Compression mode                         : Lossy
  170. Stream size                              : 402 MiB (1%)
  171. Title                                    : Starship.Troopers.Traitor.of.Mars.2017.2160p.BluRay.REMUX.HEVC.DTS-HD.MA.TrueHD.7.1.Atmos-FGT
  172. Language                                 : German
  173. Service kind                             : Complete Main
  174. Default                                  : No
  175. Forced                                   : No

  176. Audio #7
  177. ID                                       : 9
  178. Format                                   : AC-3
  179. Format/Info                              : Audio Coding 3
  180. Codec ID                                 : A_AC3
  181. Duration                                 : 1 h 27 min
  182. Bit rate mode                            : Constant
  183. Bit rate                                 : 640 kb/s
  184. Channel(s)                               : 6 channels
  185. Channel positions                        : Front: L C R, Side: L R, LFE
  186. Sampling rate                            : 48.0 kHz
  187. Frame rate                               : 31.250 FPS (1536 SPF)
  188. Bit depth                                : 16 bits
  189. Compression mode                         : Lossy
  190. Stream size                              : 402 MiB (1%)
  191. Title                                    : Starship.Troopers.Traitor.of.Mars.2017.2160p.BluRay.REMUX.HEVC.DTS-HD.MA.TrueHD.7.1.Atmos-FGT
  192. Language                                 : Hungarian
  193. Service kind                             : Complete Main
  194. Default                                  : No
  195. Forced                                   : No

  196. Audio #8
  197. ID                                       : 10
  198. Format                                   : AC-3
  199. Format/Info                              : Audio Coding 3
  200. Codec ID                                 : A_AC3
  201. Duration                                 : 1 h 27 min
  202. Bit rate mode                            : Constant
  203. Bit rate                                 : 640 kb/s
  204. Channel(s)                               : 6 channels
  205. Channel positions                        : Front: L C R, Side: L R, LFE
  206. Sampling rate                            : 48.0 kHz
  207. Frame rate                               : 31.250 FPS (1536 SPF)
  208. Bit depth                                : 16 bits
  209. Compression mode                         : Lossy
  210. Stream size                              : 402 MiB (1%)
  211. Title                                    : Starship.Troopers.Traitor.of.Mars.2017.2160p.BluRay.REMUX.HEVC.DTS-HD.MA.TrueHD.7.1.Atmos-FGT
  212. Language                                 : Italian
  213. Service kind                             : Complete Main
  214. Default                                  : No
  215. Forced                                   : No

  216. Audio #9
  217. ID                                       : 11
  218. Format                                   : AC-3
  219. Format/Info                              : Audio Coding 3
  220. Codec ID                                 : A_AC3
  221. Duration                                 : 1 h 27 min
  222. Bit rate mode                            : Constant
  223. Bit rate                                 : 640 kb/s
  224. Channel(s)                               : 6 channels
  225. Channel positions                        : Front: L C R, Side: L R, LFE
  226. Sampling rate                            : 48.0 kHz
  227. Frame rate                               : 31.250 FPS (1536 SPF)
  228. Bit depth                                : 16 bits
  229. Compression mode                         : Lossy
  230. Stream size                              : 402 MiB (1%)
  231. Title                                    : Starship.Troopers.Traitor.of.Mars.2017.2160p.BluRay.REMUX.HEVC.DTS-HD.MA.TrueHD.7.1.Atmos-FGT
  232. Language                                 : Polish
  233. Service kind                             : Complete Main
  234. Default                                  : No
  235. Forced                                   : No

  236. Audio #10
  237. ID                                       : 12
  238. Format                                   : AC-3
  239. Format/Info                              : Audio Coding 3
  240. Codec ID                                 : A_AC3
  241. Duration                                 : 1 h 27 min
  242. Bit rate mode                            : Constant
  243. Bit rate                                 : 640 kb/s
  244. Channel(s)                               : 6 channels
  245. Channel positions                        : Front: L C R, Side: L R, LFE
  246. Sampling rate                            : 48.0 kHz
  247. Frame rate                               : 31.250 FPS (1536 SPF)
  248. Bit depth                                : 16 bits
  249. Compression mode                         : Lossy
  250. Stream size                              : 402 MiB (1%)
  251. Title                                    : Starship.Troopers.Traitor.of.Mars.2017.2160p.BluRay.REMUX.HEVC.DTS-HD.MA.TrueHD.7.1.Atmos-FGT
  252. Language                                 : Portuguese
  253. Service kind                             : Complete Main
  254. Default                                  : No
  255. Forced                                   : No

  256. Audio #11
  257. ID                                       : 13
  258. Format                                   : AC-3
  259. Format/Info                              : Audio Coding 3
  260. Codec ID                                 : A_AC3
  261. Duration                                 : 1 h 27 min
  262. Bit rate mode                            : Constant
  263. Bit rate                                 : 640 kb/s
  264. Channel(s)                               : 6 channels
  265. Channel positions                        : Front: L C R, Side: L R, LFE
  266. Sampling rate                            : 48.0 kHz
  267. Frame rate                               : 31.250 FPS (1536 SPF)
  268. Bit depth                                : 16 bits
  269. Compression mode                         : Lossy
  270. Stream size                              : 402 MiB (1%)
  271. Title                                    : Starship.Troopers.Traitor.of.Mars.2017.2160p.BluRay.REMUX.HEVC.DTS-HD.MA.TrueHD.7.1.Atmos-FGT
  272. Language                                 : Russian
  273. Service kind                             : Complete Main
  274. Default                                  : No
  275. Forced                                   : No

  276. Audio #12
  277. ID                                       : 14
  278. Format                                   : AC-3
  279. Format/Info                              : Audio Coding 3
  280. Codec ID                                 : A_AC3
  281. Duration                                 : 1 h 27 min
  282. Bit rate mode                            : Constant
  283. Bit rate                                 : 640 kb/s
  284. Channel(s)                               : 6 channels
  285. Channel positions                        : Front: L C R, Side: L R, LFE
  286. Sampling rate                            : 48.0 kHz
  287. Frame rate                               : 31.250 FPS (1536 SPF)
  288. Bit depth                                : 16 bits
  289. Compression mode                         : Lossy
  290. Stream size                              : 402 MiB (1%)
  291. Title                                    : Starship.Troopers.Traitor.of.Mars.2017.2160p.BluRay.REMUX.HEVC.DTS-HD.MA.TrueHD.7.1.Atmos-FGT
  292. Language                                 : Spanish
  293. Service kind                             : Complete Main
  294. Default                                  : No
  295. Forced                                   : No

  296. Audio #13
  297. ID                                       : 15
  298. Format                                   : AC-3
  299. Format/Info                              : Audio Coding 3
  300. Codec ID                                 : A_AC3
  301. Duration                                 : 1 h 27 min
  302. Bit rate mode                            : Constant
  303. Bit rate                                 : 640 kb/s
  304. Channel(s)                               : 6 channels
  305. Channel positions                        : Front: L C R, Side: L R, LFE
  306. Sampling rate                            : 48.0 kHz
  307. Frame rate                               : 31.250 FPS (1536 SPF)
  308. Bit depth                                : 16 bits
  309. Compression mode                         : Lossy
  310. Stream size                              : 402 MiB (1%)
  311. Title                                    : Starship.Troopers.Traitor.of.Mars.2017.2160p.BluRay.REMUX.HEVC.DTS-HD.MA.TrueHD.7.1.Atmos-FGT
  312. Language                                 : Spanish
  313. Service kind                             : Complete Main
  314. Default                                  : No
  315. Forced                                   : No

  316. Audio #14
  317. ID                                       : 16
  318. Format                                   : AC-3
  319. Format/Info                              : Audio Coding 3
  320. Codec ID                                 : A_AC3
  321. Duration                                 : 1 h 27 min
  322. Bit rate mode                            : Constant
  323. Bit rate                                 : 640 kb/s
  324. Channel(s)                               : 6 channels
  325. Channel positions                        : Front: L C R, Side: L R, LFE
  326. Sampling rate                            : 48.0 kHz
  327. Frame rate                               : 31.250 FPS (1536 SPF)
  328. Bit depth                                : 16 bits
  329. Compression mode                         : Lossy
  330. Stream size                              : 402 MiB (1%)
  331. Title                                    : Starship.Troopers.Traitor.of.Mars.2017.2160p.BluRay.REMUX.HEVC.DTS-HD.MA.TrueHD.7.1.Atmos-FGT
  332. Language                                 : Thai
  333. Service kind                             : Complete Main
  334. Default                                  : No
  335. Forced                                   : No

  336. Audio #15
  337. ID                                       : 17
  338. Format                                   : AC-3
  339. Format/Info                              : Audio Coding 3
  340. Codec ID                                 : A_AC3
  341. Duration                                 : 1 h 27 min
  342. Bit rate mode                            : Constant
  343. Bit rate                                 : 640 kb/s
  344. Channel(s)                               : 6 channels
  345. Channel positions                        : Front: L C R, Side: L R, LFE
  346. Sampling rate                            : 48.0 kHz
  347. Frame rate                               : 31.250 FPS (1536 SPF)
  348. Bit depth                                : 16 bits
  349. Compression mode                         : Lossy
  350. Stream size                              : 402 MiB (1%)
  351. Title                                    : Starship.Troopers.Traitor.of.Mars.2017.2160p.BluRay.REMUX.HEVC.DTS-HD.MA.TrueHD.7.1.Atmos-FGT
  352. Language                                 : Turkish
  353. Service kind                             : Complete Main
  354. Default                                  : No
  355. Forced                                   : No

  356. Text #1
  357. ID                                       : 18
  358. Format                                   : PGS
  359. Muxing mode                              : zlib
  360. Codec ID                                 : S_HDMV/PGS
  361. Codec ID/Info                            : Picture based subtitle format used on BDs/HD-DVDs
  362. Duration                                 : 1 h 27 min
  363. Bit rate                                 : 31.0 kb/s
  364. Count of elements                        : 2265
  365. Stream size                              : 19.3 MiB (0%)
  366. Title                                    : English-PGS
  367. Language                                 : English
  368. Default                                  : Yes
  369. Forced                                   : No

  370. Text #2
  371. ID                                       : 19
  372. Format                                   : PGS
  373. Muxing mode                              : zlib
  374. Codec ID                                 : S_HDMV/PGS
  375. Codec ID/Info                            : Picture based subtitle format used on BDs/HD-DVDs
  376. Duration                                 : 1 h 27 min
  377. Bit rate                                 : 36.6 kb/s
  378. Count of elements                        : 2670
  379. Stream size                              : 22.8 MiB (0%)
  380. Title                                    : English-SDH-PGS
  381. Language                                 : English
  382. Default                                  : No
  383. Forced                                   : No

  384. Text #3
  385. ID                                       : 20
  386. Format                                   : PGS
  387. Muxing mode                              : zlib
  388. Codec ID                                 : S_HDMV/PGS
  389. Codec ID/Info                            : Picture based subtitle format used on BDs/HD-DVDs
  390. Duration                                 : 1 h 27 min
  391. Bit rate                                 : 31.0 kb/s
  392. Count of elements                        : 2267
  393. Stream size                              : 19.3 MiB (0%)
  394. Title                                    : English-PGS
  395. Language                                 : English
  396. Default                                  : No
  397. Forced                                   : No

  398. Text #4
  399. ID                                       : 21
  400. Format                                   : PGS
  401. Muxing mode                              : zlib
  402. Codec ID                                 : S_HDMV/PGS
  403. Codec ID/Info                            : Picture based subtitle format used on BDs/HD-DVDs
  404. Duration                                 : 1 h 27 min
  405. Bit rate                                 : 36.6 kb/s
  406. Count of elements                        : 2670
  407. Stream size                              : 22.8 MiB (0%)
  408. Title                                    : English-SDH-PGS
  409. Language                                 : English
  410. Default                                  : No
  411. Forced                                   : No

  412. Text #5
  413. ID                                       : 22
  414. Format                                   : PGS
  415. Muxing mode                              : zlib
  416. Codec ID                                 : S_HDMV/PGS
  417. Codec ID/Info                            : Picture based subtitle format used on BDs/HD-DVDs
  418. Duration                                 : 1 h 27 min
  419. Bit rate                                 : 31.5 kb/s
  420. Count of elements                        : 2347
  421. Stream size                              : 19.6 MiB (0%)
  422. Title                                    : Chinese-PGS
  423. Language                                 : Chinese
  424. Default                                  : No
  425. Forced                                   : No

  426. Text #6
  427. ID                                       : 23
  428. Format                                   : PGS
  429. Muxing mode                              : zlib
  430. Codec ID                                 : S_HDMV/PGS
  431. Codec ID/Info                            : Picture based subtitle format used on BDs/HD-DVDs
  432. Duration                                 : 1 h 27 min
  433. Bit rate                                 : 28.1 kb/s
  434. Count of elements                        : 2347
  435. Stream size                              : 17.5 MiB (0%)
  436. Title                                    : Chinese-PGS
  437. Language                                 : Chinese
  438. Default                                  : No
  439. Forced                                   : No

  440. Text #7
  441. ID                                       : 24
  442. Format                                   : PGS
  443. Muxing mode                              : zlib
  444. Codec ID                                 : S_HDMV/PGS
  445. Codec ID/Info                            : Picture based subtitle format used on BDs/HD-DVDs
  446. Duration                                 : 1 h 27 min
  447. Bit rate                                 : 28.4 kb/s
  448. Count of elements                        : 2301
  449. Stream size                              : 17.7 MiB (0%)
  450. Title                                    : Czech-PGS
  451. Language                                 : Czech
  452. Default                                  : No
  453. Forced                                   : No

  454. Text #8
  455. ID                                       : 25
  456. Format                                   : PGS
  457. Muxing mode                              : zlib
  458. Codec ID                                 : S_HDMV/PGS
  459. Codec ID/Info                            : Picture based subtitle format used on BDs/HD-DVDs
  460. Duration                                 : 1 h 27 min
  461. Bit rate                                 : 25.9 kb/s
  462. Count of elements                        : 2331
  463. Stream size                              : 16.1 MiB (0%)
  464. Title                                    : Danish-PGS
  465. Language                                 : Danish
  466. Default                                  : No
  467. Forced                                   : No

  468. Text #9
  469. ID                                       : 26
  470. Format                                   : PGS
  471. Muxing mode                              : zlib
  472. Codec ID                                 : S_HDMV/PGS
  473. Codec ID/Info                            : Picture based subtitle format used on BDs/HD-DVDs
  474. Duration                                 : 1 h 27 min
  475. Bit rate                                 : 30.8 kb/s
  476. Count of elements                        : 2261
  477. Stream size                              : 19.2 MiB (0%)
  478. Title                                    : Dutch-PGS
  479. Language                                 : Dutch
  480. Default                                  : No
  481. Forced                                   : No

  482. Text #10
  483. ID                                       : 27
  484. Format                                   : PGS
  485. Muxing mode                              : zlib
  486. Codec ID                                 : S_HDMV/PGS
  487. Codec ID/Info                            : Picture based subtitle format used on BDs/HD-DVDs
  488. Duration                                 : 1 h 27 min
  489. Bit rate                                 : 32.1 kb/s
  490. Count of elements                        : 2337
  491. Stream size                              : 20.0 MiB (0%)
  492. Title                                    : Estonian-PGS
  493. Language                                 : Estonian
  494. Default                                  : No
  495. Forced                                   : No

  496. Text #11
  497. ID                                       : 28
  498. Format                                   : PGS
  499. Muxing mode                              : zlib
  500. Codec ID                                 : S_HDMV/PGS
  501. Codec ID/Info                            : Picture based subtitle format used on BDs/HD-DVDs
  502. Duration                                 : 1 h 27 min
  503. Bit rate                                 : 31.6 kb/s
  504. Count of elements                        : 2075
  505. Stream size                              : 19.7 MiB (0%)
  506. Title                                    : Finnish-PGS
  507. Language                                 : Finnish
  508. Default                                  : No
  509. Forced                                   : No

  510. Text #12
  511. ID                                       : 29
  512. Format                                   : PGS
  513. Muxing mode                              : zlib
  514. Codec ID                                 : S_HDMV/PGS
  515. Codec ID/Info                            : Picture based subtitle format used on BDs/HD-DVDs
  516. Duration                                 : 1 h 27 min
  517. Bit rate                                 : 30.9 kb/s
  518. Count of elements                        : 2329
  519. Stream size                              : 19.2 MiB (0%)
  520. Title                                    : French-PGS
  521. Language                                 : French
  522. Default                                  : No
  523. Forced                                   : No

  524. Text #13
  525. ID                                       : 30
  526. Format                                   : PGS
  527. Muxing mode                              : zlib
  528. Codec ID                                 : S_HDMV/PGS
  529. Codec ID/Info                            : Picture based subtitle format used on BDs/HD-DVDs
  530. Duration                                 : 1 h 27 min
  531. Bit rate                                 : 36.4 kb/s
  532. Count of elements                        : 2331
  533. Stream size                              : 22.7 MiB (0%)
  534. Title                                    : German-PGS
  535. Language                                 : German
  536. Default                                  : No
  537. Forced                                   : No

  538. Text #14
  539. ID                                       : 31
  540. Format                                   : PGS
  541. Muxing mode                              : zlib
  542. Codec ID                                 : S_HDMV/PGS
  543. Codec ID/Info                            : Picture based subtitle format used on BDs/HD-DVDs
  544. Duration                                 : 1 h 22 min
  545. Bit rate                                 : 34.2 kb/s
  546. Count of elements                        : 2345
  547. Stream size                              : 20.3 MiB (0%)
  548. Title                                    : Greek-PGS
  549. Language                                 : Greek
  550. Default                                  : No
  551. Forced                                   : No

  552. Text #15
  553. ID                                       : 32
  554. Format                                   : PGS
  555. Muxing mode                              : zlib
  556. Codec ID                                 : S_HDMV/PGS
  557. Codec ID/Info                            : Picture based subtitle format used on BDs/HD-DVDs
  558. Duration                                 : 1 h 27 min
  559. Bit rate                                 : 34.0 kb/s
  560. Count of elements                        : 2331
  561. Stream size                              : 21.2 MiB (0%)
  562. Title                                    : Italian-PGS
  563. Language                                 : Italian
  564. Default                                  : No
  565. Forced                                   : No

  566. Text #16
  567. ID                                       : 33
  568. Format                                   : PGS
  569. Muxing mode                              : zlib
  570. Codec ID                                 : S_HDMV/PGS
  571. Codec ID/Info                            : Picture based subtitle format used on BDs/HD-DVDs
  572. Duration                                 : 1 h 27 min
  573. Bit rate                                 : 25.1 kb/s
  574. Count of elements                        : 2349
  575. Stream size                              : 15.7 MiB (0%)
  576. Title                                    : Korean-PGS
  577. Language                                 : Korean
  578. Default                                  : No
  579. Forced                                   : No

  580. Text #17
  581. ID                                       : 34
  582. Format                                   : PGS
  583. Muxing mode                              : zlib
  584. Codec ID                                 : S_HDMV/PGS
  585. Codec ID/Info                            : Picture based subtitle format used on BDs/HD-DVDs
  586. Duration                                 : 1 h 27 min
  587. Bit rate                                 : 29.0 kb/s
  588. Count of elements                        : 2345
  589. Stream size                              : 18.1 MiB (0%)
  590. Title                                    : Latvian-PGS
  591. Language                                 : Latvian
  592. Default                                  : No
  593. Forced                                   : No

  594. Text #18
  595. ID                                       : 35
  596. Format                                   : PGS
  597. Muxing mode                              : zlib
  598. Codec ID                                 : S_HDMV/PGS
  599. Codec ID/Info                            : Picture based subtitle format used on BDs/HD-DVDs
  600. Duration                                 : 1 h 27 min
  601. Bit rate                                 : 31.4 kb/s
  602. Count of elements                        : 2345
  603. Stream size                              : 19.6 MiB (0%)
  604. Title                                    : Lithuanian-PGS
  605. Language                                 : Lithuanian
  606. Default                                  : No
  607. Forced                                   : No

  608. Text #19
  609. ID                                       : 36
  610. Format                                   : PGS
  611. Muxing mode                              : zlib
  612. Codec ID                                 : S_HDMV/PGS
  613. Codec ID/Info                            : Picture based subtitle format used on BDs/HD-DVDs
  614. Duration                                 : 1 h 27 min
  615. Bit rate                                 : 29.5 kb/s
  616. Count of elements                        : 2315
  617. Stream size                              : 18.4 MiB (0%)
  618. Title                                    : Norwegian-PGS
  619. Language                                 : Norwegian
  620. Default                                  : No
  621. Forced                                   : No

  622. Text #20
  623. ID                                       : 37
  624. Format                                   : PGS
  625. Muxing mode                              : zlib
  626. Codec ID                                 : S_HDMV/PGS
  627. Codec ID/Info                            : Picture based subtitle format used on BDs/HD-DVDs
  628. Duration                                 : 1 h 27 min
  629. Bit rate                                 : 30.5 kb/s
  630. Count of elements                        : 2321
  631. Stream size                              : 19.0 MiB (0%)
  632. Title                                    : Polish-PGS
  633. Language                                 : Polish
  634. Default                                  : No
  635. Forced                                   : No

  636. Text #21
  637. ID                                       : 38
  638. Format                                   : PGS
  639. Muxing mode                              : zlib
  640. Codec ID                                 : S_HDMV/PGS
  641. Codec ID/Info                            : Picture based subtitle format used on BDs/HD-DVDs
  642. Duration                                 : 1 h 27 min
  643. Bit rate                                 : 33.4 kb/s
  644. Count of elements                        : 2299
  645. Stream size                              : 20.8 MiB (0%)
  646. Title                                    : Portuguese-PGS
  647. Language                                 : Portuguese
  648. Default                                  : No
  649. Forced                                   : No

  650. Text #22
  651. ID                                       : 39
  652. Format                                   : PGS
  653. Muxing mode                              : zlib
  654. Codec ID                                 : S_HDMV/PGS
  655. Codec ID/Info                            : Picture based subtitle format used on BDs/HD-DVDs
  656. Duration                                 : 1 h 27 min
  657. Bit rate                                 : 34.6 kb/s
  658. Count of elements                        : 2331
  659. Stream size                              : 21.6 MiB (0%)
  660. Title                                    : Portuguese-PGS
  661. Language                                 : Portuguese
  662. Default                                  : No
  663. Forced                                   : No

  664. Text #23
  665. ID                                       : 40
  666. Format                                   : PGS
  667. Muxing mode                              : zlib
  668. Codec ID                                 : S_HDMV/PGS
  669. Codec ID/Info                            : Picture based subtitle format used on BDs/HD-DVDs
  670. Duration                                 : 1 h 27 min
  671. Bit rate                                 : 30.8 kb/s
  672. Count of elements                        : 2337
  673. Stream size                              : 19.2 MiB (0%)
  674. Title                                    : Romanian-PGS
  675. Language                                 : Romanian
  676. Default                                  : No
  677. Forced                                   : No

  678. Text #24
  679. ID                                       : 41
  680. Format                                   : PGS
  681. Muxing mode                              : zlib
  682. Codec ID                                 : S_HDMV/PGS
  683. Codec ID/Info                            : Picture based subtitle format used on BDs/HD-DVDs
  684. Duration                                 : 1 h 27 min
  685. Bit rate                                 : 32.4 kb/s
  686. Count of elements                        : 2361
  687. Stream size                              : 20.2 MiB (0%)
  688. Title                                    : Russian-PGS
  689. Language                                 : Russian
  690. Default                                  : No
  691. Forced                                   : No

  692. Text #25
  693. ID                                       : 42
  694. Format                                   : PGS
  695. Muxing mode                              : zlib
  696. Codec ID                                 : S_HDMV/PGS
  697. Codec ID/Info                            : Picture based subtitle format used on BDs/HD-DVDs
  698. Duration                                 : 1 h 27 min
  699. Bit rate                                 : 33.4 kb/s
  700. Count of elements                        : 2347
  701. Stream size                              : 20.8 MiB (0%)
  702. Title                                    : Spanish-PGS
  703. Language                                 : Spanish
  704. Default                                  : No
  705. Forced                                   : No

  706. Text #26
  707. ID                                       : 43
  708. Format                                   : PGS
  709. Muxing mode                              : zlib
  710. Codec ID                                 : S_HDMV/PGS
  711. Codec ID/Info                            : Picture based subtitle format used on BDs/HD-DVDs
  712. Duration                                 : 1 h 27 min
  713. Bit rate                                 : 33.4 kb/s
  714. Count of elements                        : 2339
  715. Stream size                              : 20.8 MiB (0%)
  716. Title                                    : Spanish-PGS
  717. Language                                 : Spanish
  718. Default                                  : No
  719. Forced                                   : No

  720. Text #27
  721. ID                                       : 44
  722. Format                                   : PGS
  723. Muxing mode                              : zlib
  724. Codec ID                                 : S_HDMV/PGS
  725. Codec ID/Info                            : Picture based subtitle format used on BDs/HD-DVDs
  726. Duration                                 : 1 h 27 min
  727. Bit rate                                 : 27.6 kb/s
  728. Count of elements                        : 1865
  729. Stream size                              : 17.2 MiB (0%)
  730. Title                                    : Swedish-PGS
  731. Language                                 : Swedish
  732. Default                                  : No
  733. Forced                                   : No

  734. Text #28
  735. ID                                       : 45
  736. Format                                   : PGS
  737. Muxing mode                              : zlib
  738. Codec ID                                 : S_HDMV/PGS
  739. Codec ID/Info                            : Picture based subtitle format used on BDs/HD-DVDs
  740. Duration                                 : 1 h 27 min
  741. Bit rate                                 : 32.4 kb/s
  742. Count of elements                        : 2347
  743. Stream size                              : 20.2 MiB (0%)
  744. Title                                    : Thai-PGS
  745. Language                                 : Thai
  746. Default                                  : No
  747. Forced                                   : No

  748. Text #29
  749. ID                                       : 46
  750. Format                                   : PGS
  751. Muxing mode                              : zlib
  752. Codec ID                                 : S_HDMV/PGS
  753. Codec ID/Info                            : Picture based subtitle format used on BDs/HD-DVDs
  754. Duration                                 : 1 h 27 min
  755. Bit rate                                 : 32.9 kb/s
  756. Count of elements                        : 2337
  757. Stream size                              : 20.5 MiB (0%)
  758. Title                                    : Turkish-PGS
  759. Language                                 : Turkish
  760. Default                                  : No
  761. Forced                                   : No

  762. Text #30
  763. ID                                       : 47
  764. Format                                   : PGS
  765. Muxing mode                              : zlib
  766. Codec ID                                 : S_HDMV/PGS
  767. Codec ID/Info                            : Picture based subtitle format used on BDs/HD-DVDs
  768. Duration                                 : 1 h 27 min
  769. Bit rate                                 : 32.0 kb/s
  770. Count of elements                        : 2313
  771. Stream size                              : 20.0 MiB (0%)
  772. Title                                    : Hungarian-PGS
  773. Language                                 : Hungarian
  774. Default                                  : No
  775. Forced                                   : No

  776. Menu
  777. 00:00:00.000                             : en:Chapter 1
  778. 00:06:52.787                             : en:Chapter 2
  779. 00:11:49.166                             : en:Chapter 3
  780. 00:15:55.829                             : en:Chapter 4
  781. 00:22:10.662                             : en:Chapter 5
  782. 00:28:16.277                             : en:Chapter 6
  783. 00:34:40.119                             : en:Chapter 7
  784. 00:38:02.029                             : en:Chapter 8
  785. 00:41:06.464                             : en:Chapter 9
  786. 00:51:04.478                             : en:Chapter 10
  787. 00:57:03.253                             : en:Chapter 11
  788. 01:02:22.280                             : en:Chapter 12
  789. 01:06:19.934                             : en:Chapter 13
  790. 01:13:16.100                             : en:Chapter 14
  791. 01:18:19.986                             : en:Chapter 15
  792. 01:22:40.872                             : en:Chapter 16



复制代码
复制代码
063956sbm8scvrlymceyl9.png 063956ppymk2fts7g5fl7r.png 063956rzt00g1t3z6mm3md.png






本帖隐藏的下载地址需要VIP会员才可阅读,您需要升级才可阅读,点击这里升级VIP

回复

使用道具 举报

级别:群众演员 Lv.3

注册时间
2018-2-26
最后登录
2019-7-11
听众
15
收听
0
主题
0
蓝光币
110 枚
贡献
0 点
发表于 2018-4-1 13:30:39 | 显示全部楼层
谢谢楼主分享精彩电影
回复

使用道具 举报

已抛锚 成长值: 5755

级别:普通观众 Lv.2

注册时间
2018-4-1
最后登录
2019-3-30
听众
9
收听
0
主题
0
蓝光币
6 枚
贡献
0 点
QQ
发表于 2018-4-3 13:59:57 | 显示全部楼层
下载的速度可以
回复

使用道具 举报

级别:专业龙套 Lv.4

注册时间
2018-4-5
最后登录
2019-4-19
听众
12
收听
0
主题
0
蓝光币
287 枚
贡献
0 点
发表于 2018-4-5 21:39:33 | 显示全部楼层
这套挺不错的,感谢分享
回复

使用道具 举报

级别:普通观众 Lv.2

注册时间
2018-4-24
最后登录
2018-12-14
听众
9
收听
0
主题
0
蓝光币
65 枚
贡献
0 点
发表于 2018-4-30 20:04:45 | 显示全部楼层
好片子谢谢楼主
回复

使用道具 举报

 成长值: 110

级别:尊贵的会员

注册时间
2020-6-21
最后登录
2020-7-1
听众
1
收听
0
主题
0
蓝光币
35 枚
贡献
0 点
发表于 前天 10:55 | 显示全部楼层

好片子谢谢楼主
回复

使用道具 举报

级别:普通观众 Lv.2

注册时间
2019-8-7
最后登录
2020-7-2
听众
3
收听
0
主题
0
蓝光币
142 枚
贡献
0 点
发表于 昨天 16:00 | 显示全部楼层

楼主太厉害了!楼主,电影应该很好看我觉得中国高清电影网真是个好地方!
回复

使用道具 举报

懒得打字嘛,点击右侧快捷回复 【右侧内容,后台自定义】
您需要登录后才可以回帖 登录 | 立即注册

本版积分规则

Archiver|手机版|小黑屋| 中国高清网 ( ICP备17007870号-2 ) |网站地图 

GMT+8, 2020-7-2 19:29 , Processed in 0.272805 second(s), 39 queries .

Powered by HDchina X3.4

Copyright 2017-2019©HDchina.All right reserved

返回顶部 联系我们