查看: 1007|回复: 6

[10bit.SDR] 但丁密码/地狱 Inferno.2016.2160p.BluRay.x265.10bit.SDR.DTS-HD.MA.TrueHD.7.1.Atmos-SWTYBLZ 37.38GB

[复制链接]

 成长值: 7330

级别:资源管理组

注册时间
2017-10-20
最后登录
2020-9-30
听众
1
收听
0
主题
103318
蓝光币
199613 枚
贡献
21715 点
发表于 2017-10-31 00:21:33 | 显示全部楼层 |阅读模式
055024pcf74b1bni7tn9qr.jpg
◎译  名 但丁密码 / 天堂 / 天堂解码
◎片  名 但丁密码 Inferno
◎年  代 2016
◎国  家 美国 / 匈牙利
◎类  别 悬疑 / 惊悚
◎语  言 英语 / 法语 / 意大利语 / 土耳其语
◎上映日期 2016-10-28(中国大陆/美国)
◎IMDb评分  6.2/10 from 99,588 users
◎IMDb链接  http://www.imdb.com/title/tt3062096/
◎豆瓣评分 6.2/10 from 54578 users
◎豆瓣链接 https://movie.douban.com/subject/24860318/
◎片  长 122分钟
◎导  演 朗·霍华德
◎主  演 汤姆·汉克斯 Tom Hanks
      菲丽希缇·琼斯 Felicity Jones
      本·福斯特 Ben Foster
      奥玛·赛 Omar Sy
      伊尔凡·可汗 Irrfan Khan
      西瑟·巴比特·科努德森 Sidse Babett Knudsen
      安娜·乌拉鲁 Ana Ularu
      沃尔夫冈·施特格曼 Wolfgang Stegemann
      阿提拉·阿帕 Attila árpa
      乔恩·多纳休 Jon Donahue

◎简  介 

  《但丁密码》改编自丹·布朗2013年的小说《天堂》,报告了标记学教授罗伯特·兰登(汤姆·汉克斯 Tom Hanks 饰)在意大利一所医院中醒来,发觉自己头部遭到重创且失忆,同时还遭到多组人马追杀,女医生西恩娜·布鲁克斯(费莉西蒂·琼斯 Felicity Jones 饰)帮助他逃出医院,寻回记忆,在这一进程中发现隐藏在但丁、米开畅琪罗等大师作品里的一个惊天诡计,有极端邪恶的科学家企图操纵病毒把地球酿成但丁《神曲》中描画的天堂。




  1. Video
  2. ID                                       : 1
  3. Format                                   : HEVC
  4. Format/Info                              : High Efficiency Video Coding
  5. Format profile                           : Main [url=mailto:10@L5.1]10@L5.1[/url]@High
  6. Codec ID                                 : V_MPEGH/ISO/HEVC
  7. Duration                                 : 2 h 1 min
  8. Bit rate                                 : 33.6 Mb/s
  9. Width                                    : 3 840 pixels
  10. Height                                   : 2 076 pixels
  11. Display aspect ratio                     : 1.85:1
  12. Frame rate mode                          : Constant
  13. Frame rate                               : 23.976 (24000/1001) FPS
  14. Color space                              : YUV
  15. Chroma subsampling                       : 4:2:0
  16. Bit depth                                : 10 bits
  17. Bits/(Pixel*Frame)                       : 0.176
  18. Stream size                              : 28.5GB (77%)
  19. Title                                    : Inferno.2016.2160p.BluRay.x265.10bit.SDR.DTS-HD.MA.TrueHD.7.1.Atmos-SWTYBLZ
  20. Writing library                          : x265 2.3+2-0dbee7ac1e59:[Windows][GCC 4.9.3][64 bit] 10bit
  21. Encoding settings                        : cpuid=1111111 / frame-threads=16 / numa-pools=24,24,24,24 / wpp / no-pmode / no-pme / no-psnr / no-ssim / log-level=2 / input-csp=1 / input-res=3840x2076 / interlace=0 / total-frames=0 / level-idc=51 / high-tier=1 / uhd-bd=0 / ref=3 / no-allow-non-conformance / repeat-headers / annexb / aud / hrd / info / hash=0 / no-temporal-layers / no-open-gop / min-keyint=1 / keyint=24 / bframes=4 / b-adapt=2 / b-pyramid / bframe-bias=0 / rc-lookahead=25 / lookahead-slices=4 / scenecut=40 / no-intra-refresh / ctu=64 / min-cu-size=8 / no-rect / no-amp / max-tu-size=32 / tu-inter-depth=1 / tu-intra-depth=1 / limit-tu=0 / rdoq-level=0 / dynamic-rd=0.00 / signhide / no-tskip / nr-intra=0 / nr-inter=0 / no-constrained-intra / strong-intra-smoothing / max-merge=2 / limit-refs=3 / no-limit-modes / me=1 / subme=2 / merange=57 / temporal-mvp / weightp / no-weightb / no-analyze-src-pics / deblock=0:0 / sao / no-sao-non-deblock / rd=3 / no-early-skip / rskip / no-fast-intra / no-tskip-fast / no-cu-lossless / no-b-intra / rdpenalty=0 / psy-rd=2.00 / psy-rdoq=0.00 / no-rd-refine / analysis-mode=0 / no-lossless / cbqpoffs=0 / crqpoffs=0 / rc=crf / crf=18.0 / qcomp=0.60 / qpstep=4 / stats-write=0 / stats-read=0 / vbv-maxrate=160000 / vbv-bufsize=160000 / vbv-init=0.9 / crf-max=0.0 / crf-min=0.0 / ipratio=1.40 / pbratio=1.30 / aq-mode=1 / aq-strength=1.00 / cutree / zone-count=0 / no-strict-cbr / qg-size=32 / no-rc-grain / qpmax=69 / qpmin=0 / sar=1 / overscan=0 / videoformat=5 / range=0 / colorprim=2 / transfer=2 / colormatrix=2 / chromaloc=0 / display-window=0 / max-cll=0,0 / min-luma=0 / max-luma=1023 / log2-max-poc-lsb=8 / vui-timing-info / vui-hrd-info / slices=1 / opt-qp-pps / opt-ref-list-length-pps / no-multi-pass-opt-rps / scenecut-bias=0.05 / no-opt-cu-delta-qp / no-aq-motion / no-hdr
  22. Language                                 : English
  23. Default                                  : Yes
  24. Forced                                   : No

  25. Audio #1
  26. ID                                       : 2
  27. Format                                   : DTS
  28. Format/Info                              : Digital Theater Systems
  29. Format profile                           : MA / Core
  30. Mode                                     : 16
  31. Format settings, Endianness              : Big
  32. Codec ID                                 : A_DTS
  33. Duration                                 : 2 h 1 min
  34. Bit rate mode                            : Variable / Constant
  35. Bit rate                                 : 4 060 kb/s / 1 509 kb/s
  36. Channel(s)                               : 8 channels / 6 channels
  37. Channel positions                        : Front: L C R, Side: L R, Back: L R, LFE / Front: L C R, Side: L R, LFE
  38. Sampling rate                            : 48.0 kHz
  39. Frame rate                               : 93.750 FPS (512 spf)
  40. Bit depth                                : 24 bits
  41. Compression mode                         : Lossless / Lossy
  42. Stream size                              : 3.45GB (9%)
  43. Title                                    : Inferno.2016.2160p.BluRay.x265.10bit.SDR.DTS-HD.MA.TrueHD.7.1.Atmos-SWTYBLZ
  44. Language                                 : English
  45. Default                                  : Yes
  46. Forced                                   : No

  47. Audio #2
  48. ID                                       : 3
  49. Format                                   : TrueHD
  50. Format profile                           : TrueHD+Atmos / TrueHD
  51. Codec ID                                 : A_TRUEHD
  52. Duration                                 : 2 h 1 min
  53. Bit rate mode                            : Variable
  54. Bit rate                                 : 4 900 kb/s
  55. Maximum bit rate                         : 8 316 kb/s
  56. Channel(s)                               : Object Based / 8 channels
  57. Channel positions                        : Object Based / Front: L C R, Side: L R, Back: L R, LFE
  58. Sampling rate                            :  / 48.0 kHz
  59. Frame rate                               : 1 200.000 FPS (40 spf)
  60. Compression mode                         : Lossless
  61. Delay relative to video                  : 26 ms
  62. Stream size                              : 4.16GB (11%)
  63. Title                                    : Inferno.2016.2160p.BluRay.x265.10bit.SDR.DTS-HD.MA.TrueHD.7.1.Atmos-SWTYBLZ
  64. Language                                 : English
  65. Default                                  : No
  66. Forced                                   : No

  67. Audio #3
  68. ID                                       : 4
  69. Format                                   : AC-3
  70. Format/Info                              : Audio Coding 3
  71. Format settings, Endianness              : Big
  72. Codec ID                                 : A_AC3
  73. Duration                                 : 2 h 1 min
  74. Bit rate mode                            : Constant
  75. Bit rate                                 : 640 kb/s
  76. Channel(s)                               : 6 channels
  77. Channel positions                        : Front: L C R, Side: L R, LFE
  78. Sampling rate                            : 48.0 kHz
  79. Frame rate                               : 31.250 FPS (1536 spf)
  80. Bit depth                                : 16 bits
  81. Compression mode                         : Lossy
  82. Delay relative to video                  : 26 ms
  83. Stream size                              : 557 MiB (1%)
  84. Title                                    : Inferno.2016.2160p.BluRay.x265.10bit.SDR.DTS-HD.MA.TrueHD.7.1.Atmos-SWTYBLZ
  85. Language                                 : English
  86. Service kind                             : Complete Main
  87. Default                                  : No
  88. Forced                                   : No

  89. Text #1
  90. ID                                       : 5
  91. Format                                   : UTF-8
  92. Codec ID                                 : S_TEXT/UTF8
  93. Codec ID/Info                            : UTF-8 Plain Text
  94. Duration                                 : 1 h 55 min
  95. Bit rate                                 : 55 b/s
  96. Count of elements                        : 1360
  97. Stream size                              : 46.5 KiB (0%)
  98. Title                                    : English-SRT
  99. Language                                 : English
  100. Default                                  : Yes
  101. Forced                                   : No

  102. Text #2
  103. ID                                       : 6
  104. Format                                   : PGS
  105. Muxing mode                              : zlib
  106. Codec ID                                 : S_HDMV/PGS
  107. Codec ID/Info                            : Picture based subtitle format used on BDs/HD-DVDs
  108. Duration                                 : 1 h 55 min
  109. Bit rate                                 : 16.4 kb/s
  110. Count of elements                        : 2720
  111. Stream size                              : 13.5 MiB (0%)
  112. Title                                    : English-PGS
  113. Language                                 : English
  114. Default                                  : No
  115. Forced                                   : No

  116. Text #3
  117. ID                                       : 7
  118. Format                                   : PGS
  119. Muxing mode                              : zlib
  120. Codec ID                                 : S_HDMV/PGS
  121. Codec ID/Info                            : Picture based subtitle format used on BDs/HD-DVDs
  122. Duration                                 : 1 h 57 min
  123. Bit rate                                 : 18.6 kb/s
  124. Count of elements                        : 3332
  125. Stream size                              : 15.6 MiB (0%)
  126. Title                                    : English-SDH-PGS
  127. Language                                 : English
  128. Default                                  : No
  129. Forced                                   : No

  130. Text #4
  131. ID                                       : 8
  132. Format                                   : PGS
  133. Muxing mode                              : zlib
  134. Codec ID                                 : S_HDMV/PGS
  135. Codec ID/Info                            : Picture based subtitle format used on BDs/HD-DVDs
  136. Duration                                 : 1 h 55 min
  137. Bit rate                                 : 11.2 kb/s
  138. Count of elements                        : 2788
  139. Stream size                              : 9.24 MiB (0%)
  140. Title                                    : Arabic-PGS
  141. Language                                 : Arabic
  142. Default                                  : No
  143. Forced                                   : No

  144. Text #5
  145. ID                                       : 9
  146. Format                                   : PGS
  147. Muxing mode                              : zlib
  148. Codec ID                                 : S_HDMV/PGS
  149. Codec ID/Info                            : Picture based subtitle format used on BDs/HD-DVDs
  150. Duration                                 : 1 h 55 min
  151. Bit rate                                 : 20.2 kb/s
  152. Count of elements                        : 2784
  153. Stream size                              : 16.6 MiB (0%)
  154. Title                                    : Chinese-PGS
  155. Language                                 : Chinese
  156. Default                                  : No
  157. Forced                                   : No

  158. Text #6
  159. ID                                       : 10
  160. Format                                   : PGS
  161. Muxing mode                              : zlib
  162. Codec ID                                 : S_HDMV/PGS
  163. Codec ID/Info                            : Picture based subtitle format used on BDs/HD-DVDs
  164. Duration                                 : 2 h 0 min
  165. Bit rate                                 : 15.4 kb/s
  166. Count of elements                        : 2758
  167. Stream size                              : 13.3 MiB (0%)
  168. Title                                    : Czech-PGS
  169. Language                                 : Czech
  170. Default                                  : No
  171. Forced                                   : No

  172. Text #7
  173. ID                                       : 11
  174. Format                                   : PGS
  175. Muxing mode                              : zlib
  176. Codec ID                                 : S_HDMV/PGS
  177. Codec ID/Info                            : Picture based subtitle format used on BDs/HD-DVDs
  178. Duration                                 : 2 h 0 min
  179. Bit rate                                 : 14.4 kb/s
  180. Count of elements                        : 2298
  181. Stream size                              : 12.4 MiB (0%)
  182. Title                                    : Dutch-PGS
  183. Language                                 : Dutch
  184. Default                                  : No
  185. Forced                                   : No

  186. Text #8
  187. ID                                       : 12
  188. Format                                   : PGS
  189. Muxing mode                              : zlib
  190. Codec ID                                 : S_HDMV/PGS
  191. Codec ID/Info                            : Picture based subtitle format used on BDs/HD-DVDs
  192. Duration                                 : 2 h 0 min
  193. Bit rate                                 : 14.4 kb/s
  194. Count of elements                        : 2298
  195. Stream size                              : 12.4 MiB (0%)
  196. Title                                    : Dutch-PGS
  197. Language                                 : Dutch
  198. Default                                  : No
  199. Forced                                   : No

  200. Text #9
  201. ID                                       : 13
  202. Format                                   : PGS
  203. Muxing mode                              : zlib
  204. Codec ID                                 : S_HDMV/PGS
  205. Codec ID/Info                            : Picture based subtitle format used on BDs/HD-DVDs
  206. Duration                                 : 2 h 0 min
  207. Bit rate                                 : 14.0 kb/s
  208. Count of elements                        : 3068
  209. Stream size                              : 12.1 MiB (0%)
  210. Title                                    : Estonian-PGS
  211. Language                                 : Estonian
  212. Default                                  : No
  213. Forced                                   : No

  214. Text #10
  215. ID                                       : 14
  216. Format                                   : PGS
  217. Muxing mode                              : zlib
  218. Codec ID                                 : S_HDMV/PGS
  219. Codec ID/Info                            : Picture based subtitle format used on BDs/HD-DVDs
  220. Duration                                 : 2 h 0 min
  221. Bit rate                                 : 14.1 kb/s
  222. Count of elements                        : 2756
  223. Stream size                              : 12.2 MiB (0%)
  224. Title                                    : Finnish -PGS
  225. Language                                 : Finnish
  226. Default                                  : No
  227. Forced                                   : No

  228. Text #11
  229. ID                                       : 15
  230. Format                                   : PGS
  231. Muxing mode                              : zlib
  232. Codec ID                                 : S_HDMV/PGS
  233. Codec ID/Info                            : Picture based subtitle format used on BDs/HD-DVDs
  234. Duration                                 : 2 h 0 min
  235. Bit rate                                 : 16.3 kb/s
  236. Count of elements                        : 3086
  237. Stream size                              : 14.0 MiB (0%)
  238. Title                                    : French-PGS
  239. Language                                 : French
  240. Default                                  : No
  241. Forced                                   : No

  242. Text #12
  243. ID                                       : 16
  244. Format                                   : PGS
  245. Muxing mode                              : zlib
  246. Codec ID                                 : S_HDMV/PGS
  247. Codec ID/Info                            : Picture based subtitle format used on BDs/HD-DVDs
  248. Duration                                 : 2 h 0 min
  249. Bit rate                                 : 17.3 kb/s
  250. Count of elements                        : 2836
  251. Stream size                              : 14.9 MiB (0%)
  252. Title                                    : German-PGS
  253. Language                                 : German
  254. Default                                  : No
  255. Forced                                   : No

  256. Text #13
  257. ID                                       : 17
  258. Format                                   : PGS
  259. Muxing mode                              : zlib
  260. Codec ID                                 : S_HDMV/PGS
  261. Codec ID/Info                            : Picture based subtitle format used on BDs/HD-DVDs
  262. Duration                                 : 2 h 0 min
  263. Bit rate                                 : 15.4 kb/s
  264. Count of elements                        : 2792
  265. Stream size                              : 13.2 MiB (0%)
  266. Title                                    : Hungarian-PGS
  267. Language                                 : Hungarian
  268. Default                                  : No
  269. Forced                                   : No

  270. Text #14
  271. ID                                       : 18
  272. Format                                   : PGS
  273. Muxing mode                              : zlib
  274. Codec ID                                 : S_HDMV/PGS
  275. Codec ID/Info                            : Picture based subtitle format used on BDs/HD-DVDs
  276. Duration                                 : 1 h 55 min
  277. Bit rate                                 : 16.1 kb/s
  278. Count of elements                        : 2784
  279. Stream size                              : 13.2 MiB (0%)
  280. Title                                    : Italian-PGS
  281. Language                                 : Italian
  282. Default                                  : No
  283. Forced                                   : No

  284. Text #15
  285. ID                                       : 19
  286. Format                                   : PGS
  287. Muxing mode                              : zlib
  288. Codec ID                                 : S_HDMV/PGS
  289. Codec ID/Info                            : Picture based subtitle format used on BDs/HD-DVDs
  290. Duration                                 : 2 h 0 min
  291. Bit rate                                 : 15.1 kb/s
  292. Count of elements                        : 2668
  293. Stream size                              : 13.0 MiB (0%)
  294. Title                                    : Japanese-PGS
  295. Language                                 : Japanese
  296. Default                                  : No
  297. Forced                                   : No

  298. Text #16
  299. ID                                       : 20
  300. Format                                   : PGS
  301. Muxing mode                              : zlib
  302. Codec ID                                 : S_HDMV/PGS
  303. Codec ID/Info                            : Picture based subtitle format used on BDs/HD-DVDs
  304. Duration                                 : 1 h 54 min
  305. Bit rate                                 : 11.2 kb/s
  306. Count of elements                        : 2746
  307. Stream size                              : 9.20 MiB (0%)
  308. Title                                    : Korean-PGS
  309. Language                                 : Korean
  310. Default                                  : No
  311. Forced                                   : No

  312. Text #17
  313. ID                                       : 21
  314. Format                                   : PGS
  315. Muxing mode                              : zlib
  316. Codec ID                                 : S_HDMV/PGS
  317. Codec ID/Info                            : Picture based subtitle format used on BDs/HD-DVDs
  318. Duration                                 : 1 h 55 min
  319. Bit rate                                 : 13.0 kb/s
  320. Count of elements                        : 2806
  321. Stream size                              : 10.7 MiB (0%)
  322. Title                                    : Latvian-PGS
  323. Language                                 : Latvian
  324. Default                                  : No
  325. Forced                                   : No

  326. Text #18
  327. ID                                       : 22
  328. Format                                   : PGS
  329. Muxing mode                              : zlib
  330. Codec ID                                 : S_HDMV/PGS
  331. Codec ID/Info                            : Picture based subtitle format used on BDs/HD-DVDs
  332. Duration                                 : 1 h 55 min
  333. Bit rate                                 : 14.6 kb/s
  334. Count of elements                        : 2916
  335. Stream size                              : 12.0 MiB (0%)
  336. Title                                    : Lithuanian-PGS
  337. Language                                 : Lithuanian
  338. Default                                  : No
  339. Forced                                   : No

  340. Text #19
  341. ID                                       : 23
  342. Format                                   : PGS
  343. Muxing mode                              : zlib
  344. Codec ID                                 : S_HDMV/PGS
  345. Codec ID/Info                            : Picture based subtitle format used on BDs/HD-DVDs
  346. Duration                                 : 1 h 55 min
  347. Bit rate                                 : 16.7 kb/s
  348. Count of elements                        : 2774
  349. Stream size                              : 13.7 MiB (0%)
  350. Title                                    : Norwegian-PGS
  351. Language                                 : Norwegian
  352. Default                                  : No
  353. Forced                                   : No

  354. Text #20
  355. ID                                       : 24
  356. Format                                   : PGS
  357. Muxing mode                              : zlib
  358. Codec ID                                 : S_HDMV/PGS
  359. Codec ID/Info                            : Picture based subtitle format used on BDs/HD-DVDs
  360. Duration                                 : 2 h 0 min
  361. Bit rate                                 : 13.4 kb/s
  362. Count of elements                        : 2620
  363. Stream size                              : 11.6 MiB (0%)
  364. Title                                    : Polish-PGS
  365. Language                                 : Polish
  366. Default                                  : No
  367. Forced                                   : No

  368. Text #21
  369. ID                                       : 25
  370. Format                                   : PGS
  371. Muxing mode                              : zlib
  372. Codec ID                                 : S_HDMV/PGS
  373. Codec ID/Info                            : Picture based subtitle format used on BDs/HD-DVDs
  374. Duration                                 : 2 h 0 min
  375. Bit rate                                 : 17.0 kb/s
  376. Count of elements                        : 2742
  377. Stream size                              : 14.7 MiB (0%)
  378. Title                                    : Portuguese
  379. Language                                 : Portuguese
  380. Default                                  : No
  381. Forced                                   : No

  382. Text #22
  383. ID                                       : 26
  384. Format                                   : PGS
  385. Muxing mode                              : zlib
  386. Codec ID                                 : S_HDMV/PGS
  387. Codec ID/Info                            : Picture based subtitle format used on BDs/HD-DVDs
  388. Duration                                 : 2 h 0 min
  389. Bit rate                                 : 16.2 kb/s
  390. Count of elements                        : 2717
  391. Stream size                              : 14.0 MiB (0%)
  392. Title                                    : Portuguese
  393. Language                                 : Portuguese
  394. Default                                  : No
  395. Forced                                   : No

  396. Text #23
  397. ID                                       : 27
  398. Format                                   : PGS
  399. Muxing mode                              : zlib
  400. Codec ID                                 : S_HDMV/PGS
  401. Codec ID/Info                            : Picture based subtitle format used on BDs/HD-DVDs
  402. Duration                                 : 2 h 0 min
  403. Bit rate                                 : 14.8 kb/s
  404. Count of elements                        : 2724
  405. Stream size                              : 12.8 MiB (0%)
  406. Title                                    : Romanian
  407. Language                                 : Romanian
  408. Default                                  : No
  409. Forced                                   : No

  410. Text #24
  411. ID                                       : 28
  412. Format                                   : PGS
  413. Muxing mode                              : zlib
  414. Codec ID                                 : S_HDMV/PGS
  415. Codec ID/Info                            : Picture based subtitle format used on BDs/HD-DVDs
  416. Duration                                 : 1 h 55 min
  417. Bit rate                                 : 16.4 kb/s
  418. Count of elements                        : 2798
  419. Stream size                              : 13.5 MiB (0%)
  420. Title                                    : Russian-PGS
  421. Language                                 : Russian
  422. Default                                  : No
  423. Forced                                   : No

  424. Text #25
  425. ID                                       : 29
  426. Format                                   : PGS
  427. Muxing mode                              : zlib
  428. Codec ID                                 : S_HDMV/PGS
  429. Codec ID/Info                            : Picture based subtitle format used on BDs/HD-DVDs
  430. Duration                                 : 2 h 0 min
  431. Bit rate                                 : 15.2 kb/s
  432. Count of elements                        : 2752
  433. Stream size                              : 13.1 MiB (0%)
  434. Title                                    : Spanish-PGS
  435. Language                                 : Spanish
  436. Default                                  : No
  437. Forced                                   : No

  438. Text #26
  439. ID                                       : 30
  440. Format                                   : PGS
  441. Muxing mode                              : zlib
  442. Codec ID                                 : S_HDMV/PGS
  443. Codec ID/Info                            : Picture based subtitle format used on BDs/HD-DVDs
  444. Duration                                 : 2 h 0 min
  445. Bit rate                                 : 15.3 kb/s
  446. Count of elements                        : 2804
  447. Stream size                              : 13.1 MiB (0%)
  448. Title                                    : Spanish-PGS
  449. Language                                 : Spanish
  450. Default                                  : No
  451. Forced                                   : No

  452. Text #27
  453. ID                                       : 31
  454. Format                                   : PGS
  455. Muxing mode                              : zlib
  456. Codec ID                                 : S_HDMV/PGS
  457. Codec ID/Info                            : Picture based subtitle format used on BDs/HD-DVDs
  458. Duration                                 : 2 h 0 min
  459. Bit rate                                 : 14.0 kb/s
  460. Count of elements                        : 2447
  461. Stream size                              : 12.1 MiB (0%)
  462. Title                                    : Swedish-PGS
  463. Language                                 : Swedish
  464. Default                                  : No
  465. Forced                                   : No

  466. Text #28
  467. ID                                       : 32
  468. Format                                   : PGS
  469. Muxing mode                              : zlib
  470. Codec ID                                 : S_HDMV/PGS
  471. Codec ID/Info                            : Picture based subtitle format used on BDs/HD-DVDs
  472. Duration                                 : 2 h 0 min
  473. Bit rate                                 : 15.7 kb/s
  474. Count of elements                        : 2796
  475. Stream size                              : 13.5 MiB (0%)
  476. Title                                    : Thai-PGS
  477. Language                                 : Thai
  478. Default                                  : No
  479. Forced                                   : No

  480. Text #29
  481. ID                                       : 33
  482. Format                                   : PGS
  483. Muxing mode                              : zlib
  484. Codec ID                                 : S_HDMV/PGS
  485. Codec ID/Info                            : Picture based subtitle format used on BDs/HD-DVDs
  486. Duration                                 : 2 h 0 min
  487. Bit rate                                 : 15.0 kb/s
  488. Count of elements                        : 2774
  489. Stream size                              : 12.9 MiB (0%)
  490. Title                                    : Turkish-PGS
  491. Language                                 : Turkish
  492. Default                                  : No
  493. Forced                                   : No




  494. Notes :
  495. Converted the TrueHD 7.1 track to DTS HD-MA 7.1.

复制代码
复制代码
055025wry1yoct7cjgja3o.png 055026oml8864gkil2iqgg.png 055027xsvh10vb4crt7i0v.png 055028qnxqqltvkx0grrsv.png 055028jtysjju9wt644ugw.png 055029vuk3oc1fp0s33huh.png 055030ollrwrappjs0ullm.png

                                                                                                                                                      



本帖隐藏的下载地址需要VIP会员才可阅读,您需要升级才可阅读,点击这里升级VIP

回复

使用道具 举报

级别:荣升主角 Lv.5

注册时间
2018-4-26
最后登录
2019-7-26
听众
15
收听
0
主题
0
蓝光币
719 枚
贡献
0 点
QQ
发表于 2018-5-5 17:07:08 | 显示全部楼层
这部好像没有看过
回复

使用道具 举报

级别:荣升主角 Lv.5

注册时间
2018-8-8
最后登录
2019-10-19
听众
15
收听
0
主题
0
蓝光币
754 枚
贡献
0 点
发表于 2018-10-17 21:13:45 | 显示全部楼层
多謝分享
回复

使用道具 举报

级别:普通观众 Lv.2

注册时间
2019-12-5
最后登录
2020-7-28
听众
5
收听
0
主题
0
蓝光币
64 枚
贡献
0 点
发表于 2019-12-10 19:07:49 | 显示全部楼层

这个帖子不回对不起自己!我想我是一天也不能离开中国高清电影网
回复

使用道具 举报

级别:专业龙套 Lv.4

注册时间
2019-10-3
最后登录
2020-7-27
听众
5
收听
0
主题
0
蓝光币
325 枚
贡献
0 点
发表于 2020-3-30 09:37:52 | 显示全部楼层


这个帖子不回对不起自己!我想我是一天也不能离
回复

使用道具 举报

级别:荣升主角 Lv.5

注册时间
2020-2-7
最后登录
2020-6-24
听众
2
收听
0
主题
0
蓝光币
320 枚
贡献
0 点
发表于 2020-3-31 08:38:32 | 显示全部楼层
楼主发贴辛苦了,谢谢楼主分享!我觉得中国高清电影网是注册对了!
回复

使用道具 举报

级别:专业龙套 Lv.4

注册时间
2018-11-23
最后登录
2020-9-27
听众
12
收听
0
主题
0
蓝光币
176 枚
贡献
0 点
发表于 2020-4-2 12:08:53 | 显示全部楼层
汤。汉主演的悬疑片。原著小说脑洞大开
回复

使用道具 举报

懒得打字嘛,点击右侧快捷回复 【右侧内容,后台自定义】
您需要登录后才可以回帖 登录 | 立即注册

本版积分规则

Archiver|手机版|小黑屋| 中国高清网 ( ICP备17007870号-2 ) |网站地图 

GMT+8, 2020-9-30 05:08 , Processed in 0.240572 second(s), 40 queries .

Powered by HDchina X3.4

Copyright 2017-2019©HDchina.All right reserved

返回顶部 联系我们