查看: 20|回复: 0

[2160p] 第三类接触.Close.Encounters.of.the.Third.Kind.1977.DC.2160p.UHD.BluRay.x265.10bit.HDR.DDP5.1-RARBG 8.30GB

[复制链接]
蓝光币
112 枚
发表于 2023-3-19 07:26:42 | 显示全部楼层 |阅读模式


◎译  名 第三类打仗
◎片  名 Close Encounters of the Third Kind
◎年  代 1977
◎产  地 美国
◎类  别 剧情 / 科幻
◎语  言 英语 / 法语 / 西班牙语 / 印地语 / 汉语普通话
◎上映日期 1977-11-15(纽约首映) / 1977-12-14(美国) / 1990-09-16(中国大陆)
◎IMDb评星  ★★★★★★★✦☆☆
◎IMDb评分  7.6/10 from 206,482 users
◎IMDb链接  https://www.imdb.com/title/tt0075860/
◎豆瓣评星 ★★★✦☆
◎豆瓣评分 7.2/10 from 20,447 users
◎豆瓣链接 https://movie.douban.com/subject/1298405/
◎片  长 135分钟 / 137分钟(纪念版)
◎导  演 史蒂文·斯皮尔伯格 / Steven Spielberg
◎演  员 理查德·德莱福斯 / Richard Dreyfuss | 饰 诺伊·尼尔瑞 Roy Neary
      弗朗索瓦·特吕弗 / François Truffaut | 饰 克劳德·拉康姆 Claude Lacombe
      特瑞·加尔 / Teri Garr | 饰 罗尼·尼尔瑞 Ronnie Neary
      梅林达·狄龙 / Melinda Dillon | 饰 吉祥安·吉勒 Jillian Guiler
      鲍勃·巴拉班 / Bob Balaban | 饰 大卫·劳克林 David Laughlin
      J·帕特里克·麦克纳马拉 / J. Patrick McNamara | 饰 项目负责人 Project Leader
      沃伦·肯梅灵 / Warren J. Kemmerling | 饰 怀尔德·比尔 Wild Bill
      罗伯茨·布洛瑟姆 / Roberts Blossom | 饰 法默 Farmer
      菲利普·多德斯 / Philip Dodds | 饰 让·克劳德 Jean Claude
      卡里·加菲 / Cary Guffey | 饰 巴里·吉勒 Barry Guiler
      兰斯·亨利克森 / Lance Henriksen | 饰 罗伯特 Robert
      麦瑞尔·康纳利 / Merrill Connally | 饰 团队带领者 Team Leader
      吉恩·戴纳斯基 / Gene Dynarski | 饰 艾克 Ike
      诺曼·巴托德 / Norman Bartold | 饰 Ohio Tolls
      约瑟夫·索默 / Josef Sommer | 饰 赖瑞·巴特勒 Larry Butler
      卡尔·韦瑟斯 / Carl Weathers | 饰 军事差人 Military Police
      马修·罗宾斯 / Matthew Robbins | 饰 Returnee #3 Flt. 19
      Bob Westmoreland Bob Westmoreland | 饰 Load Dispatcher
      Galen Thompson Galen Thompson | 饰 Special Forces
      成本内特·韦恩·迪恩 / Bennett Wayne Dean Sr. | 饰 Scientist
      J. Allen Hynek J. Allen Hynek
      詹姆斯·基恩 / James Keane | 饰 Radio Telescope Team
      Basil Hoffman Basil Hoffman | 饰 Longly
      Amy Douglass Amy Douglass | 饰 Implantee
      Roger Ernest Roger Ernest | 饰 Highway Patrolman
      Justin Dreyfuss Justin Dreyfuss | 饰 Toby Neary
      约翰·丹尼斯·约翰斯顿 / John Dennis Johnston | 饰 Special Forces
      乔治·第桑佐 / George DiCenzo | 饰 Major Benchley
      Alexander Lockwood Alexander Lockwood | 饰 Implantee
      哈尔·巴伍德 / Hal Barwood | 饰 Returnee #2 Flt. 19
      Luis Contreras Luis Contreras | 饰 Federale
      Bill Thurman Bill Thurman | 饰 Air Traffic
      Eumenio Blanco Eumenio Blanco | 饰 Sunburned Old Man
◎编  剧 史蒂文·斯皮尔伯格 / Steven Spielberg
      哈尔·巴伍德 / Hal Barwood
      杰里·贝尔森 / Jerry Belson
      约翰·希尔 / John Hill
      马修·罗宾斯 / Matthew Robbins
◎制  片  人 迈克尔·菲利普斯 / Michael Phillips
      朱莉娅·菲利普斯 / Julia Phillips
      Clark L. Paylow Clark L. Paylow
◎音  乐 约翰·威廉姆斯 / John Williams
◎摄  影 维尔莫什·日格蒙德 / Vilmos Zsigmond
◎剪  辑 迈克尔·卡恩 / Michael Kahn
◎选  角 Shari Rhodes Shari Rhodes
      茱莉叶·泰勒 / Juliet Taylor
◎美  术 菲尔·艾布拉姆森 / Phil Abramson
      乔·阿尔夫斯 / Joe Alves
      丹尼尔·A·洛米诺 / Daniel A. Lomino
◎化  妆 Bob Westmoreland Bob Westmoreland
      Sharleen Rassi Sharleen Rassi
      Edie Panda Edie Panda
◎副  导  演 Charles Myers Charles Myers
◎视觉殊效 道格拉斯·特朗布尔 / Douglas Trumbull
      格雷戈里·杰恩 / Gregory Jein
      保罗·哈特森 / Paul Huston
      罗科·焦弗雷 / Rocco Gioffre
      丹尼斯·穆伦 / Dennis Muren
      唐·特朗布尔 / Don Trumbull
      Joseph A. Ippolito Joseph A. Ippolito
      Jack Hinkle Jack Hinkle
      David Jones David Jones
      布鲁斯·尼科尔森 / Bruce Nicholson
      马修·尤里奇 / Matthew Yuricich
      Gregory L. McMurry Gregory L. McMurry
      David R. Hardberger David R. Hardberger
      霍伊特·耶特曼 / Hoyt Yeatman
      罗伯特·斯沃斯 / Robert Swarthe
      大卫·K·斯图尔特 / David K. Stewart
      斯科特·斯奎尔斯 / Scott Squires
      理查德·尤里西奇 / Richard Yuricich
      克里斯托弗·S·罗斯 / Christopher S. Ross
      彼得·安德森 / Peter Anderson
◎简  介 
  1978年意大利大卫奖最好外语片。
  1945年的一天夜里,当诺伊·尼尔瑞(理查德·德莱福斯 Richard Dreyfuss 饰)在装载卡车时,忽然被奥秘的光芒所覆盖,以后希奇的幻象和五个音符一向在他脑海中盘旋。他能否发现幻象的意义,又是谁将其置于他的脑海中呢?
  与此同时,美国政府同星际来客有了一定的打仗并肯定其下降的地址。为了粉饰真相,政府要求人们阔别此地。但是,包括诺伊在内的一群人,却被其配合的幻象所吸引,来到此地。
  在沙漠中的魔鬼山上,空军姑且修建的基地上空,外星人如约来到,他们的飞船流光异彩,将半个天空都照亮了。人类播放了之前从太空接管到的外星人信息中破译出的音乐作为联络的手段,飞船的大门翻开了,畴前失落的地球人都回到了自己的故乡,而一批外形矮小的外星人则来到地球人中心和他们做心灵的相同……
◎获奖情况 
  第50届奥斯卡金像奖 (1978)
  最好导演(提名) 史蒂文·斯皮尔伯格
  最好女配角(提名) 梅林达·狄龙
  最好摄影 维尔莫什·日格蒙德
  最好剪辑(提名) 迈克尔·卡恩
  最好视觉结果(提名) 道格拉斯·特朗布尔,罗伊·阿博盖斯特,马修·尤里奇,格雷戈里·杰恩,理查德·尤里西奇
  最好声响(提名) 唐·麦克杜格尔,罗伯特·努德森,罗伯特·格拉斯,吉恩·S·坎塔梅萨
  最好艺术指导(提名) 乔·阿尔夫斯,菲尔·艾布拉姆森,丹尼尔·A·洛米诺
  最好原创配乐(提名) 约翰·威廉姆斯
  出格成就奖 弗兰克·E·华纳
◎幕后揭秘
  几经周折的剧本
  年少时,史蒂文·斯皮尔伯格曾和父亲一路旁观新泽西的流星雨,从那一刻起,他就发生了创作《第三类打仗》的想法。1964年,年仅18岁的斯皮尔伯格自编自导了科幻长片《火光》,他在16岁时完成了该片剧本,而拍摄经费只要区区600美圆,该片让斯皮尔伯格第一次获得了贸易成功,在一家影院上映以后,斯皮尔伯格净赚100美圆。值得一提的是,《火光》中的很多场景与《第三类打仗》千篇一概。1970年,斯皮尔伯格完成了一部名为“Experiences”的短篇小说,小说中报告了有关不明飞翔物的奇异履历。1973年末,正在忙于《横冲直撞大流亡》前期建造的斯皮尔伯格与哥伦比亚电影公司签约拍摄一部科幻片,建造人是迈克尔·菲利普斯和朱莉娅·菲利普斯。
  斯皮尔伯格开初想拍摄一部关于UFO信徒的记载片大概小本钱电影,但他后来决议拍摄一部依靠于技术水平的电影,而且以为250万美圆的拍摄经费远远不够。他鉴戒了《怪人》结尾的一段话,将影片命名为“Watch the Skies”,他重写了故事原由,让故事围绕美国蓝皮书计划展开。斯皮尔伯格找到了威拉德·赫依克和格洛丽亚·卡茨,卡茨回忆说:“飞碟居然下降在西好莱坞的罗伯逊大道,我对他说,‘史蒂文,这是我听过的最糟糕的想法。’”1973年12月,斯皮尔伯格找来保罗·施拉德编写剧本,并计划在1974年末开拍,后出处于要筹拍《大白鲨》,斯皮尔伯格推延了《Watch the Skies》的拍摄。
  《大白鲨》不单创下了1亿美圆的票房记载,而且还赢得了如潮好评,哥伦比亚公司决议让斯皮尔伯格铺开手脚,听凭他为所欲为。不外,看到施拉德剧本的斯皮尔伯格抓狂不已,由于负罪感深重的剧本故事与UFO毫无关联。在施拉德笔下,故事仆人公保罗·范·欧文是一位45岁的空军官员,负责嘲讽和揭穿飞碟的真相,一天,他果然遭受了飞碟,因而他威胁政府要将真相公诸于世,双方花费15年时候才告竣息争。斯皮尔伯格与施拉德发生分歧,随即找到约翰·希尔重写剧本,可希尔的剧本后来也被斯皮尔伯格拒绝。哈尔·巴伍德和马修·罗宾斯提出了绑架儿童的倡议,斯皮尔伯格起头亲身动笔创作剧本,他的写作气概深受电影《木偶奇遇记》主题曲《星星祝愿歌》(When You Wish upon a Star)的影响。在筹拍阶段,影片片名被改成“Close Encounters of the Third Kind”,曾与美国空军携手努力于蓝皮书计划的J·艾伦·海尼克(J.Allen Hynek)博士任本片科学顾问。海尼克以为,虽然本片故事纯属虚拟,但其中很多内容都源于确切发生过的奥秘事务,勿庸置疑的捕捉到了实在可信的UFO现象。斯皮尔伯格希望《第三类消除》能像《大白鲨》一样囊括票房,因而在准备进程中背负了庞大压力,不外,美国空军和水兵都拒绝辅佐影片拍摄。
  关于拍摄与上映
  本片于1976年5月16日开拍,斯皮尔伯格原本筹算放弃实景拍摄,全数采用棚拍,但终极还是一改初衷。影片取景地包括华纳兄弟制片厂的15、16号摄影棚、魔鬼塔国家纪念碑、一个烧毁的二战机库和一个铁路仓库,其中机库的占空中积足有天下最大摄影棚的6倍。在影片拍摄时代,斯皮尔伯格遭受了层见叠出的技术和经费题目,他称本片的糟糕履历和拍摄投入都是《大白鲨》的两倍。在哥伦比亚公司深陷经济危机以后,影片拍摄更是落井下石。斯皮尔伯格在1973年的原定预算是270万美圆,而终极耗资竟高达1940万。哥伦比亚制片主管约翰·维奇(John Veich)回忆说:“假如我们事前晓得影片耗资如此庞大,必定不会赞成拍摄,由于我们底子付出不起。”出演本片的弗朗索瓦·特吕弗称影片的严重超支应当归罪于建造人朱莉娅·菲利普斯的决议失误。
  在阿拉巴马州拍摄时代,影片剧组不单饱受飓风天气熬煎,而且摄影棚也被雷击损坏过半。已经拒绝为《大白鲨》掌镜的摄影师维尔莫斯·齐格蒙德埋怨说:“史蒂文每晚城市旁观电影,那些电影激起出源源不竭的灵感,因而他加拍了很多镜头,拍摄周期也就频频耽搁。”一位剧组职员曾说道:“史蒂文,假如你愿意停止旁观那些可爱的电影,我们必定会如期达成。”后来,建造人朱莉娅·菲利普斯在回忆录《You'll Never Eat Lunch in This Town Again》中对斯皮尔伯格、齐格蒙德和特吕弗大放厥词,她将斯皮尔伯格称作完善主义者。在前期建造时代,朱莉娅因吸食可卡因被制片方解雇。
  本片视觉殊效耗资330万美圆,这在那时可以再拍一部电影。任视觉殊效总监的道格拉斯·特鲁姆布在片中尝试试探了活动控制摄影术,由于本片是变形宽银幕电影,所以为了更好的顺应35mm胶片,摄制组挑选用70mm胶片拍摄视觉殊效画面。在拍摄UFO镜头时,剧组曾尝试利用CGI技术,但斯皮尔伯格发现这类70年月的新技术过于高贵,所以未予采用。片尾场景中身段矮小的外星人由阿拉巴马莫比尔(Mobile)当地的女童乔妆而成,斯皮尔伯格之所以会挑选女童,是由于他感觉女孩比男孩的行动更文雅。剧组曾斟酌建造外星大家偶,但后来以失利了结,只在片尾外星人与拉康姆交换的画面中利用了人偶。
  影片原定在1977年年头上映,但因拍摄受阻而推延至11月。不外功夫不负故意人,影片的北美票房跨越了1亿1600万,外洋票房也高达1亿7170万,就那时而言,本片是哥伦比亚公司出品的最成功的电影。虽然如此,影片仍未到达斯皮尔伯格的预期结果,他说:“哥伦比亚公司那时正履历一场经济危机,所以他们急于用本片拯救公司挽回败局。我原筹算再用半年时候完善影片,在1978年夏日上映,可他们告诉我急需影片立即上映。在《第三类打仗》获得贸易成功以后,我要求哥伦比亚公司让我完成导演剪辑版,他们赞成了,但条件是要我展现出外星人母船的内部画面,从而谋取卖点。”1979年,哥伦比亚公司付出给斯皮尔伯格250万美圆重新刊行《第三类打仗》,斯皮尔伯格随即增加了7分钟画面,但《第三类打仗:出格剪辑版》比最初的影院版收缩了3分钟。终极,出格剪辑版赚取了1570万,影片全球票房总额由此跨越了3亿美圆。
  1. Video
  2. ID : 1
  3. Format : HEVC
  4. Format/Info : High Efficiency Video Coding
  5. Format profile : Main [email protected]@Main
  6. HDR format : SMPTE ST 2086, HDR10 compatible
  7. Codec ID : V_MPEGH/ISO/HEVC
  8. Duration : 2 h 17 min
  9. Bit rate : 8 020 kb/s
  10. Width : 3 840 pixels
  11. Height : 1 604 pixels
  12. Display aspect ratio : 2.40:1
  13. Frame rate mode : Constant
  14. Frame rate : 23.976 (24000/1001) FPS
  15. Color space : YUV
  16. Chroma subsampling : 4:2:0
  17. Bit depth : 10 bits
  18. Bits/(Pixel*Frame) : 0.054
  19. Stream size : 7.69 GiB (93%)
  20. Writing library : x265 3.5+rarbg-HDR-38-20255e6:[Linux][clang 16.0.0][64 bit] 10bit
  21. Encoding settings : cpuid=1111039 / frame-threads=6 / wpp / no-pmode / no-pme / no-psnr / no-ssim / log-level=2 / input-csp=1 / input-res=3840x1604 / interlace=0 / total-frames=0 / level-idc=51 / high-tier=1 / uhd-bd=0 / ref=4 / no-allow-non-conformance / repeat-headers / annexb / aud / no-eob / no-eos / no-hrd / info / hash=0 / no-temporal-layers / no-open-gop / min-keyint=1 / keyint=24 / gop-lookahead=0 / bframes=4 / b-adapt=2 / b-pyramid / bframe-bias=0 / rc-lookahead=25 / lookahead-slices=4 / scenecut=40 / no-hist-scenecut / radl=0 / no-splice / no-intra-refresh / ctu=64 / min-cu-size=8 / rect / no-amp / max-tu-size=32 / tu-inter-depth=1 / tu-intra-depth=1 / limit-tu=0 / rdoq-level=2 / dynamic-rd=0.00 / no-ssim-rd / signhide / no-tskip / nr-intra=0 / nr-inter=0 / no-constrained-intra / strong-intra-smoothing / max-merge=3 / limit-refs=3 / no-limit-modes / me=3 / subme=3 / merange=57 / temporal-mvp / no-frame-dup / no-hme / weightp / no-weightb / no-analyze-src-pics / deblock=0:0 / no-sao / no-sao-non-deblock / rd=4 / selective-sao=0 / no-early-skip / rskip / no-fast-intra / no-tskip-fast / no-cu-lossless / no-b-intra / no-splitrd-skip / rdpenalty=0 / psy-rd=2.00 / psy-rdoq=1.00 / no-rd-refine / no-lossless / cbqpoffs=0 / crqpoffs=0 / rc=abr / bitrate=8000 / qcomp=0.60 / qpstep=4 / stats-write=0 / stats-read=2 / cplxblur=20.0 / qblur=0.5 / ipratio=1.40 / pbratio=1.30 / aq-mode=1 / aq-strength=1.00 / cutree / zone-count=0 / no-strict-cbr / qg-size=32 / no-rc-grain / qpmax=69 / qpmin=0 / no-const-vbv / sar=1 / overscan=0 / videoformat=5 / range=0 / colorprim=9 / transfer=16 / colormatrix=9 / chromaloc=0 / display-window=0 / master-display=G(13250,34500)B(7500,3000)R(34000,16000)WP(15635,16450)L(40000000,50) / cll=10000,791 / min-luma=0 / max-luma=1023 / log2-max-poc-lsb=8 / vui-timing-info / vui-hrd-info / slices=1 / no-opt-qp-pps / no-opt-ref-list-length-pps / no-multi-pass-opt-rps / scenecut-bias=0.05 / hist-threshold=0.03 / no-opt-cu-delta-qp / no-aq-motion / hdr10 / hdr10-opt / no-dhdr10-opt / no-idr-recovery-sei / analysis-reuse-level=0 / analysis-save-reuse-level=0 / analysis-load-reuse-level=0 / scale-factor=0 / refine-intra=0 / refine-inter=0 / refine-mv=1 / refine-ctu-distortion=0 / no-limit-sao / ctu-info=0 / no-lowpass-dct / refine-analysis-type=0 / copy-pic=1 / max-ausize-factor=1.0 / no-dynamic-refine / no-single-sei / no-hevc-aq / no-svt / no-field / qp-adaptation-range=1.00 / scenecut-aware-qp=0conformance-window-offsets / right=0 / bottom=0 / decoder-max-rate=0 / no-vbv-live-multi-pass
  22. Default : Yes
  23. Forced : No
  24. Color range : Limited
  25. Color primaries : BT.2020
  26. Transfer characteristics : PQ
  27. Matrix coefficients : BT.2020 non-constant
  28. Mastering display color primaries : Display P3
  29. Mastering display luminance : min: 0.0050 cd/m2, max: 4000 cd/m2
  30. Maximum Content Light Level : 10000 cd/m2
  31. Maximum Frame-Average Light Level : 791 cd/m2
  32. Audio
  33. ID : 2
  34. Format : E-AC-3
  35. Format/Info : Enhanced AC-3
  36. Commercial name : Dolby Digital Plus
  37. Codec ID : A_EAC3
  38. Duration : 2 h 17 min
  39. Bit rate mode : Constant
  40. Bit rate : 640 kb/s
  41. Channel(s) : 6 channels
  42. Channel layout : L R C LFE Ls Rs
  43. Sampling rate : 48.0 kHz
  44. Frame rate : 31.250 FPS (1536 SPF)
  45. Compression mode : Lossy
  46. Stream size : 628 MiB (7%)
  47. Title : English DDP 5.1
  48. Language : English
  49. Service kind : Complete Main
  50. Default : Yes
  51. Forced : No
  52. Text #1
  53. ID : 3
  54. Format : UTF-8
  55. Codec ID : S_TEXT/UTF8
  56. Codec ID/Info : UTF-8 Plain Text
  57. Duration : 39 min 18 s
  58. Bit rate : 1 b/s
  59. Frame rate : 0.003 FPS
  60. Count of elements : 8
  61. Stream size : 383 Bytes (0%)
  62. Title : English Forced SRT
  63. Language : English
  64. Default : No
  65. Forced : Yes
  66. Text #2
  67. ID : 4
  68. Format : UTF-8
  69. Codec ID : S_TEXT/UTF8
  70. Codec ID/Info : UTF-8 Plain Text
  71. Duration : 2 h 17 min
  72. Bit rate : 40 b/s
  73. Frame rate : 0.132 FPS
  74. Count of elements : 1084
  75. Stream size : 40.9 KiB (0%)
  76. Title : English SRT
  77. Language : English
  78. Default : Yes
  79. Forced : No
  80. Text #3
  81. ID : 5
  82. Format : UTF-8
  83. Codec ID : S_TEXT/UTF8
  84. Codec ID/Info : UTF-8 Plain Text
  85. Duration : 2 h 17 min
  86. Bit rate : 46 b/s
  87. Frame rate : 0.172 FPS
  88. Count of elements : 1413
  89. Stream size : 47.2 KiB (0%)
  90. Title : English SDH SRT
  91. Language : English
  92. Default : No
  93. Forced : No
  94. Menu
  95. 00:00:00.000 : en:Chapter 01
  96. 00:14:41.171 : en:Chapter 02
  97. 00:19:57.112 : en:Chapter 03
  98. 00:24:07.070 : en:Chapter 04
  99. 00:37:22.573 : en:Chapter 05
  100. 00:48:38.790 : en:Chapter 06
  101. 01:01:18.299 : en:Chapter 07
  102. 01:19:32.601 : en:Chapter 08
  103. 01:26:26.639 : en:Chapter 09
  104. 01:33:59.884 : en:Chapter 10
  105. 01:42:35.816 : en:Chapter 11
  106. 01:45:42.377 : en:Chapter 12
  107. 01:53:43.399 : en:Chapter 13
  108. 01:57:49.729 : en:Chapter 14
  109. 02:05:52.253 : en:Chapter 15
  110. 02:11:32.426 : en:Chapter 16
复制代码











第三类打仗.Close.Encounters.of.the.Third.Kind.1977.DC.2160p.UHD.BluRay.x265.10bit.HDR.DDP5.1-RARBG 8.30GB

Close.Encounters.of.the.Third.Kind.1977.DC.2160p.UHD.BluRay.x265.10bit.HDR.DDP5..torrent

11.07 KB, 下载次数: 0

回复

使用道具 举报

懒得打字嘛,点击右侧快捷回复 【右侧内容,后台自定义】
您需要登录后才可以回帖 登录 | 立即注册

本版积分规则

Archiver|手机版|小黑屋| 中国高清网  |网站地图

GMT+8, 2023-3-31 18:23 , Processed in 0.149413 second(s), 26 queries .

Powered by HDchina X3.4

Copyright 2017-2019©HDchina.All right reserved

返回顶部 联系我们